osu file format v14

[General]
AudioFilename: OSTER project - WICKeD CRSS.mp3
AudioLeadIn: 2000
PreviewTime: 47230
Countdown: 1
SampleSet: Normal
StackLeniency: 0.7
Mode: 0
LetterboxInBreaks: 0
WidescreenStoryboard: 1

[Editor]
Bookmarks: 25873,33873,47230,55229,59229,64560,65893,67226,77893,79226,83226,95226
DistanceSpacing: 0.9
BeatDivisor: 6
GridSize: 4
TimelineZoom: 2.1

[Metadata]
Title:WICKeD CROSS
TitleUnicode:WICKeD CRφSS
Artist:OSTER project
ArtistUnicode:OSTER project
Creator:Crimmi
Version:MEDIUM
Source:REFLEC BEAT groovin'!!
Tags:Azulae MYSTICAL STRIKE Vampire Phantom Beast Radar Maya Takamura ふたなりP Futanari-P
BeatmapID:774305
BeatmapSetID:351185

[Difficulty]
HPDrainRate:6
CircleSize:3.5
OverallDifficulty:5
ApproachRate:6
SliderMultiplier:1.2
SliderTickRate:1

[Events]
//Background and Video events
0,0,"dark_red_night_blood_moon_artwork_burn_black_hair_nanfe_1366x768.jpg",0,0
//Break Periods
2,26073,30156
//Storyboard Layer 0 (Background)
//Storyboard Layer 1 (Fail)
//Storyboard Layer 2 (Pass)
//Storyboard Layer 3 (Foreground)
//Storyboard Sound Samples

[TimingPoints]
540,333.333333333333,4,1,1,100,1,0
25873,-100,4,2,0,100,0,0
33873,-100,4,1,1,100,0,0
47230,333.333333333333,3,1,1,100,1,0
47230,-100,3,2,0,100,0,0
55229,-100,3,1,1,100,0,0
59229,-100,3,2,0,100,0,0
64560,333.333333333333,4,1,1,100,1,0
65893,-100,4,2,0,100,0,0
67226,-100,4,1,1,100,0,0
77893,-100,4,2,0,100,0,0
79226,-100,4,1,1,100,0,0
83226,-100,4,1,1,100,0,1
95226,-100,4,1,1,100,0,0
99059,-100,4,3,0,100,0,0
100893,-100,4,1,0,100,0,0

[Colours]
Combo1 : 192,192,192
Combo2 : 128,0,0
Combo3 : 255,255,255

[HitObjects]
424,80,540,5,4,0:0:0:0:
456,184,873,1,0,0:0:0:0:
352,160,1206,1,8,0:0:0:0:
456,184,1539,2,0,L|432:256,1,60
464,288,1873,2,0,P|384:320|232:280,1,240,0|8,0:0|0:0,0:0:0:0:
144,232,2873,1,0,0:0:0:0:
64,312,3206,6,0,P|40:248|40:192,1,120
72,152,3706,1,0,0:0:0:0:
112,120,3873,1,8,0:0:0:0:
144,232,4206,1,0,0:0:0:0:
216,152,4539,2,0,P|240:192|232:280,1,120
224,368,5206,2,0,L|352:320,1,120,8|0,0:0|0:0,0:0:0:0:
440,296,5873,6,0,L|384:184,1,120,4|0,0:0|0:0,0:0:0:0:
360,144,6373,1,0,0:0:0:0:
336,96,6539,1,8,0:0:0:0:
232,136,6873,1,0,0:0:0:0:
144,80,7206,2,0,P|128:160|264:236,1,260,0|8,0:0|0:0,0:0:0:0:
232,136,8206,1,0,0:0:0:0:
248,32,8539,6,0,P|304:56|336:120,1,120,4|8,0:0|0:0,0:0:0:0:
408,184,9206,2,0,L|280:216,1,120,0|8,0:0|0:0,0:0:0:0:
184,224,9873,2,0,L|192:296,3,60,0|0|8|0,0:0|0:0|0:0|0:0,0:0:0:0:
136,272,10539,2,0,L|144:336,3,60,0|0|8|0,0:0|0:0|0:0|0:0,0:0:0:0:
256,192,11206,12,4,12539,0:0:0:0:
488,192,13206,6,0,L|360:192,1,120,4|8,0:0|0:0,0:0:0:0:
256,192,13873,1,4,0:0:0:0:
312,280,14206,2,0,P|264:296|240:288,1,60
208,320,14539,2,0,L|168:200,1,120,4|8,0:0|0:0,0:0:0:0:
136,112,15206,1,4,0:0:0:0:
240,144,15539,1,0,0:0:0:0:
288,160,15706,1,0,0:0:0:0:
336,176,15873,6,0,P|344:120|328:56,2,120,4|8|4,0:0|0:0|0:0,0:0:0:0:
256,248,16873,1,8,0:0:0:0:
360,272,17206,2,0,P|336:320|264:360,1,120,0|8,0:0|0:0,0:0:0:0:
184,312,17873,6,0,L|148:248,1,60,4|0,0:0|0:0,0:0:0:0:
128,216,18206,1,8,0:0:0:0:
72,120,18539,1,0,0:0:0:0:
72,120,18706,2,0,L|136:88,1,60,0|8,0:0|0:0,0:0:0:0:
208,24,19206,2,0,P|232:80|216:144,1,120,0|8,0:0|0:0,0:0:0:0:
144,208,19873,2,0,L|264:232,1,120,0|8,0:0|0:0,0:0:0:0:
312,240,20373,1,0,0:0:0:0:
368,248,20539,5,0,0:0:0:0:
408,144,20873,1,8,0:0:0:0:
464,240,21206,2,0,L|472:304,2,60,0|0|8,0:0|0:0|0:0,0:0:0:0:
368,248,21873,2,0,P|320:264|256:240,1,120,0|8,0:0|0:0,0:0:0:0:
168,304,22539,6,0,P|144:240|152:224,1,80,4|0,0:0|0:0,0:0:0:0:
160,200,22873,2,0,P|168:176|152:120,1,80,8|0,0:0|0:0,0:0:0:0:
120,120,23206,2,0,P|104:72|120:32,1,80
144,40,23539,2,0,P|192:48|240:40,1,80,8|0,0:0|0:0,0:0:0:0:
256,40,23873,2,0,P|320:56|336:64,1,80
368,64,24206,2,0,L|408:72,2,40
256,192,24539,12,4,25873,0:0:0:0:
200,80,31206,6,0,B|184:136|184:136|200:208,1,120
304,176,31873,2,0,L|312:240,2,60,2|0|0,0:0|0:0|0:0,0:0:0:0:
304,72,32539,2,0,P|352:88|400:144,1,120
424,240,33206,2,0,L|480:208,2,60,2|0|0,0:0|0:0|0:0,0:0:0:0:
344,320,33873,2,0,P|272:312|224:328,1,120,4|8,0:0|0:0,0:0:0:0:
128,360,34539,2,0,L|112:224,1,120,0|8,0:0|0:0,0:0:0:0:
96,136,35206,5,0,0:0:0:0:
200,96,35539,1,8,0:0:0:0:
184,200,35873,2,0,L|208:272,2,60,0|0|8,0:0|0:0|0:0,0:0:0:0:
200,96,36539,6,0,P|248:112|288:176,1,120,0|8,0:0|0:0,0:0:0:0:
384,216,37206,2,0,L|264:280,1,120,0|8,0:0|0:0,0:0:0:0:
184,328,37873,2,0,L|224:376,2,60,0|0|8,0:0|0:0|0:0,0:0:0:0:
120,240,38539,1,0,0:0:0:0:
104,192,38706,1,0,0:0:0:0:
120,144,38873,1,8,0:0:0:0:
72,48,39206,6,0,P|112:40|192:64,1,120,0|8,0:0|0:0,0:0:0:0:
296,40,39873,2,0,L|232:160,1,120,0|8,0:0|0:0,0:0:0:0:
184,240,40539,1,0,0:0:0:0:
240,256,40706,1,0,0:0:0:0:
288,240,40873,1,8,0:0:0:0:
368,312,41206,2,0,P|392:264|384:192,1,120,0|8,0:0|0:0,0:0:0:0:
448,112,41873,6,0,L|320:104,1,120,4|8,0:0|0:0,0:0:0:0:
240,40,42539,2,0,P|224:96|248:168,1,120,0|8,0:0|0:0,0:0:0:0:
304,240,43206,2,0,L|168:256,1,120,0|8,0:0|0:0,0:0:0:0:
80,264,43873,2,0,L|80:208,3,40,0|0|0|8,0:0|0:0|0:0|0:0,0:0:0:0:
24,136,44539,6,0,P|80:120|152:144,1,120,0|8,0:0|0:0,0:0:0:0:
232,88,45206,2,0,L|216:216,1,120,0|8,0:0|0:0,0:0:0:0:
152,288,45873,2,0,P|200:312|264:296,1,120,0|8,0:0|0:0,0:0:0:0:
360,248,46539,1,4,0:0:0:0:
272,192,46873,1,8,0:0:0:0:
360,248,47230,6,0,P|376:208|352:128,1,120,4|0,0:0|0:0,0:0:0:0:
272,192,47896,1,2,0:0:0:0:
224,160,48063,1,0,0:0:0:0:
184,128,48230,1,0,0:0:0:0:
168,232,48563,2,0,L|96:232,2,60,0|0|2,0:0|0:0|0:0,0:0:0:0:
160,336,49230,2,0,P|208:328|264:256,1,120
296,176,49896,1,2,0:0:0:0:
368,256,50230,6,0,P|392:208|392:128,1,120
432,104,50730,2,0,L|312:104,1,120,0|2,0:0|0:0,0:0:0:0:
256,104,51229,1,0,0:0:0:0:
144,104,51563,2,0,L|144:40,2,60,0|0|2,0:0|0:0|0:0,0:0:0:0:
144,208,52229,1,2,0:0:0:0:
256,208,52563,2,0,L|256:280,2,60
360,208,53229,6,0,P|336:144|176:144,1,240,0|2,0:0|0:0,0:0:0:0:
80,168,54229,2,0,L|128:224,1,60
152,256,54563,1,2,0:0:0:0:
224,336,54896,1,0,0:0:0:0:
264,232,55229,6,0,P|312:272|456:184,1,240,4|8,0:0|0:0,0:0:0:0:
408,176,56063,1,0,0:0:0:0:
360,152,56229,2,0,P|304:112|152:176,1,240,0|2,0:0|0:0,0:0:0:0:
48,176,57229,2,0,P|80:248|240:232,1,240,4|8,0:0|0:0,0:0:0:0:
264,216,58063,1,0,0:0:0:0:
304,184,58229,2,0,L|392:280,2,120,0|0|2,0:0|0:0|0:0,0:0:0:0:
224,104,59229,5,4,0:0:0:0:
144,176,59563,2,0,L|136:256,2,60,2|0|0,0:0|0:0|0:0,0:0:0:0:
184,144,60063,1,0,0:0:0:0:
224,104,60229,2,0,P|176:72|40:176,1,240,2|0,0:0|0:0,0:0:0:0:
32,264,61229,2,0,L|176:264,1,120
264,264,61896,1,2,0:0:0:0:
288,312,62063,1,0,0:0:0:0:
312,360,62229,2,0,P|360:304|280:160,1,240,0|2,0:0|0:0,0:0:0:0:
200,200,63229,2,0,P|192:144|408:144,1,360,0|2,0:0|0:0,0:0:0:0:
256,192,64560,12,2,66560,0:0:0:0:
448,328,67226,5,4,0:0:0:0:
392,240,67560,1,8,0:0:0:0:
328,328,67893,2,0,L|288:272,1,60
256,240,68226,1,8,0:0:0:0:
160,288,68560,2,0,L|192:344,2,60,0|0|8,0:0|0:0|0:0,0:0:0:0:
104,200,69226,2,0,L|168:160,1,60
200,136,69560,1,8,0:0:0:0:
248,40,69893,6,0,P|288:72|304:144,1,120,0|8,0:0|0:0,0:0:0:0:
240,224,70560,2,0,L|360:224,1,120,0|8,0:0|0:0,0:0:0:0:
464,224,71226,2,0,L|464:152,2,60,0|0|8,0:0|0:0|0:0,0:0:0:0:
464,336,71893,1,0,0:0:0:0:
408,352,72059,1,0,0:0:0:0:
352,336,72226,1,8,0:0:0:0:
408,248,72559,6,0,P|360:232|288:256,1,120,4|8,0:0|0:0,0:0:0:0:
248,352,73226,2,0,L|168:232,1,120,0|8,0:0|0:0,0:0:0:0:
152,208,73726,1,0,0:0:0:0:
120,168,73893,1,0,0:0:0:0:
216,112,74226,1,8,0:0:0:0:
264,208,74559,2,0,L|320:168,2,60,0|0|8,0:0|0:0|0:0,0:0:0:0:
216,112,75226,6,0,P|176:152|152:224,1,120,0|8,0:0|0:0,0:0:0:0:
136,264,75726,1,0,0:0:0:0:
112,312,75893,2,0,L|256:320,1,120,0|8,0:0|0:0,0:0:0:0:
320,376,76559,2,0,P|336:320|312:248,1,120,0|8,0:0|0:0,0:0:0:0:
296,216,77059,1,0,0:0:0:0:
272,168,77226,2,0,L|240:96,2,60,0|0|8,0:0|0:0|0:0,0:0:0:0:
176,224,77893,6,0,L|192:304,2,60,4|0|2,0:0|0:0|0:0,0:0:0:0:
160,176,78393,1,0,0:0:0:0:
144,128,78559,2,0,P|192:104|280:120,1,120,0|2,0:0|0:0,0:0:0:0:
368,96,79226,6,0,L|424:80,2,40,4|0|0,0:0|0:0|0:0,0:0:0:0:
360,128,79559,2,0,L|408:160,2,40,2|0|0,0:0|0:0|0:0,0:0:0:0:
336,152,79893,2,0,L|344:200,2,40
304,160,80226,2,0,P|232:176|192:152,1,120,8|4,0:0|0:0,0:0:0:0:
120,72,80893,1,8,0:0:0:0:
48,152,81226,2,0,L|64:224,1,60
96,312,81726,1,0,0:0:0:0:
96,312,81893,2,0,P|184:344|336:312,1,240,0|4,0:0|0:0,0:0:0:0:
416,264,82893,1,8,0:0:0:0:
488,184,83226,6,0,P|392:160|312:272,1,240,4|4,0:0|0:0,0:0:0:0:
360,352,84226,1,8,0:0:0:0:
256,352,84559,2,4,P|160:368|136:240,1,240
176,152,85559,1,8,0:0:0:0:
232,144,85726,1,0,0:0:0:0:
288,152,85893,2,0,P|304:232|288:280,2,120,4|0|4,0:0|0:0|0:0,0:0:0:0:
176,152,86893,1,8,0:0:0:0:
232,64,87226,6,0,P|184:48|104:80,1,120,0|8,0:0|0:0,0:0:0:0:
176,152,87893,2,0,L|168:216,2,60,0|0|8,0:0|0:0|0:0,0:0:0:0:
232,64,88559,6,0,L|296:112,1,60
328,128,88893,1,8,0:0:0:0:
416,184,89226,1,0,0:0:0:0:
376,224,89393,1,0,0:0:0:0:
336,256,89559,1,8,0:0:0:0:
408,336,89893,2,0,P|360:360|272:336,1,120,0|8,0:0|0:0,0:0:0:0:
208,296,90559,2,0,L|152:256,1,60
112,232,90893,1,8,0:0:0:0:
24,168,91226,6,0,P|56:136|144:128,1,120,0|8,0:0|0:0,0:0:0:0:
216,56,91893,2,0,P|240:120|224:184,1,120,0|8,0:0|0:0,0:0:0:0:
136,224,92559,2,0,L|168:280,2,60,0|0|8,0:0|0:0|0:0,0:0:0:0:
32,256,93226,6,0,P|32:208|48:176,1,80,4|0,0:0|0:0,0:0:0:0:
72,152,93559,2,0,P|96:136|152:128,1,80,8|0,0:0|0:0,0:0:0:0:
184,136,93893,2,0,P|224:168|240:200,1,80
248,224,94226,2,0,P|240:280|224:304,1,80,8|0,0:0|0:0,0:0:0:0:
208,328,94559,2,0,P|296:320|336:336,1,120,0|8,0:0|0:0,0:0:0:0:
256,192,95226,12,4,97893,0:0:0:0:
144,192,99059,5,4,0:0:0:0:
368,192,99559,1,8,0:0:0:0:
256,352,100226,1,4,0:0:0:0:
256,136,100893,1,4,0:0:0:0:
256,192,100976,12,4,104893,0:0:0:0:
