osu file format v14

[General]
AudioFilename: OSTER project - WICKeD CRSS.mp3
AudioLeadIn: 2000
PreviewTime: 47230
Countdown: 0
SampleSet: Normal
StackLeniency: 0.7
Mode: 0
LetterboxInBreaks: 0
WidescreenStoryboard: 0

[Editor]
Bookmarks: 25873,33873,47230,55229,59229,64560,65893,67226,77893,79226,83226,95226
DistanceSpacing: 1.1
BeatDivisor: 4
GridSize: 4
TimelineZoom: 2.1

[Metadata]
Title:WICKeD CROSS
TitleUnicode:WICKeD CRφSS
Artist:OSTER project
ArtistUnicode:OSTER project
Creator:Crimmi
Version:HARD
Source:REFLEC BEAT groovin'!!
Tags:Azulae MYSTICAL STRIKE Vampire Phantom Beast Radar Maya Takamura ふたなりP Futanari-P
BeatmapID:774311
BeatmapSetID:351185

[Difficulty]
HPDrainRate:7
CircleSize:4
OverallDifficulty:7
ApproachRate:8
SliderMultiplier:1.4
SliderTickRate:2

[Events]
//Background and Video events
0,0,"dark_red_night_blood_moon_artwork_burn_black_hair_nanfe_1366x768.jpg",0,0
//Break Periods
2,26073,30456
//Storyboard Layer 0 (Background)
//Storyboard Layer 1 (Fail)
//Storyboard Layer 2 (Pass)
//Storyboard Layer 3 (Foreground)
//Storyboard Sound Samples

[TimingPoints]
540,333.333333333333,4,1,1,100,1,0
25873,-100,4,2,0,100,0,0
33873,-100,4,1,1,100,0,0
47230,333.333333333333,3,1,1,100,1,0
47230,-100,3,2,0,100,0,0
55229,-100,3,1,1,100,0,0
59229,-100,3,2,0,100,0,0
64560,333.333333333333,4,1,1,100,1,0
65893,-100,4,2,0,100,0,0
67226,-100,4,1,1,100,0,0
77893,-100,4,2,0,100,0,0
79226,-100,4,1,1,100,0,0
83226,-100,4,1,1,100,0,1
95226,-100,4,1,1,100,0,0
99059,-100,4,3,0,100,0,0
100893,-100,4,1,0,100,0,0

[Colours]
Combo1 : 192,192,192
Combo2 : 128,0,0
Combo3 : 255,255,255

[HitObjects]
24,64,540,6,0,P|96:40|160:80,1,140,4|0,0:0|0:0,0:0:0:0:
200,128,1039,1,0,0:0:0:0:
256,72,1206,2,0,P|280:112|240:200,1,140,8|0,0:0|0:0,0:0:0:0:
200,128,1706,1,0,0:0:0:0:
200,128,1873,2,0,L|256:280,1,140,4|0,0:0|0:0,0:0:0:0:
280,328,2373,5,0,0:0:0:0:
360,336,2539,2,0,P|352:288|328:264,1,70,8|0,0:0|0:0,0:0:0:0:
280,328,2873,2,0,L|192:328,1,70
144,368,3206,2,0,P|132:320|188:256,1,140,4|0,0:0|0:0,0:0:0:0:
210,328,3706,1,0,0:0:0:0:
210,328,3873,2,0,L|192:184,1,140,8|0,0:0|0:0,0:0:0:0:
176,112,4373,1,0,0:0:0:0:
252,100,4539,6,0,P|240:68|212:44,1,70,4|0,0:0|0:0,0:0:0:0:
116,172,4873,2,0,P|144:192|178:197,1,70
136,43,5206,2,0,P|108:65|96:97,2,70,8|0|0,0:0|0:0|0:0,0:0:0:0:
176,112,5706,1,0,0:0:0:0:
212,44,5873,6,0,P|240:68|224:176,1,140,4|0,0:0|0:0,0:0:0:0:
176,208,6373,1,0,0:0:0:0:
176,208,6456,1,0,0:0:0:0:
176,208,6539,2,0,L|328:208,1,140,8|0,0:0|0:0,0:0:0:0:
392,208,7039,1,0,0:0:0:0:
352,276,7206,2,0,P|404:288|468:232,1,140
392,208,7706,1,0,0:0:0:0:
432,144,7873,1,8,0:0:0:0:
464,76,8039,1,0,0:0:0:0:
400,116,8206,1,0,0:0:0:0:
340,164,8373,1,0,0:0:0:0:
280,212,8539,6,0,L|204:264,1,70
268,188,8873,2,0,L|196:192,1,70,8|0,0:0|0:0,0:0:0:0:
268,152,9206,2,0,L|200:128,1,70
280,128,9539,2,0,L|232:72,1,70,8|0,0:0|0:0,0:0:0:0:
180,20,9873,6,0,P|160:56|164:96,1,70
234,74,10206,1,8,0:0:0:0:
308,92,10373,1,0,0:0:0:0:
236,120,10539,1,0,0:0:0:0:
160,132,10706,1,0,0:0:0:0:
232,164,10873,1,8,0:0:0:0:
304,192,11039,1,0,0:0:0:0:
256,192,11206,12,8,12206,0:0:0:0:
452,32,12539,6,0,B|468:92|468:92|448:180,1,140,4|8,0:0|0:0,0:0:0:0:
432,244,13039,1,0,0:0:0:0:
508,260,13206,2,0,P|480:308|388:308,1,140,4|4,0:0|0:0,0:0:0:0:
340,272,13706,1,0,0:0:0:0:
284,220,13873,2,0,P|208:200|144:232,1,140,4|8,0:0|0:0,0:0:0:0:
92,268,14373,1,0,0:0:0:0:
36,320,14539,2,4,L|44:164,1,140
48,104,15039,1,0,0:0:0:0:
52,28,15206,6,0,P|104:48|120:128,1,140,4|8,0:0|0:0,0:0:0:0:
48,104,15706,1,0,0:0:0:0:
48,104,15873,2,4,L|196:160,1,140
252,180,16373,1,0,0:0:0:0:
304,124,16539,2,0,P|328:172|276:256,1,140,4|8,0:0|0:0,0:0:0:0:
252,180,17039,1,0,0:0:0:0:
200,236,17206,2,0,L|152:280,2,35
180,160,17539,2,0,L|140:160,2,35,8|0|0,0:0|0:0|0:0,0:0:0:0:
232,100,17873,6,0,P|292:108|336:176,1,140,4|8,0:0|0:0,0:0:0:0:
252,180,18373,1,0,0:0:0:0:
280,252,18539,2,0,L|304:328,2,70,0|0|8,0:0|0:0|0:0,0:0:0:0:
204,248,19039,1,0,0:0:0:0:
128,244,19206,1,0,0:0:0:0:
192,204,19373,1,0,0:0:0:0:
260,172,19539,1,8,0:0:0:0:
184,160,19706,1,0,0:0:0:0:
108,148,19873,2,0,L|96:92,2,35
32,132,20206,2,0,L|52:224,1,70,8|0,0:0|0:0,0:0:0:0:
0,256,20539,6,0,P|40:276|88:268,1,70
140,260,20873,2,0,P|176:248|232:268,1,70,8|0,0:0|0:0,0:0:0:0:
280,276,21206,2,0,P|324:284|364:268,1,70
424,260,21539,1,8,0:0:0:0:
476,204,21706,1,0,0:0:0:0:
400,192,21873,2,0,P|416:156|444:132,1,70
492,80,22206,2,0,P|456:64|420:64,1,70,8|0,0:0|0:0,0:0:0:0:
352,80,22539,6,0,P|292:116|256:104,1,93.3333333333333
240,76,22873,2,0,L|248:176,1,93.3333333333333,8|0,0:0|0:0,0:0:0:0:
252,220,23206,2,0,L|256:284,2,46.6666666666667
204,240,23539,2,0,L|208:300,2,46.6666666666667,8|0|0,0:0|0:0|0:0,0:0:0:0:
160,268,23873,6,0,L|160:328,2,46.6666666666667
116,296,24206,2,0,L|120:348,2,46.6666666666667,8|0|0,0:0|0:0|0:0,0:0:0:0:
256,192,24539,12,4,25873,0:0:0:0:
64,36,31206,6,0,P|48:96|72:172,1,140
120,228,31706,1,0,0:0:0:0:
172,284,31873,2,0,P|216:280|248:280,1,70,2|0,0:0|0:0,0:0:0:0:
312,312,32206,2,0,P|320:264|300:232,1,70
368,192,32539,2,0,P|332:168|240:208,1,140
192,252,33039,1,0,0:0:0:0:
156,320,33206,2,0,L|144:172,1,140,2|0,0:0|0:0,0:0:0:0:
136,104,33706,1,0,0:0:0:0:
212,100,33873,6,0,L|268:104,2,35,4|0|0,0:0|0:0|0:0,0:0:0:0:
156,152,34206,2,0,L|112:144,2,35,8|0|0,0:0|0:0|0:0,0:0:0:0:
204,212,34539,2,0,L|252:220,2,35,4|0|0,0:0|0:0|0:0,0:0:0:0:
148,264,34873,2,0,L|112:256,2,35,8|0|0,0:0|0:0|0:0,0:0:0:0:
184,332,35206,6,0,P|140:340|104:328,1,70
148,264,35539,2,0,L|100:204,1,70,8|0,0:0|0:0,0:0:0:0:
52,152,35873,1,0,0:0:0:0:
116,112,36039,1,0,0:0:0:0:
52,72,36206,1,8,0:0:0:0:
116,112,36373,1,0,0:0:0:0:
176,160,36539,6,0,P|192:116|180:80,1,70,4|0,0:0|0:0,0:0:0:0:
116,112,36873,2,0,L|264:68,1,140,8|0,0:0|0:0,0:0:0:0:
324,48,37373,1,0,0:0:0:0:
320,124,37539,1,8,0:0:0:0:
324,200,37706,1,0,0:0:0:0:
364,136,37873,1,0,0:0:0:0:
396,68,38039,1,0,0:0:0:0:
408,144,38206,2,0,L|420:236,1,70,8|0,0:0|0:0,0:0:0:0:
442,286,38539,2,0,P|408:292|376:280,1,70
340,212,38873,2,0,L|256:212,1,70,8|0,0:0|0:0,0:0:0:0:
228,276,39206,6,0,P|196:236|192:208,1,70
224,148,39539,2,0,L|112:256,1,140,8|0,0:0|0:0,0:0:0:0:
64,296,40039,1,0,0:0:0:0:
8,352,40206,2,0,B|-4:284|-4:284|8:188,1,140,8|0,0:0|0:0,0:0:0:0:
20,140,40706,1,0,0:0:0:0:
40,64,40873,2,0,P|72:80|96:120,1,70,8|0,0:0|0:0,0:0:0:0:
128,176,41206,5,0,0:0:0:0:
160,248,41373,1,0,0:0:0:0:
160,248,41456,1,0,0:0:0:0:
160,248,41539,2,0,L|232:204,1,70,8|0,0:0|0:0,0:0:0:0:
288,172,41873,2,0,L|328:228,2,46.6666666666667,4|0|0,0:0|0:0|0:0,0:0:0:0:
316,132,42206,2,0,L|364:148,2,46.6666666666667,8|0|0,0:0|0:0|0:0,0:0:0:0:
312,80,42539,2,0,L|380:72,2,46.6666666666667
288,36,42873,2,0,L|328:8,2,46.6666666666667,2|0|0,0:0|0:0|0:0,0:0:0:0:
240,52,43206,6,0,P|192:68|104:36,1,140,4|8,0:0|0:0,0:0:0:0:
80,192,43873,2,0,L|28:168,2,46.6666666666667
100,144,44206,2,0,L|72:100,2,46.6666666666667,2|0|0,0:0|0:0|0:0,0:0:0:0:
152,140,44539,2,0,L|172:88,2,46.6666666666667
192,172,44873,2,0,L|236:144,2,46.6666666666667,8|0|0,0:0|0:0|0:0,0:0:0:0:
180,220,45206,2,0,L|244:228,2,46.6666666666667
256,192,45539,12,0,46873,0:0:0:0:
24,192,47230,6,0,B|52:248|136:224|136:192|136:160|204:132|268:204,1,280,4|2,0:0|0:0,0:0:0:0:
324,252,48063,1,0,0:0:0:0:
368,188,48230,2,0,P|396:220|400:268,1,70
372,316,48563,2,0,P|332:332|304:328,1,70
248,276,48896,2,0,P|244:236|256:204,1,70,2|0,0:0|0:0,0:0:0:0:
300,148,49230,6,0,P|264:132|180:200,1,140
196,256,49730,1,0,0:0:0:0:
252,204,49896,1,2,0:0:0:0:
300,148,50063,1,0,0:0:0:0:
352,92,50230,2,0,L|404:32,1,70
364,108,50563,2,0,L|432:92,1,70
368,136,50896,2,0,L|440:164,1,70,2|0,0:0|0:0,0:0:0:0:
508,180,51229,6,0,P|488:216|392:228,1,140
324,204,51729,1,0,0:0:0:0:
336,280,51896,1,2,0:0:0:0:
352,356,52063,1,0,0:0:0:0:
304,296,52229,1,0,0:0:0:0:
260,232,52396,1,0,0:0:0:0:
224,300,52563,2,0,P|188:252|208:176,1,140,0|2,0:0|0:0,0:0:0:0:
264,128,53063,1,0,0:0:0:0:
332,88,53229,6,0,P|340:132|328:172,2,70
264,128,53729,2,0,P|260:152|280:208,2,70,2|0|0,0:0|0:0|0:0,0:0:0:0:
264,52,54229,2,0,P|228:60|196:96,1,70
196,160,54563,2,0,P|164:148|136:116,2,70,2|0|0,0:0|0:0|0:0,0:0:0:0:
264,128,55063,1,0,0:0:0:0:
332,92,55229,6,0,P|340:128|264:208,1,140,4|0,0:0|0:0,0:0:0:0:
208,228,55729,1,0,0:0:0:0:
284,236,55896,1,8,0:0:0:0:
360,244,56063,1,0,0:0:0:0:
436,248,56229,2,0,L|352:280,1,70
292,284,56563,2,0,L|220:276,1,70
148,256,56896,2,0,L|48:280,1,70,8|0,0:0|0:0,0:0:0:0:
36,336,57229,6,0,P|8:300|40:204,1,140,4|0,0:0|0:0,0:0:0:0:
88,164,57729,1,0,0:0:0:0:
152,120,57896,1,8,0:0:0:0:
156,196,58063,1,0,0:0:0:0:
160,272,58229,2,0,P|212:252|224:168,2,140,0|0|8,0:0|0:0|0:0,0:0:0:0:
88,244,59063,1,0,0:0:0:0:
96,320,59229,6,0,P|148:356|220:328,1,140,4|0,0:0|0:0,0:0:0:0:
288,360,59729,2,0,P|288:312|216:256,1,140,2|0,0:0|0:0,0:0:0:0:
148,236,60229,1,0,0:0:0:0:
60,108,60563,1,0,0:0:0:0:
100,172,60729,1,0,0:0:0:0:
148,236,60896,2,0,P|176:200|172:156,1,70,2|0,0:0|0:0,0:0:0:0:
140,108,61229,2,0,P|176:100|260:188,2,140,0|2|0,0:0|0:0|0:0,0:0:0:0:
32,220,62229,2,0,L|192:236,1,140
324,248,62896,1,2,0:0:0:0:
256,192,63229,12,0,64229,0:0:0:0:
208,32,64560,6,0,B|204:80|204:80|220:120,1,70,4|0,0:0|0:0,0:0:0:0:
304,32,64893,2,0,B|308:80|308:80|292:120,1,70,8|0,0:0|0:0,0:0:0:0:
256,164,65226,1,0,0:0:0:0:
208,224,65393,1,0,0:0:0:0:
256,284,65560,1,8,0:0:0:0:
304,224,65726,1,0,0:0:0:0:
336,296,65893,6,0,P|372:264|360:172,1,140,4|2,0:0|0:0,0:0:0:0:
304,224,66393,1,0,0:0:0:0:
256,284,66560,2,0,L|176:320,1,70
248,260,66893,2,0,L|168:248,1,70,2|0,0:0|0:0,0:0:0:0:
252,224,67226,6,0,L|184:184,1,70,4|0,0:0|0:0,0:0:0:0:
124,148,67560,1,8,0:0:0:0:
56,108,67726,1,0,0:0:0:0:
100,44,67893,1,0,0:0:0:0:
168,80,68060,1,0,0:0:0:0:
224,28,68226,1,8,0:0:0:0:
280,80,68393,1,0,0:0:0:0:
252,152,68560,6,0,P|308:156|356:88,1,140,0|8,0:0|0:0,0:0:0:0:
392,28,69060,1,0,0:0:0:0:
392,28,69226,2,0,L|400:172,1,140,0|8,0:0|0:0,0:0:0:0:
404,244,69726,1,0,0:0:0:0:
444,312,69893,6,0,P|400:320|368:312,1,70
300,296,70226,2,0,P|252:296|212:312,1,70,8|0,0:0|0:0,0:0:0:0:
156,316,70560,2,0,P|104:320|76:304,1,70
24,356,70893,2,0,P|12:316|32:260,1,70,8|0,0:0|0:0,0:0:0:0:
40,216,71226,2,0,L|0:164,2,35
112,184,71560,2,0,L|112:132,2,35,8|0|0,0:0|0:0|0:0,0:0:0:0:
176,224,71893,2,0,L|224:188,2,35
164,300,72226,2,0,L|200:328,2,35,8|0|0,0:0|0:0|0:0,0:0:0:0:
100,260,72559,6,0,L|56:328,2,70,4|0|8,0:0|0:0|0:0,0:0:0:0:
112,184,73059,1,0,0:0:0:0:
44,144,73226,1,0,0:0:0:0:
116,108,73393,1,0,0:0:0:0:
184,144,73559,1,8,0:0:0:0:
184,220,73726,1,0,0:0:0:0:
252,180,73893,5,0,0:0:0:0:
252,180,73976,1,0,0:0:0:0:
252,180,74059,1,0,0:0:0:0:
244,104,74226,1,8,0:0:0:0:
176,68,74393,1,0,0:0:0:0:
252,68,74559,1,0,0:0:0:0:
292,64,74643,1,0,0:0:0:0:
332,68,74726,1,0,0:0:0:0:
400,32,74893,2,0,P|408:72|400:108,1,70,8|0,0:0|0:0,0:0:0:0:
460,152,75226,6,0,P|416:176|372:168,1,70
324,156,75559,2,0,P|332:216|360:240,1,70,8|0,0:0|0:0,0:0:0:0:
408,252,75893,2,0,P|384:288|340:296,2,70,0|0|8,0:0|0:0|0:0,0:0:0:0:
336,221,76393,1,0,0:0:0:0:
292,284,76559,2,0,P|264:244|264:212,1,70
232,152,76893,2,0,P|196:184|184:232,2,70,8|0|0,0:0|0:0|0:0,0:0:0:0:
288,100,77393,1,0,0:0:0:0:
316,172,77559,2,0,L|348:240,1,70,8|0,0:0|0:0,0:0:0:0:
388,300,77893,6,0,P|348:312|312:304,1,70,4|0,0:0|0:0,0:0:0:0:
388,272,78226,2,0,P|340:252|316:224,1,70,2|0,0:0|0:0,0:0:0:0:
404,248,78559,2,0,P|380:208|376:176,1,70
432,240,78893,2,0,P|432:184|448:144,1,70,2|0,0:0|0:0,0:0:0:0:
488,116,79226,6,0,P|444:96|396:108,1,93.3333333333333,4|0,0:0|0:0,0:0:0:0:
352,92,79559,2,0,L|352:192,1,93.3333333333333,8|0,0:0|0:0,0:0:0:0:
352,236,79893,2,0,L|352:304,2,46.6666666666667
304,256,80226,2,0,L|304:312,2,46.6666666666667,8|0|0,0:0|0:0|0:0,0:0:0:0:
256,236,80559,5,0,0:0:0:0:
204,292,80726,1,0,0:0:0:0:
212,216,80893,1,8,0:0:0:0:
216,140,81059,1,0,0:0:0:0:
292,148,81226,2,0,P|280:92|200:64,1,140,0|8,0:0|0:0,0:0:0:0:
216,140,81726,1,0,0:0:0:0:
256,192,81893,12,0,82893,0:0:0:0:
256,32,83226,6,0,L|256:132,1,70,4|0,0:0|0:0,0:0:0:0:
256,180,83559,1,8,0:0:0:0:
196,232,83726,1,0,0:0:0:0:
196,232,83893,2,4,P|228:256|328:216,2,140
184,156,84726,1,0,0:0:0:0:
124,204,84893,2,0,P|120:256|144:288,1,70,8|0,0:0|0:0,0:0:0:0:
72,324,85226,2,4,L|212:312,1,140
248,308,85643,1,0,0:0:0:0:
284,304,85726,1,0,0:0:0:0:
352,340,85893,6,0,P|360:296|296:228,1,140,4|8,0:0|0:0,0:0:0:0:
224,232,86393,2,0,P|232:196|280:160,1,70,0|4,0:0|0:0,0:0:0:0:
312,120,86726,2,0,L|280:88,2,35,0|0|4,0:0|0:0|0:0,0:0:0:0:
368,172,87059,1,0,0:0:0:0:
420,228,87226,2,0,P|380:248|336:240,1,70,4|0,0:0|0:0,0:0:0:0:
368,172,87559,2,0,P|404:156|440:156,1,70,8|0,0:0|0:0,0:0:0:0:
504,188,87893,2,0,L|496:236,4,35,8|0|0|0|8,0:0|0:0|0:0|0:0|0:0,0:0:0:0:
468,120,88393,1,0,0:0:0:0:
428,52,88559,6,0,P|368:64|288:48,1,140,4|8,0:0|0:0,0:0:0:0:
252,116,89059,1,0,0:0:0:0:
212,52,89226,2,0,P|152:64|72:48,1,140,0|8,0:0|0:0,0:0:0:0:
76,128,89726,1,0,0:0:0:0:
80,204,89893,6,0,P|140:216|220:200,1,140,0|8,0:0|0:0,0:0:0:0:
256,268,90393,1,0,0:0:0:0:
296,204,90560,2,0,P|356:216|436:200,1,140,0|8,0:0|0:0,0:0:0:0:
476,264,91059,1,0,0:0:0:0:
472,340,91226,6,0,P|416:344|384:336,1,70
328,316,91559,2,0,P|276:312|232:320,1,70,8|0,0:0|0:0,0:0:0:0:
188,344,91893,2,0,L|140:340,2,35
188,268,92226,2,0,P|168:216|224:136,1,140,8|0,0:0|0:0,0:0:0:0:
244,212,92726,1,0,0:0:0:0:
268,284,92893,2,0,P|308:252|316:224,1,70,8|0,0:0|0:0,0:0:0:0:
344,164,93226,6,0,P|376:192|384:208,2,46.6666666666667,4|0|0,0:0|0:0|0:0,0:0:0:0:
344,112,93559,2,0,L|408:120,2,46.6666666666667,8|0|0,0:0|0:0|0:0,0:0:0:0:
324,64,93893,2,0,L|380:28,2,46.6666666666667,4|0|0,0:0|0:0|0:0,0:0:0:0:
284,32,94226,2,0,P|316:4|324:-12,2,46.6666666666667,8|0|0,0:0|0:0|0:0,0:0:0:0:
244,64,94559,6,0,P|184:76|152:48,1,93.3333333333333,4|0,0:0|0:0,0:0:0:0:
120,28,94893,2,0,L|112:140,1,93.3333333333333,8|0,0:0|0:0,0:0:0:0:
256,192,95226,12,0,97559,0:0:0:0:
256,36,97893,5,4,0:0:0:0:
32,188,99059,1,8,0:0:0:0:
252,260,99559,1,4,0:0:0:0:
432,84,100226,1,8,0:0:0:0:
252,260,100893,1,4,0:0:0:0:
256,192,100976,12,4,104893,0:0:0:0:
