osu file format v14

[General]
AudioFilename: OSTER project - WICKeD CRSS.mp3
AudioLeadIn: 2000
PreviewTime: 47230
Countdown: 1
SampleSet: Normal
StackLeniency: 0.7
Mode: 0
LetterboxInBreaks: 0
WidescreenStoryboard: 1

[Editor]
Bookmarks: 25873,33873,47230,55229,59229,64560,65893,67226,77893,79226,83226,95226
DistanceSpacing: 1.1
BeatDivisor: 6
GridSize: 4
TimelineZoom: 2.1

[Metadata]
Title:WICKeD CROSS
TitleUnicode:WICKeD CRφSS
Artist:OSTER project
ArtistUnicode:OSTER project
Creator:Crimmi
Version:BASIC
Source:REFLEC BEAT groovin'!!
Tags:Azulae MYSTICAL STRIKE Vampire Phantom Beast Radar Maya Takamura ふたなりP Futanari-P
BeatmapID:774222
BeatmapSetID:351185

[Difficulty]
HPDrainRate:3
CircleSize:2
OverallDifficulty:2
ApproachRate:3
SliderMultiplier:0.899999999999999
SliderTickRate:1

[Events]
//Background and Video events
0,0,"dark_red_night_blood_moon_artwork_burn_black_hair_nanfe_1366x768.jpg",0,0
//Break Periods
2,26073,29766
2,47430,53789
//Storyboard Layer 0 (Background)
//Storyboard Layer 1 (Fail)
//Storyboard Layer 2 (Pass)
//Storyboard Layer 3 (Foreground)
//Storyboard Sound Samples

[TimingPoints]
540,333.333333333333,4,1,1,100,1,0
25873,-100,4,2,0,100,0,0
33873,-100,4,1,1,100,0,0
47230,333.333333333333,3,1,1,100,1,0
47230,-100,3,2,0,100,0,0
55229,-100,3,1,1,100,0,0
59229,-100,3,2,0,100,0,0
64560,333.333333333333,4,1,1,100,1,0
65893,-100,4,2,0,100,0,0
67226,-100,4,1,1,100,0,0
77893,-100,4,2,0,100,0,0
79226,-100,4,1,1,100,0,0
83226,-100,4,1,1,100,0,1
95226,-100,4,1,1,100,0,0
99059,-100,4,3,0,100,0,0
100893,-100,4,1,0,100,0,0

[Colours]
Combo1 : 192,192,192
Combo2 : 128,0,0
Combo3 : 255,255,255

[HitObjects]
256,32,540,6,0,L|256:128,1,89.9999999999999,4|0,0:0|0:0,0:0:0:0:
200,204,1206,1,8,0:0:0:0:
256,284,1539,2,0,L|256:332,2,45
316,204,2206,1,0,0:0:0:0:
376,284,2539,1,8,0:0:0:0:
440,208,2873,1,0,0:0:0:0:
384,128,3206,6,0,P|328:104|224:156,1,180,0|8,0:0|0:0,0:0:0:0:
176,240,4206,1,0,0:0:0:0:
104,308,4539,2,0,P|144:336|260:292,1,180,0|8,0:0|0:0,0:0:0:0:
316,216,5539,1,0,0:0:0:0:
388,284,5873,6,0,P|408:244|408:192,2,89.9999999999999,0|0|8,0:0|0:0|0:0,0:0:0:0:
316,216,6873,1,0,0:0:0:0:
240,152,7206,2,0,L|160:76,2,89.9999999999999,0|0|8,0:0|0:0|0:0,0:0:0:0:
316,216,8206,1,0,0:0:0:0:
256,192,8539,12,4,11206,0:0:0:0:
256,360,12539,5,4,0:0:0:0:
152,192,13206,2,0,L|56:192,2,89.9999999999999,4|8|4,0:0|0:0|0:0,0:0:0:0:
352,192,14539,2,0,L|452:192,2,89.9999999999999,4|8|4,0:0|0:0|0:0,0:0:0:0:
256,20,15873,5,4,0:0:0:0:
256,120,16206,1,8,0:0:0:0:
177,179,16539,2,0,P|255:218|334:181,2,180,4|8|4,0:0|0:0|0:0,0:0:0:0:
96,120,18206,6,0,P|80:176|88:224,1,89.9999999999999,8|0,0:0|0:0,0:0:0:0:
40,296,18873,2,0,L|144:296,1,89.9999999999999,8|0,0:0|0:0,0:0:0:0:
232,296,19539,1,8,0:0:0:0:
312,352,19873,2,0,P|328:304|320:256,1,89.9999999999999,0|8,0:0|0:0,0:0:0:0:
232,296,20539,6,0,L|156:236,1,89.9999999999999,0|8,0:0|0:0,0:0:0:0:
88,176,21206,1,0,0:0:0:0:
152,96,21539,1,8,0:0:0:0:
224,160,21873,1,0,0:0:0:0:
160,240,22206,1,8,0:0:0:0:
88,176,22539,6,0,P|112:156|248:204,2,180,4|4|4,0:0|0:0|0:0,0:0:0:0:
160,240,24206,1,8,0:0:0:0:
256,192,24539,12,4,25873,0:0:0:0:
104,96,31206,6,0,B|104:136|104:136|120:168|120:168|120:192,1,89.9999999999999
120,280,31873,1,2,0:0:0:0:
216,280,32206,1,0,0:0:0:0:
312,280,32539,6,0,B|312:240|312:240|328:200|328:200|328:184,1,89.9999999999999
328,96,33206,1,2,0:0:0:0:
232,96,33539,1,0,0:0:0:0:
328,96,33873,6,0,L|432:96,2,89.9999999999999,4|0|4,0:0|0:0|0:0,0:0:0:0:
256,168,34873,1,0,0:0:0:0:
352,192,35206,2,0,P|336:232|208:256,1,180,4|8,0:0|0:0,0:0:0:0:
136,200,36206,1,0,0:0:0:0:
112,296,36539,6,0,P|64:264|48:232,1,89.9999999999999,4|8,0:0|0:0,0:0:0:0:
136,200,37206,2,0,L|208:120,1,89.9999999999999,0|8,0:0|0:0,0:0:0:0:
256,56,37873,1,0,0:0:0:0:
320,128,38206,1,8,0:0:0:0:
256,204,38539,1,0,0:0:0:0:
196,133,38873,1,8,0:0:0:0:
256,204,39206,6,0,P|288:224|352:220,1,89.9999999999999,0|8,0:0|0:0,0:0:0:0:
416,164,39873,2,0,P|436:232|368:316,2,180
356,84,41539,1,8,0:0:0:0:
292,160,41873,6,4,B|236:148|236:148|180:176|180:176|104:164,1,180
24,152,42873,1,10,0:0:0:0:
20,52,43206,6,4,B|72:40|72:40|132:68|132:68|191:58,1,180
288,44,44206,1,10,0:0:0:0:
304,140,44539,6,0,L|316:240,1,89.9999999999999,0|10,0:0|0:0,0:0:0:0:
324,328,45206,1,0,0:0:0:0:
324,328,45539,1,10,0:0:0:0:
256,192,45873,12,4,47230,0:0:0:0:
208,60,55229,6,0,P|188:124|212:244,1,180,4|8,0:0|0:0,0:0:0:0:
304,232,56229,2,0,P|323:145|302:58,1,180,4|8,0:0|0:0,0:0:0:0:
396,32,57229,6,0,P|412:88|412:220,1,180,4|8,0:0|0:0,0:0:0:0:
468,292,58229,2,0,P|408:308|320:228,1,180,4|8,0:0|0:0,0:0:0:0:
328,140,59229,6,0,L|160:216,1,180,4|2,0:0|0:0,0:0:0:0:
116,300,60229,2,0,P|76:256|76:176,2,135,0|2|0,0:0|0:0|0:0,0:0:0:0:
216,300,61563,5,0,0:0:0:0:
316,296,61896,1,2,0:0:0:0:
416,292,62229,2,0,P|396:236|360:208,2,89.9999999999999,0|0|2,0:0|0:0|0:0,0:0:0:0:
316,296,63229,6,0,P|236:328|56:284,1,270,0|2,0:0|0:0,0:0:0:0:
256,192,64563,12,2,66560,0:0:0:0:
40,192,67226,5,4,0:0:0:0:
104,116,67560,1,8,0:0:0:0:
172,188,67893,1,0,0:0:0:0:
104,260,68226,1,8,0:0:0:0:
24,320,68560,6,0,P|88:360|184:320,1,180
256,260,69560,1,8,0:0:0:0:
324,332,69893,6,0,P|352:284|296:168,1,180
256,260,70893,1,8,0:0:0:0:
188,188,71226,2,0,L|148:140,2,45
256,260,71893,2,0,P|212:284|160:280,1,89.9999999999999,0|8,0:0|0:0,0:0:0:0:
88,336,72559,6,0,L|76:228,1,89.9999999999999,4|8,0:0|0:0,0:0:0:0:
68,152,73226,1,0,0:0:0:0:
68,152,73559,1,2,0:0:0:0:
56,52,73893,2,0,P|100:56|168:172,1,180
152,260,74893,1,2,0:0:0:0:
244,228,75226,6,0,L|340:196,1,89.9999999999999,0|2,0:0|0:0,0:0:0:0:
424,164,75893,1,0,0:0:0:0:
424,164,76226,1,2,0:0:0:0:
472,252,76559,6,0,P|436:264|380:252,1,89.9999999999999
424,164,77226,2,0,L|236:164,1,180,0|4,0:0|0:0,0:0:0:0:
160,112,78226,5,2,0:0:0:0:
104,192,78559,1,0,0:0:0:0:
184,248,78893,1,2,0:0:0:0:
268,196,79226,6,0,P|284:248|276:292,2,89.9999999999999,4|12|4,0:0|0:0|0:0,0:0:0:0:
184,248,80226,2,0,L|152:152,1,89.9999999999999,12|0,0:0|0:0,0:0:0:0:
124,68,80893,5,8,0:0:0:0:
124,68,81226,2,0,L|216:72,1,89.9999999999999
292,8,81893,2,0,P|316:64|248:168,1,180,0|4,0:0|0:0,0:0:0:0:
180,216,82893,1,8,0:0:0:0:
180,116,83226,6,0,P|116:136|80:240,1,180,4|2,0:0|0:0,0:0:0:0:
180,216,84226,1,8,0:0:0:0:
264,164,84559,2,0,P|280:216|208:316,1,180,4|2,0:0|0:0,0:0:0:0:
180,216,85559,1,8,0:0:0:0:
264,164,85893,6,0,L|416:56,2,180,4|4|0,0:0|0:0|0:0,0:0:0:0:
180,216,87559,1,8,0:0:0:0:
96,268,87893,2,0,L|48:296,2,45,0|0|8,0:0|0:0|0:0,0:0:0:0:
184,312,88559,6,0,P|232:296|264:172,1,180,4|0,0:0|0:0,0:0:0:0:
256,84,89559,1,8,0:0:0:0:
336,28,89893,2,0,P|356:72|292:176,1,180
256,84,90893,1,8,0:0:0:0:
172,132,91226,6,0,L|96:180,2,89.9999999999999
256,84,92226,1,8,0:0:0:0:
256,184,92559,2,0,P|316:168|348:56,1,180
256,84,93559,5,8,0:0:0:0:
172,132,93893,1,0,0:0:0:0:
172,232,94226,1,8,0:0:0:0:
256,284,94559,1,0,0:0:0:0:
256,184,94893,1,8,0:0:0:0:
256,192,95226,12,4,97893,0:0:0:0:
184,320,99059,5,8,0:0:0:0:
332,320,99559,1,4,0:0:0:0:
256,136,100226,1,8,0:0:0:0:
256,192,100893,12,4,104893,0:0:0:0:
