osu file format v14

[General]
AudioFilename: ORANGE WOLKE - MAMMAMMAMMAMMAMix.mp3
AudioLeadIn: 0
PreviewTime: 1022
Countdown: 0
SampleSet: Soft
StackLeniency: 0.7
Mode: 0
LetterboxInBreaks: 0
WidescreenStoryboard: 0

[Editor]
DistanceSpacing: 0.9
BeatDivisor: 4
GridSize: 4
TimelineZoom: 0.7000002

[Metadata]
Title:MAMMAMMAMMAMMAMix
TitleUnicode:MAMMAMMAMMAMMAMix
Artist:ORANGE WOLKE
ArtistUnicode:ORANGE WOLKE
Creator:Euny
Version:Easy
Source:
Tags:매미 Nozhomi MitiS Sure ykcarrot P_o_M_u_T_a pomuta
BeatmapID:690875
BeatmapSetID:308942

[Difficulty]
HPDrainRate:2
CircleSize:2.8
OverallDifficulty:2
ApproachRate:3
SliderMultiplier:1.2
SliderTickRate:1

[Events]
//Background and Video events
0,0,"bgbg.jpg",0,0
//Break Periods
//Storyboard Layer 0 (Background)
//Storyboard Layer 1 (Fail)
//Storyboard Layer 2 (Pass)
//Storyboard Layer 3 (Foreground)
//Storyboard Sound Samples

[TimingPoints]
7637,472.44094488189,4,2,1,55,1,0
30314,-100,4,2,1,75,0,1
43542,-100,4,2,1,20,0,0
44014,-100,4,2,1,30,0,0
44487,-100,4,2,1,40,0,0
44959,-100,4,2,1,70,0,0
45432,-100,4,2,1,70,0,1
60550,-100,4,2,1,70,0,0
61495,-100,4,2,1,50,0,0
62440,-100,4,2,1,40,0,0
63385,-100,4,2,1,30,0,0
64329,-100,4,2,1,20,0,0
65511,-100,4,2,1,10,0,0

[Colours]
Combo1 : 255,203,47
Combo2 : 60,231,255
Combo3 : 18,124,255
Combo4 : 255,149,202

[HitObjects]
71,237,7637,6,0,B|100:235|120:210|120:210|143:184|173:183,1,120,2|8,0:0|0:0,0:0:0:0:
202,287,8581,2,0,P|258:304|315:287,1,120,2|8,0:0|0:0,0:0:0:0:
332,180,9526,2,0,B|363:181|386:207|386:207|406:232|435:234,1,120,2|8,0:0|0:0,0:0:0:0:
467,130,10471,1,2,0:0:0:0:
398,46,10944,2,0,L|272:30,1,120,10|2,0:0|0:0,0:0:0:0:
171,26,11888,5,8,0:0:0:0:
65,48,12361,2,0,P|94:104|151:134,1,120,2|8,0:0|0:0,0:0:0:0:
235,186,13306,2,0,P|299:198|344:242,2,120,2|8|2,0:0|0:0|0:0,0:0:0:0:
250,294,14723,2,0,P|205:332|139:340,1,120,8|2,0:0|0:0,0:0:0:0:
160,233,15668,5,8,0:0:0:0:
66,178,16140,2,0,P|109:136|166:123,2,120,2|8|2,0:0|0:0|0:0,0:0:0:0:
160,232,17558,1,8,0:0:0:0:
252,288,18030,1,2,0:0:0:0:
257,179,18503,2,0,P|274:122|254:66,1,120,10|2,0:0|0:0,0:0:0:0:
150,37,19448,5,8,0:0:0:0:
49,75,19920,2,0,P|29:130|46:187,1,120,2|8,0:0|0:0,0:0:0:0:
151,160,20865,2,0,B|192:142|192:142|264:184,2,120,2|8|2,0:0|0:0|0:0,0:0:0:0:
46,187,22282,2,0,P|26:242|43:299,1,120,8|2,0:0|0:0,0:0:0:0:
147,327,23227,5,8,0:0:0:0:
220,248,23699,1,2,0:0:0:0:
328,248,24172,1,8,0:0:0:0:
432,220,24644,2,0,P|467:188|486:111,2,120,2|8|2,0:0|0:0|0:0,0:0:0:0:
381,126,26062,2,0,L|264:86,1,120,10|2,0:0|0:0,0:0:0:0:
164,60,27007,5,8,0:0:0:0:
59,28,27479,2,0,P|57:87|86:138,1,120,2|8,0:0|0:0,0:0:0:0:
160,220,28424,2,0,B|192:214|203:179|216:139|242:139,2,120,2|8|2,0:0|0:0|0:0,0:0:0:0:
56,249,29841,2,0,P|85:301|138:328,1,120,8|0,0:0|1:0,0:3:0:0:
244,336,30786,5,8,0:0:0:0:
328,268,31259,1,2,0:0:0:0:
368,168,31731,1,8,0:0:0:0:
350,61,32203,2,0,B|290:85|229:58,1,120,2|8,0:0|0:0,0:0:0:0:
126,40,33148,1,2,0:0:0:0:
52,119,33621,2,0,B|23:144|23:144|22:226,1,120,10|2,0:0|0:0,0:0:0:0:
113,283,34566,5,8,0:0:0:0:
219,299,35038,2,0,B|265:288|305:303|305:303|334:277,1,120,2|8,0:0|0:0,0:0:0:0:
367,180,35983,2,0,P|366:117|347:44,2,120,2|8|2,0:0|0:0|0:0,0:0:0:0:
398,283,37400,2,0,P|442:259|472:183,1,120,8|2,0:0|0:0,0:0:0:0:
460,92,38345,5,8,0:0:0:0:
353,60,38818,2,0,B|320:72|284:64|284:64|244:76|228:104,1,120,2|8,0:0|0:0,0:0:0:0:
168,168,39762,2,0,L|184:292,2,120,2|8|2,0:0|0:0|0:0,0:0:0:0:
64,136,41180,2,0,P|96:84|160:60,1,120,10|2,0:0|0:0,0:0:0:0:
256,76,42125,5,8,0:0:0:0:
340,144,42597,2,0,L|412:244,1,120,2|8,0:0|0:0,0:0:0:0:
468,332,43542,2,0,B|408:364|344:328,2,120,2|8|2,0:0|0:0|0:0,0:0:0:0:
504,232,44959,2,0,L|512:108,1,120,4|2,0:0|0:0,0:0:0:0:
440,32,45904,5,8,0:0:0:0:
336,52,46377,2,0,L|228:116,1,120,2|8,0:0|0:0,0:0:0:0:
188,212,47322,2,0,P|212:272|280:308,2,120,2|8|2,0:0|0:0|0:0,0:0:0:0:
140,116,48739,2,0,B|92:148|92:148|72:220,1,120,10|2,0:0|0:0,0:0:0:0:
80,316,49684,5,8,0:0:0:0:
186,296,50156,1,2,0:0:0:0:
288,261,50629,1,8,0:0:0:0:
312,156,51101,2,0,L|256:40,2,120,2|8|2,0:0|0:0|0:0,0:0:0:0:
419,144,52518,2,0,P|411:201|363:251,1,120,8|2,0:0|0:0,0:0:0:0:
271,290,53463,5,8,0:0:0:0:
168,256,53936,2,0,P|128:211|119:153,1,120,2|8,0:0|0:0,0:0:0:0:
185,67,54881,2,0,L|311:61,2,120,2|8|2,0:0|0:0|0:0,0:0:0:0:
76,66,56298,2,0,B|32:100|32:100|30:176,1,120,10|2,0:0|0:0,0:0:0:0:
55,269,57243,5,8,0:0:0:0:
162,278,57715,1,2,0:0:0:0:
269,265,58188,1,8,0:0:0:0:
370,226,58660,2,0,P|368:159|351:92,2,120,2|8|2,0:0|0:0|0:0,0:0:0:0:
363,333,60077,2,0,P|422:322|470:265,1,120,8|2,0:0|1:0,0:0:0:0:
256,192,60786,12,0,65511,0:0:0:0:
