osu file format v5

[General]
AudioFilename: 01 - Viva Rock.mp3
AudioLeadIn: 0
PreviewTime: -1
Countdown: 1
SampleSet: Normal
StackLeniency: 0.7
Mode: 0
LetterboxInBreaks: 1
EditorBookmarks: 29528,111814,159814,234814

[Metadata]
Title:Viva Rock
Artist:ORANGE RANGE
Creator:insanityprawnboy
Version:Normal
Source:
Tags:

[Difficulty]
HPDrainRate:5
CircleSize:5
OverallDifficulty:5
SliderMultiplier:1.4
SliderTickRate:1

[Events]
//Background and Video events
0,0,"orange range orange.png"
//Break Periods
2,105585,111328
2,153585,159471
//Storyboard Layer 0 (Background)
//Storyboard Layer 1 (Failing)
//Storyboard Layer 2 (Passing)
//Storyboard Layer 3 (Foreground)
//Storyboard Sound Samples
//Background Colour Transformations
3,100,255,170,13

[TimingPoints]
44106,428.571657921411,4,1,0,100,1,0

[HitObjects]
160,96,30391,5,4
352,224,31677,5,0
416,128,32105,1,4
128,224,33391,5,0
208,288,33820,1,4
160,144,35534,5,0
256,192,35963,1,0
352,240,36391,1,4
256,192,36820,12,4,41534
112,240,42391,5,2
192,160,42820,1,2
288,224,43248,1,2
368,144,43677,1,2
160,208,44534,5,0
176,320,44963,1,0
288,320,45391,1,0
400,128,46248,2,0,B|272:96|289:185|240:144,2,140
208,240,47963,1,0
288,320,48391,1,0
176,336,48820,1,0
144,112,49677,2,0,B|176:112|192:64|272:64|304:144|304:144,2,140
64,320,51391,5,0
96,208,51820,1,0
192,256,52248,1,0
416,288,53106,2,0,B|520:224|384:128,2,140
256,128,54820,1,0
144,128,55248,1,0
96,224,55677,1,0
320,272,56534,2,0,B|368:288|416:256|464:304,2,140
304,160,57820,5,0
224,80,58248,1,0
192,176,58677,1,0
192,288,59106,1,0
304,256,59534,1,0
272,144,59963,1,0
112,192,60606,2,0,B|80:128,1,70,0|4
192,96,61248,5,0
304,96,61677,1,0
304,208,62106,1,0
192,208,62534,1,0
192,320,62963,1,0
304,320,63391,1,0
464,288,64034,2,0,B|400:240,1,70,0|4
384,128,64677,5,0
272,144,65106,1,0
208,224,65534,1,0
128,144,65963,1,0
96,256,66391,2,0,B|144:304,6,46.6666666666667
208,256,67677,1,8
288,192,68106,6,0,B|224:160,9,46.6666666666667,0|0|0|0|0|0|0|0|0|8
144,208,69820,5,0
144,320,70248,1,0
256,288,70677,2,4,B|416:288,1,140
384,176,71534,6,0,B|304:176,9,46.6666666666667,0|0|0|0|0|0|0|0|0|8
224,176,73248,5,0
128,240,73677,1,0
224,304,74106,2,0,B|288:304|352:240,1,140
416,160,74963,1,8
304,112,75391,1,0
192,112,75820,1,0
80,160,76248,1,0
256,192,76677,12,4,77534
336,128,78391,6,0,B|272:96|231:92|176:96,2,140
304,240,79677,1,0
192,224,80106,2,0,B|208:317|116:318|96:320,2,140
304,208,81391,1,0
320,320,81820,2,0,B|416:320|448:288|464:240,1,140
432,160,82677,1,0
336,112,83106,1,0
240,160,83534,1,0
160,144,83820,1,8
112,240,84248,1,4
256,240,84820,5,0
352,304,85248,1,4
384,80,86106,1,0
272,80,86534,1,0
160,80,86963,1,4
256,272,87820,1,0
368,272,88248,2,0,B|432:208|432:144,1,140,0|4
208,96,89534,1,0
176,320,90391,5,2
224,224,90820,1,2
336,224,91248,1,2
432,288,91677,1,2
432,176,92106,6,0,B|400:112|304:80,2,140
320,176,93391,1,0
208,128,93820,2,0,B|144:128|112:160|80:160,1,93.3333333333333
192,240,94534,1,8
48,256,95106,1,0
144,320,95534,2,0,B|217:339|234:286|234:286,1,93.3333333333333
176,192,96248,1,8
176,80,96677,2,0,B|256:112|320:48|336:64,1,140
384,144,97534,1,8
304,224,97963,1,4
240,80,98534,6,0,B|168:116|138:66|80:64,1,140,0|4
80,288,99820,1,0
192,272,100248,2,0,B|256:272|284:272|352:304,1,140,0|4
256,80,101534,1,0
368,64,101963,1,0
432,160,102391,1,4
256,288,103248,1,0
64,160,104106,5,2
176,160,104534,1,2
288,160,104963,1,2
400,160,105391,1,2
96,96,112677,6,0,B|128:64|176:64|224:96|240:112,1,140
160,192,113534,2,0,B|208:208|272:208|304:160,1,140
256,64,114391,2,0,B|336:64|368:96|416:128,1,140
416,208,115248,1,0
336,288,115677,1,8
224,304,116106,6,0,B|160:336|80:288,1,140
160,208,116963,2,0,B|128:208|96:176|80:144|64:96,1,140
176,96,117820,1,0
288,80,118248,1,0
400,80,118677,2,0,B|462:147|400:224,1,140,0|8
304,240,119534,6,0,L|304:192|256:144|256:112,1,140
144,112,120391,2,0,L|96:160|96:240,1,140
160,320,121248,2,0,L|224:320|288:256,1,140
304,160,122106,1,0
384,224,122534,1,8
464,144,122963,5,4
352,112,123391,2,0,B|288:176|288:240,2,140
240,96,124677,5,0
224,208,125106,1,4
112,176,125534,1,0
128,64,125963,1,4
240,32,126391,6,0,B|288:32|368:55|434:123|452:201|436:303|369:352|318:366|224:352,1,513.333333333333,0|8
240,352,128106,2,0,B|142:363|67:289|42:230|64:105|79:62|145:55|181:45|176:48,1,420,8|0
256,48,129820,2,0,B|341:40|384:112,1,140
400,176,130534,1,8
384,288,130963,2,0,B|349:301|304:272,1,46.6666666666667
304,176,131534,1,0
256,112,131820,1,8
144,96,132248,1,4
96,240,132820,6,0,B|160:272|224:240|256:272,1,140,0|4
448,240,134106,1,0
432,128,134534,2,0,B|400:64|368:64|304:96,1,140,0|4
96,112,135820,1,0
96,224,136248,1,0
192,288,136677,1,4
416,288,137534,1,0
368,64,138391,5,2
256,64,138820,1,2
240,176,139248,1,2
144,128,139677,1,2
64,208,140106,6,0,B|106:321|160:256|259:184|231:303|274:320|336:320,1,280
384,240,141391,1,0
400,128,141820,2,0,B|288:80|256:144|240:192|176:144|128:96,1,280
80,208,143106,1,0
160,288,143534,2,0,B|192:240|272:240|288:192|288:192,1,140
384,256,144391,2,0,B|448:224|448:112,1,140
400,80,145106,2,0,B|336:80,1,46.6666666666667
288,96,145534,1,8
176,112,145963,1,4
112,256,146534,5,0
208,304,146963,1,4
416,208,147820,1,0
416,96,148248,1,0
304,80,148677,1,4
80,96,149534,1,0
112,208,149963,2,0,B|144:272|208:272|208:336,1,140,0|4
416,240,151248,1,0
224,128,152106,5,2
336,128,152534,1,2
272,224,152963,1,2
384,224,153391,1,2
128,160,160677,5,4
224,224,161106,2,0,B|272:176|272:144|224:96,2,140
320,160,162391,1,4
416,96,162820,2,0,B|432:128|432:192|400:240,2,140
192,80,164534,1,0
80,80,164963,1,0
48,192,165391,1,0
256,272,166248,2,0,B|320:256|336:192|256:160,2,140
384,96,167963,5,0
416,208,168391,1,0
304,176,168820,1,0
80,160,169677,2,0,B|48:112|128:64|160:64,2,140
256,288,171391,1,0
208,192,171820,1,0
96,176,172248,1,0
304,96,173106,2,0,B|368:64|416:128|480:128,2,140
224,176,174391,5,0
336,176,174820,1,0
400,256,175248,1,0
288,256,175677,1,0
176,256,176106,1,0
64,256,176534,1,0
96,96,177177,2,0,B|176:64,1,70,0|4
256,112,177820,5,4
352,160,178248,1,4
256,208,178677,1,4
352,256,179106,1,4
448,304,179534,5,4
144,144,180820,2,0,B|96:288,1,140,0|4
432,272,182534,2,0,B|464:128,1,140,0|4
144,240,184248,2,0,B|176:240|208:272|288:256,1,140,0|4
384,80,185963,6,0,B|416:112|416:144|371:186|320:176,1,140,0|4
112,160,187248,1,0
64,256,187677,2,0,B|64:288|96:320|128:320|176:320,1,140,0|4
352,192,188963,1,0
272,112,189391,1,0
192,192,189820,1,4
400,128,190677,1,0
176,96,191534,5,4
176,208,191963,1,4
272,160,192391,1,4
272,272,192820,1,4
336,176,193248,6,0,B|336:144|336:96|240:80,2,140
240,160,194534,1,0
128,144,194963,2,0,B|98:231|160:272,1,140
224,288,195677,1,8
368,240,196248,5,0
336,128,196677,2,0,B|272:128|240:144,1,93.3333333333333
128,176,197391,1,0
176,272,197820,2,0,B|176:304|208:304,1,46.6666666666667
272,288,198248,2,0,B|272:256|240:256,1,46.6666666666667
192,192,198677,1,8
160,80,199106,1,4
304,96,199677,5,0
384,176,200106,1,4
176,240,200963,1,0
96,160,201391,1,0
112,48,201820,1,4
336,80,202677,1,0
400,176,203106,2,0,B|432:240|464:208|464:240|464:304,1,140,0|4
240,320,204391,1,0
144,112,205248,5,2
256,112,205677,1,2
256,224,206106,1,2
368,192,206534,1,2
384,80,206963,5,4
320,64,207248,2,0,B|256:64|160:96,1,140
160,96,207820,2,0,B|112:112|35:109|32:192|48:240|144:256,1,233.333333333333
128,256,208677,2,0,B|201:277|237:229|288:224|384:224,1,233.333333333333
384,224,209534,2,0,B|448:224|464:288|432:352|352:352|320:352,1,233.333333333333
304,352,210391,2,0,B|240:352|208:336|117:359|103:334|129:249|80:272,1,233.333333333333
96,256,211248,2,0,B|72:212|52:158|61:96|94:69|192:64,1,233.333333333333
176,64,212106,1,0
208,176,212534,1,4
256,64,212963,5,4
304,160,213391,6,0,B|320:96|352:80,1,93.3333333333333,4|0
368,80,213820,2,0,B|400:80|448:112|448:128|464:192|464:224|448:272,1,233.333333333333
432,288,214677,2,0,B|384:336|320:352|224:336|208:320,1,233.333333333333
192,320,215534,2,0,B|144:288|128:240|208:192|272:192|320:208,1,233.333333333333
320,208,216391,2,0,B|368:208|432:144|384:64|352:48|288:48,1,233.333333333333
288,48,217248,2,0,B|192:32|144:64|96:112|80:160,1,233.333333333333
80,160,218106,2,0,B|48:208|64:256|96:288|144:320|224:304,1,233.333333333333
224,304,218963,1,0
336,304,219391,1,4
368,192,219820,5,4
256,192,220248,1,4
144,192,220677,5,0
144,80,221106,1,0
32,80,221534,1,0
32,192,221963,1,0
32,304,222391,1,0
144,304,222820,1,0
304,304,223463,2,0,B|352:240,1,70
320,144,224106,5,0
208,144,224534,1,0
144,224,224963,1,0
208,320,225391,1,0
320,320,225820,1,0
384,224,226248,1,0
256,112,226891,2,0,B|256:192,1,70
256,192,227534,12,4,230534
256,192,230963,12,4,234391
