osu file format v5

[General]
AudioFilename: ikenai.mp3
AudioLeadIn: 683
PreviewTime: 61088
Countdown: 1
SampleSet: Normal
EditorBookmarks: 1090,48261,62330,110329

[Metadata]
Title:Ikenai Taiyou
Artist:ORANGE RANGE
Creator:Echo49
Version:Hard

[Difficulty]
HPDrainRate:6
CircleSize:4
OverallDifficulty:7
SliderMultiplier:1.8
SliderTickRate:2

[Events]
//Background and Video events
1,0,"ikenai.avi"
//Break Periods
2,48461,61430
//Storyboard Layer 0 (Background)
//Storyboard Layer 1 (Failing)
//Storyboard Layer 2 (Passing)
//Storyboard Layer 3 (Foreground)
//Storyboard Sound Samples
//Background Colour Transformations
3,100,163,162,255

[TimingPoints]
1090,413.784399599543,4,1,0,100

[HitObjects]
384,296,1066,6,0,B|288:337|192:288,1,180
112,192,1917,1,0
256,192,2331,1,0
312,144,2538,1,0
384,88,2745,6,0,B|288:47|192:96,1,180
112,192,3572,1,0
256,192,3986,1,0
312,240,4193,1,0
384,296,4400,6,0,B|288:337|192:288,1,180
112,192,5227,1,0
256,192,5641,1,0
312,144,5848,1,0
384,88,6055,6,0,B|288:47|192:96,1,180
112,192,6882,1,4
184,192,7089,1,0
240,240,7296,1,4
184,288,7503,1,0
112,288,7710,6,0,B|14:253|32:104,1,180
160,80,8538,1,0
208,136,8745,1,0
280,120,8951,1,0
336,72,9158,1,0
400,96,9365,6,0,B|498:131|480:280,1,180
352,304,10193,1,0
304,248,10400,1,0
232,264,10606,1,0
176,312,10813,1,0
112,288,11020,6,0,B|14:253|32:104,1,180
160,80,11848,1,0
208,136,12055,1,0
280,120,12261,1,0
336,72,12468,1,0
400,104,12675,5,4
400,248,13089,1,0
256,248,13503,1,4
112,248,13917,1,0
256,192,14331,12,6,15986
184,64,16400,5,0
328,64,16813,1,0
472,64,17227,1,0
472,136,17434,2,0,B|456:192|384:192,1,90
264,192,18055,5,0
224,128,18262,1,0
184,192,18468,1,0
48,192,18882,1,0
40,320,19296,5,0
184,320,19711,1,0
328,320,20124,1,0
472,320,20538,1,0
472,248,20745,2,0,B|456:192|384:192,1,90
264,192,21366,5,0
224,256,21573,1,0
184,192,21779,1,0
48,192,22193,1,0
184,56,22606,5,0
328,56,23020,1,0
184,128,23434,1,0
328,128,23848,1,0
256,128,24055,2,0,B|256:224,1,90
136,232,24675,5,0
184,288,24882,1,0
256,304,25089,1,0
328,288,25296,1,0
376,232,25503,1,0
328,56,25917,5,0
184,56,26331,1,0
328,128,26745,1,0
184,128,27159,1,0
256,128,27366,2,0,B|256:224,1,90
184,224,27779,5,0
184,296,27985,1,0
256,328,28192,1,2
256,328,28296,1,2
256,328,28399,1,2
328,296,28606,1,0
328,224,28813,1,2
328,224,28917,1,2
328,224,29020,1,2
256,176,29227,5,4
256,40,29641,1,0
112,40,30054,1,2
160,96,30261,1,0
112,152,30468,1,2
160,208,30675,1,0
208,264,30882,5,0
264,216,31089,1,0
320,264,31296,1,2
376,216,31503,1,0
400,40,31916,5,2
352,96,32123,1,0
400,152,32330,1,2
448,208,32537,1,4
304,208,32951,1,4
160,208,33365,1,2
160,136,33572,1,0
88,136,33778,1,2
88,208,33985,1,0
184,312,34399,5,0
256,312,34606,1,0
328,312,34813,1,6
128,64,35847,5,0
128,136,36054,1,0
88,200,36261,1,2
128,264,36468,1,0
256,184,36882,5,0
256,112,37089,1,2
384,64,37503,5,0
384,136,37710,1,0
424,200,37916,1,2
384,264,38124,1,0
256,184,38537,5,0
256,112,38744,1,2
128,64,39158,5,2
128,136,39365,1,0
88,200,39571,2,0,B|79:333|232:328,1,180
256,304,40192,1,0
256,232,40399,1,2
384,64,40813,5,2
384,136,41020,1,0
424,200,41226,2,0,B|433:333|280:328,1,180
256,304,41847,1,0
256,232,42054,1,2
104,232,42468,5,0
136,168,42675,1,0
192,120,42882,1,2
256,88,43089,1,0
256,232,43502,5,0
256,304,43709,1,2
408,232,44123,5,0
376,168,44330,1,0
320,120,44537,1,2
256,88,44744,1,0
256,232,45157,5,0
256,304,45364,1,2
160,224,45778,5,0
160,152,45985,1,0
216,96,46192,5,2
288,96,46399,1,2
344,152,46606,5,0
344,224,46813,1,0
288,280,47020,5,2
216,280,47227,1,0
144,152,47640,5,6
216,152,47847,1,6
288,152,48054,1,6
360,152,48261,1,6
400,96,62330,5,4
256,96,62743,2,0,B|208:96|168:64,1,90
72,168,63364,1,2
72,168,63467,1,2
72,168,63571,1,2
128,216,63778,1,0
112,288,63985,5,4
256,288,64398,2,0,B|304:288|344:320,1,90
440,216,65019,1,2
440,216,65122,1,2
440,216,65226,1,2
384,168,65433,1,0
400,96,65640,5,4
280,56,66054,1,0
208,56,66261,1,0
208,128,66467,1,4
280,248,66881,1,0
280,320,67088,1,0
208,320,67295,1,4
80,304,67709,5,0
80,232,67916,1,0
144,192,68123,1,2
80,152,68329,1,2
80,80,68536,1,4
400,288,68950,5,4
256,288,69363,2,0,B|208:288|168:320,1,90
72,216,69984,1,2
72,216,70087,1,2
72,216,70191,1,2
128,168,70398,1,0
112,96,70605,5,4
256,96,71018,2,0,B|304:96|344:64,1,90
440,168,71639,1,2
440,168,71742,1,2
440,168,71846,1,2
384,216,72053,1,0
312,192,72260,5,6
240,192,72467,1,6
88,88,73088,5,6
160,88,73295,1,6
160,296,74122,5,6
232,296,74329,1,6
304,296,74536,1,6
376,296,74743,1,6
200,192,75571,5,6
272,192,75778,1,6
424,88,76399,5,6
352,88,76606,1,6
352,296,77433,5,6
280,296,77640,1,6
208,296,77847,1,6
136,296,78054,1,6
256,192,78467,12,6,80536
256,112,82605,5,0
184,232,83019,1,0
328,232,83433,1,0
432,72,83846,5,4
432,144,84053,1,0
360,120,84260,1,0
360,192,84467,1,0
256,88,84881,5,2
256,88,84984,1,2
256,88,85088,1,2
80,72,85502,5,4
80,144,85709,1,0
152,120,85916,1,0
152,192,86123,1,0
256,288,86536,5,2
256,288,86639,1,2
256,288,86743,1,2
376,232,87157,5,4
376,152,87364,1,4
216,152,87777,1,2
136,152,87984,1,4
136,232,88191,1,4
296,232,88605,1,2
296,152,88812,5,0
296,72,89019,1,2
216,72,89226,1,2
136,72,89432,1,4
88,296,90467,5,4
168,296,90674,1,0
248,296,90881,1,0
208,232,91088,1,4
344,184,91501,5,2
344,184,91605,1,2
344,184,91708,1,2
384,120,91915,1,0
424,56,92122,5,4
344,56,92329,1,0
264,56,92536,1,0
304,120,92743,1,4
168,168,93157,5,2
168,168,93261,1,2
168,168,93364,1,2
128,232,93571,1,0
208,232,93777,5,6
288,232,93984,1,6
424,312,94605,5,6
424,232,94812,1,6
376,104,95639,5,6
296,104,95846,1,6
216,104,96053,1,6
136,104,96260,1,6
304,232,97087,5,6
224,232,97294,1,6
88,312,97915,5,6
88,232,98122,1,6
136,104,98949,5,6
216,104,99156,1,6
296,104,99363,1,6
376,104,99570,1,6
88,232,100398,5,6
88,152,100605,1,6
200,152,101225,5,6
200,232,101432,1,6
312,312,102260,5,6
312,232,102467,1,6
312,152,102674,1,6
312,72,102880,1,6
232,72,103087,5,2
424,72,103501,1,2
424,152,103708,5,6
424,232,103915,1,6
312,232,104535,5,6
312,152,104742,1,6
200,72,105570,5,6
200,152,105777,1,6
200,232,105984,1,6
200,312,106190,1,6
280,312,106398,5,2
88,312,106812,1,2
256,192,107018,12,6,110329
