osu file format v5

[General]
AudioFilename: ikenai.mp3
AudioLeadIn: 683
PreviewTime: 61088
Countdown: 1
SampleSet: Normal
EditorBookmarks: 1090,27572,35847,54054,62330,80536,83846,110329

[Metadata]
Title:Ikenai Taiyou
Artist:ORANGE RANGE
Creator:Echo49
Version:Beginner

[Difficulty]
HPDrainRate:0
CircleSize:0
OverallDifficulty:0
SliderMultiplier:1.4
SliderTickRate:2

[Events]
//Background and Video events
1,0,"ikenai.avi"
//Break Periods
2,27772,34047
2,54254,60530
2,80736,82046
//Storyboard Layer 0 (Background)
//Storyboard Layer 1 (Failing)
//Storyboard Layer 2 (Passing)
//Storyboard Layer 3 (Foreground)
//Storyboard Sound Samples
//Background Colour Transformations
3,100,163,162,255

[TimingPoints]
1090,413.784399599543,4,1,0,100

[HitObjects]
256,192,1090,1,0
256,192,4400,5,0
256,192,7710,5,0
256,192,11020,5,0
256,192,14331,5,0
128,128,15986,5,0
128,256,17641,1,0
384,128,19296,5,0
384,256,20951,1,0
128,256,22606,5,0
128,128,24261,1,0
384,256,25917,5,0
384,128,27572,1,0
64,128,35847,5,0
192,128,37503,1,0
320,128,39158,1,0
448,128,40813,1,0
448,256,42468,5,0
320,256,44123,1,0
192,256,45778,1,0
64,256,47433,1,0
192,128,49088,5,0
320,128,50744,1,0
320,256,52399,1,0
192,256,54054,1,0
448,128,62330,5,0
320,256,63985,1,0
192,128,65640,1,0
64,256,67295,1,0
64,128,68950,5,0
192,256,70605,1,0
320,128,72261,1,0
448,256,73916,1,0
192,256,75571,5,0
192,128,77226,1,0
320,256,78881,5,0
320,128,80536,1,0
64,128,83846,5,0
320,128,85502,1,0
192,256,87157,1,0
448,256,88812,1,0
448,128,90467,5,0
192,128,92122,1,0
320,256,93777,1,0
64,256,95432,1,0
192,64,97087,5,0
320,320,98742,1,0
320,64,100398,5,0
192,320,102053,1,0
256,192,103708,12,0,110329
