osu file format v14

[General]
AudioFilename: opening bleach 1183.mp3
AudioLeadIn: 0
PreviewTime: -1
Countdown: 1
SampleSet: None
StackLeniency: 0.7
Mode: 0
LetterboxInBreaks: 1
WidescreenStoryboard: 0

[Editor]
Bookmarks: 5817
DistanceSpacing: 0.8
BeatDivisor: 4
GridSize: 4
TimelineZoom: 1

[Metadata]
Title:* ~ASTERISK~
TitleUnicode:* ~ASTERISK~
Artist:ORANGE RANGE
ArtistUnicode:ORANGE RANGE
Creator:jefemedina
Version:Hard
Source:Anime
Tags:Bleach opening 1
BeatmapID:684296
BeatmapSetID:305578

[Difficulty]
HPDrainRate:6
CircleSize:5
OverallDifficulty:4
ApproachRate:7
SliderMultiplier:1.4
SliderTickRate:1

[Events]
//Background and Video events
0,0,"BO1.jpg",0,0
//Break Periods
2,158009,163706
2,180861,186675
2,187775,193940
2,218361,221597
2,234298,241284
//Storyboard Layer 0 (Background)
//Storyboard Layer 1 (Fail)
//Storyboard Layer 2 (Pass)
//Storyboard Layer 3 (Foreground)
//Storyboard Sound Samples

[TimingPoints]
3708,468.75,4,1,0,80,1,0

[Colours]
Combo1 : 255,255,0
Combo2 : 255,0,0
Combo3 : 64,0,64
Combo4 : 0,0,255
Combo5 : 0,255,0

[HitObjects]
32,76,3708,6,0,B|32:252|32:252|56:252|168:260|184:172|96:152|136:132|160:124|180:84|80:72,1,455
216,64,5348,2,0,P|200:244|200:252,1,175
308,220,6168,2,0,B|252:164|264:108|292:96|292:100,1,140
392,224,6872,2,0,B|360:120|488:156|440:232|440:240,1,140
488,192,7575,6,0,B|448:248|460:260|456:276,1,70
104,64,8161,2,0,L|104:252,3,175
184,172,10036,6,0,L|272:172|280:172,1,70
300,88,10622,2,0,L|296:280,1,175
256,192,11676,12,0,14606,0:0:0:0:
96,88,15426,5,0,0:0:0:0:
140,148,15661,1,0,0:0:0:0:
180,216,16012,1,0,0:0:0:0:
264,148,16364,1,0,0:0:0:0:
336,96,16715,1,0,0:0:0:0:
388,168,16950,1,0,0:0:0:0:
448,232,17301,1,0,0:0:0:0:
388,324,17536,2,0,L|144:324,2,245
368,212,19411,1,0,0:0:0:0:
328,132,19645,1,0,0:0:0:0:
280,96,19879,1,0,0:0:0:0:
228,64,20231,1,0,0:0:0:0:
156,84,20583,1,0,0:0:0:0:
96,160,20934,1,0,0:0:0:0:
136,232,21520,1,0,0:0:0:0:
236,204,21754,1,0,0:0:0:0:
332,144,22458,1,0,0:0:0:0:
256,192,23512,12,0,26324,0:0:0:0:
56,56,26676,6,0,L|56:304,1,245
152,304,27497,6,0,L|152:48,1,245
240,56,28200,2,0,B|240:328|244:308,1,245
332,304,29020,2,0,L|328:52,1,245
452,208,30075,2,0,B|80:208|80:208|80:212,3,350
172,120,33708,1,0,0:0:0:0:
260,64,34059,1,0,0:0:0:0:
324,128,34411,1,0,0:0:0:0:
404,188,34879,2,0,L|184:320,1,245
148,264,35817,2,0,B|252:196|248:200,1,105
380,112,36520,2,0,L|264:192,1,140
236,100,37340,1,0,0:0:0:0:
232,224,37692,1,0,0:0:0:0:
232,332,38043,1,0,0:0:0:0:
344,304,38161,2,0,B|184:240|280:152|476:268|272:16|104:96|120:264|28:80|184:20|192:24,1,490
336,124,40153,1,0,0:0:0:0:
260,64,40504,1,0,0:0:0:0:
52,224,40856,2,0,B|140:200|160:240|224:188|232:192,3,175
264,160,42965,1,0,0:0:0:0:
328,124,43317,1,0,0:0:0:0:
400,60,43668,1,0,0:0:0:0:
408,144,44020,1,0,0:0:0:0:
404,208,44372,1,0,0:0:0:0:
420,292,44723,1,0,0:0:0:0:
332,312,45075,2,0,B|272:272|220:324|160:284|116:336|152:224|48:264|36:268,1,280
124,192,46247,1,0,0:0:0:0:
188,140,46598,1,0,0:0:0:0:
240,224,46950,1,0,0:0:0:0:
312,168,47301,1,0,0:0:0:0:
364,100,47536,1,0,0:0:0:0:
424,164,48004,2,0,B|460:244|408:248|456:296|384:340|488:340|484:336,1,210
348,328,49059,1,0,0:0:0:0:
228,328,49293,1,0,0:0:0:0:
152,328,49411,1,0,0:0:0:0:
72,248,49762,1,0,0:0:0:0:
72,248,50114,1,0,0:0:0:0:
152,252,50465,1,0,0:0:0:0:
232,252,50700,1,0,0:0:0:0:
376,268,50934,2,0,L|528:32,1,280
392,44,52106,1,0,0:0:0:0:
308,60,52458,1,0,0:0:0:0:
396,136,52809,1,0,0:0:0:0:
232,284,53161,1,0,0:0:0:0:
336,208,53512,1,0,0:0:0:0:
220,200,53629,2,0,P|120:200|184:216,1,455
252,192,55387,1,0,0:0:0:0:
260,280,56559,1,0,0:0:0:0:
48,88,56911,1,0,0:0:0:0:
424,84,57379,1,0,0:0:0:0:
264,160,57731,1,0,0:0:0:0:
64,272,58200,2,0,B|260:204|440:272|480:160|464:168,1,420
288,204,60075,1,0,0:0:0:0:
272,120,60426,1,0,0:0:0:0:
268,36,60778,1,0,0:0:0:0:
184,44,61247,1,0,0:0:0:0:
320,156,61715,2,0,B|196:204|264:120|388:76|392:148,1,210
228,212,62770,1,0,0:0:0:0:
64,248,63239,2,0,P|48:108|104:84,3,210
192,144,65583,1,0,0:0:0:0:
96,108,66051,1,0,0:0:0:0:
392,104,66637,1,0,0:0:0:0:
80,280,67458,1,0,0:0:0:0:
208,320,68043,2,0,L|208:176,2,210
244,208,70036,1,0,0:0:0:0:
396,116,71090,1,0,0:0:0:0:
124,124,72028,1,0,0:0:0:0:
240,296,72614,2,0,B|496:192|296:56|180:40|32:120|68:232|140:308,3,630
224,216,78942,1,0,0:0:0:0:
268,176,79176,1,0,0:0:0:0:
336,116,79528,1,0,0:0:0:0:
256,192,80583,12,0,84215,0:0:0:0:
24,68,84567,6,0,B|208:32|236:104|416:24|464:104,1,420
464,232,86208,2,0,P|340:352|320:336,1,245
280,220,87731,1,0,0:0:0:0:
120,240,88083,2,0,P|288:56|460:228,2,525
264,208,92067,1,0,0:0:0:0:
260,108,92418,1,0,0:0:0:0:
264,164,92653,1,0,0:0:0:0:
204,160,92887,1,0,0:0:0:0:
320,164,93239,1,0,0:0:0:0:
352,164,93356,1,0,0:0:0:0:
404,164,93590,1,0,0:0:0:0:
292,336,94176,1,0,0:0:0:0:
88,288,94762,2,0,P|180:84|196:80,1,245
356,108,96051,1,0,0:0:0:0:
360,232,96403,2,0,P|252:224|188:272,1,175
208,156,97575,1,0,0:0:0:0:
208,256,97926,1,0,0:0:0:0:
280,192,98161,2,0,L|392:128,4,105
260,152,100036,1,0,0:0:0:0:
168,108,100622,1,0,0:0:0:0:
160,192,101090,1,0,0:0:0:0:
144,272,101559,2,0,L|244:272,7,70
256,192,103786,12,8,106715,0:0:0:0:
92,68,107887,5,8,0:0:0:0:
200,64,108239,1,8,0:0:0:0:
256,64,108473,1,8,0:0:0:0:
304,68,109528,1,8,0:0:0:0:
360,160,109879,2,8,L|192:224,2,175
331,135,111754,2,0,L|226:207,3,105
258,89,113161,1,0,0:0:0:0:
313,137,114567,2,0,P|198:180|198:181,4,140
345,96,116676,1,0,0:0:0:0:
309,61,116911,1,0,0:0:0:0:
251,46,117145,1,0,0:0:0:0:
194,46,117379,1,0,0:0:0:0:
64,109,118317,2,0,P|118:194|186:97,1,245
198,197,119254,2,0,P|161:327|86:318,1,210
281,226,119958,2,0,B|330:174|312:163|289:165|247:164|238:178|217:235|233:253|251:290|270:294|297:303|316:304|327:300|345:283|354:272,1,280
266,289,121247,6,0,B|187:246|211:179|276:173|316:208|323:274|303:293|285:338|286:344|306:338|349:326|360:300|360:279|362:248|341:219|341:223,1,350
414,313,123004,1,0,0:0:0:0:
407,237,123473,2,0,L|407:128,1,105
357,293,124762,2,0,B|211:246|84:271|77:188|77:188|91:187,3,315
133,153,127926,1,0,0:0:0:0:
178,127,128161,1,0,0:0:0:0:
210,113,128395,1,0,0:0:0:0:
253,93,128747,1,0,0:0:0:0:
294,78,128981,1,0,0:0:0:0:
335,66,129098,1,0,0:0:0:0:
355,60,129333,1,0,0:0:0:0:
388,49,129567,1,0,0:0:0:0:
409,42,129801,1,0,0:0:0:0:
442,37,130036,1,0,0:0:0:0:
441,69,130153,1,0,0:0:0:0:
441,105,130387,1,0,0:0:0:0:
439,142,130622,1,0,0:0:0:0:
438,180,130856,1,0,0:0:0:0:
436,223,131090,1,0,0:0:0:0:
437,285,131208,1,0,0:0:0:0:
399,283,131442,1,0,0:0:0:0:
368,285,131676,1,0,0:0:0:0:
315,286,131911,1,0,0:0:0:0:
270,289,132145,1,0,0:0:0:0:
245,293,132262,1,0,0:0:0:0:
244,267,132497,1,0,0:0:0:0:
251,243,132614,1,0,0:0:0:0:
252,243,133083,1,0,0:0:0:0:
71,117,134840,2,0,L|71:287,3,140
83,258,136364,2,0,L|175:257,1,70
194,253,136833,2,0,P|229:235|188:269,1,210
364,213,137770,2,0,P|289:292|309:303,1,175
428,320,138590,1,0,0:0:0:0:
406,304,138708,1,0,0:0:0:0:
393,266,138942,1,0,0:0:0:0:
416,241,139059,1,0,0:0:0:0:
445,240,139293,1,0,0:0:0:0:
466,262,139411,1,0,0:0:0:0:
475,293,139645,1,0,0:0:0:0:
452,315,139762,1,0,0:0:0:0:
400,333,140231,2,0,L|262:333,4,105
296,206,141989,1,0,0:0:0:0:
235,167,142223,1,0,0:0:0:0:
269,143,142458,1,0,0:0:0:0:
287,133,142692,1,0,0:0:0:0:
309,124,142809,1,0,0:0:0:0:
463,73,143864,2,0,L|563:174,5,140
235,179,146911,1,0,0:0:0:0:
277,150,147145,1,0,0:0:0:0:
296,136,147379,1,0,0:0:0:0:
311,126,147614,1,0,0:0:0:0:
353,92,147848,1,0,0:0:0:0:
378,65,148083,1,0,0:0:0:0:
386,30,148317,1,0,0:0:0:0:
346,28,148551,1,0,0:0:0:0:
309,33,148668,1,0,0:0:0:0:
289,39,148903,1,0,0:0:0:0:
218,67,149020,2,0,B|222:217|222:216,3,140
96,103,151364,2,0,L|275:103|276:103,3,175
186,109,153473,2,0,P|184:276|91:220,1,350
171,273,155114,2,0,L|221:133,1,140
221,133,155817,2,0,P|257:208|266:210,2,70
249,189,156989,2,0,L|301:106,1,70
308,181,157458,2,0,L|306:285,1,105
251,209,164606,5,2,0:0:0:0:
270,194,164958,1,0,0:0:0:0:
292,172,165309,1,0,0:0:0:0:
306,138,165426,1,0,0:0:0:0:
257,135,165661,1,0,0:0:0:0:
230,136,165778,1,0,0:0:0:0:
191,136,166012,1,0,0:0:0:0:
169,158,166129,1,0,0:0:0:0:
195,188,166247,1,0,0:0:0:0:
227,224,166481,1,0,0:0:0:0:
95,233,167067,2,8,L|341:226,5,245
329,187,171286,1,8,0:0:0:0:
318,155,171403,1,0,0:0:0:0:
305,129,171520,1,0,0:0:0:0:
291,100,171637,1,0,0:0:0:0:
255,121,171872,2,0,P|111:226|206:222,2,490
256,192,175856,12,0,180661,0:0:0:0:
90,213,187575,5,0,0:0:0:0:
431,192,194840,5,0,0:0:0:0:
256,192,195192,12,0,197887,0:0:0:0:
245,170,197887,5,0,0:0:0:0:
241,139,198122,1,0,0:0:0:0:
236,103,198356,1,0,0:0:0:0:
236,103,198473,1,0,0:0:0:0:
236,103,198708,1,0,0:0:0:0:
241,139,198825,1,0,0:0:0:0:
243,163,199059,1,0,0:0:0:0:
244,203,199176,1,0,0:0:0:0:
257,253,199411,1,0,0:0:0:0:
278,225,199645,1,0,0:0:0:0:
288,201,199762,1,0,0:0:0:0:
180,273,200934,2,0,L|327:216,4,140
307,194,203278,1,0,0:0:0:0:
352,213,204333,2,0,B|295:168|221:230|156:167|56:222|112:264|218:258,1,315
128,143,205973,2,0,L|136:288,4,140
256,192,207965,12,0,211833,0:0:0:0:
249,228,212067,5,0,0:0:0:0:
248,192,212184,5,0,0:0:0:0:
249,261,212301,1,0,0:0:0:0:
252,323,212418,1,8,0:0:0:0:
229,326,212653,1,8,0:0:0:0:
199,330,212887,1,8,0:0:0:0:
169,329,213004,1,8,0:0:0:0:
166,297,213239,1,8,0:0:0:0:
171,268,213473,1,8,0:0:0:0:
181,248,213590,1,8,0:0:0:0:
196,218,213825,1,8,0:0:0:0:
225,203,213942,1,8,0:0:0:0:
234,232,214176,1,8,0:0:0:0:
240,258,214411,1,8,0:0:0:0:
244,283,214645,1,8,0:0:0:0:
243,309,214879,1,0,0:0:0:0:
211,315,215114,1,0,0:0:0:0:
181,306,215231,1,0,0:0:0:0:
186,273,215348,1,0,0:0:0:0:
199,239,215465,1,0,0:0:0:0:
256,192,215934,12,0,218161,0:0:0:0:
255,198,222497,5,0,0:0:0:0:
274,183,222614,2,0,L|370:134,11,105
256,192,226833,12,0,234098,0:0:0:0:
251,223,242184,6,0,L|261:87,19,105
