osu file format v11

[General]
AudioFilename: MAD.mp3
AudioLeadIn: 0
PreviewTime: 64486
Countdown: 0
SampleSet: Normal
StackLeniency: 0.7
Mode: 0
LetterboxInBreaks: 0

[Editor]
DistanceSpacing: 1
BeatDivisor: 4
GridSize: 4

[Metadata]
Title:The Beginning
TitleUnicode:The Beginning
Artist:ONE OK ROCK
ArtistUnicode:ONE OK ROCK
Creator:tutuhaha
Version:Hard
Source:
Tags:MAD AngelHoney Naruto Shippuuden Kiiwa
BeatmapID:200214
BeatmapSetID:68891

[Difficulty]
HPDrainRate:5
CircleSize:4
OverallDifficulty:6
ApproachRate:8
SliderMultiplier:1.5
SliderTickRate:2

[Events]
//Background and Video events
0,0,"6cec26adf0bbbd464b36d6d8.jpg"
Video,0,"NARUTO.avi"
//Break Periods
//Storyboard Layer 0 (Background)
//Storyboard Layer 1 (Fail)
//Storyboard Layer 2 (Pass)
//Storyboard Layer 3 (Foreground)
//Storyboard Sound Samples
//Background Colour Transformations
3,100,163,162,255

[TimingPoints]
148,329.67032967033,4,2,1,50,1,0
2785,-100,4,2,1,50,0,0
23230,329.67032967033,4,1,1,80,1,0
23889,-90.9090909090909,4,1,1,80,0,0
25867,-76.9230769230769,4,1,1,80,0,0
26526,-90.9090909090909,4,1,1,80,0,0
31142,-76.9230769230769,4,1,1,80,0,0
31801,-90.9090909090909,4,1,1,80,0,0
55567,329.67032967033,4,1,1,80,1,0
55567,-90.9090909090909,4,1,1,80,0,0
64797,-76.9230769230769,4,1,1,80,0,0
65951,-90.9090909090909,4,1,1,80,0,0
66116,-90.9090909090909,4,1,1,80,0,1
75347,-76.9230769230769,4,1,1,80,0,1
76336,-90.9090909090909,4,1,1,80,0,1
87227,329.67032967033,4,1,1,70,1,0
87227,-90.9090909090909,4,1,1,70,0,0
105770,-100,4,1,1,10,0,0
108985,-100,4,2,1,30,0,0

[Colours]
Combo1 : 43,43,255
Combo2 : 243,156,27

[HitObjects]
72,128,2785,2,0,P|116:72|192:44,1,150,2|0,0:0|0:0,0:0:0
260,64,3279,1,0,0:0:0
260,64,3774,1,2,0:0:0
256,304,5422,6,0,P|316:296|392:232,1,150,2|0,0:0|0:0,0:0:0
364,168,5917,1,0,0:0:0
364,168,6246,2,0,P|320:92,1,75,0|2,0:0|0:0,0:0:0
276,36,8060,6,0,P|216:56|128:24,1,150,2|0,0:0|0:0,0:0:0
68,60,8554,2,0,P|116:208,1,150
144,272,9049,1,2,0:0:0
456,320,10697,6,0,P|436:272|340:236,1,150,2|0,0:0|0:0,0:0:0
276,232,11191,2,0,P|228:188|224:108,1,150
288,68,11686,6,0,P|444:20,1,150,2|0,0:0|0:0,0:0:0
464,104,12345,1,0,0:0:0
496,184,12675,1,2,0:0:0
484,268,13005,6,0,P|412:264|364:208,1,150
300,164,13499,2,0,P|224:140,2,75
320,92,13994,2,0,P|176:48,1,150,2|0,0:0|0:0,0:0:0
72,156,14653,5,0,0:0:0
72,156,14983,1,0,0:0:0
100,304,15312,2,0,P|180:332,1,75,2|0,0:0|0:0,0:0:0
244,312,15642,2,0,P|236:240|288:180,2,150
320,316,16466,5,0,0:0:0
384,276,16631,2,0,P|452:232|460:156,1,150,2|0,0:0|0:0,0:0:0
412,112,17126,2,0,P|252:60,1,150
200,36,17620,1,0,0:0:0
84,132,17950,2,0,P|156:188|288:160,1,225,2|0,0:0|0:0,0:0:0
324,228,18609,6,0,P|236:360,1,150
172,380,19104,1,0,0:0:0
64,276,19433,1,0,0:0:0
64,276,19598,2,0,P|40:196|64:124,1,150,2|0,0:0|0:0,0:0:0
112,80,20093,5,0,0:0:0
184,56,20257,1,0,0:0:0
260,60,20422,1,0,0:0:0
332,80,20587,2,0,P|364:136|352:220,1,150
48,174,21246,6,0,P|60:102|132:46,1,150,2|0,0:0|0:0,0:0:0
188,42,21741,2,0,P|340:82,1,150
403,105,22235,1,2,0:0:0
323,315,22565,5,0,0:0:0
258,275,22730,1,0,0:0:0
221,209,22895,1,0,0:0:0
200,137,23060,1,0,0:0:0
220,64,23230,6,0,P|264:24,2,37.5,8|0|0,0:0|0:0|0:0,0:0:0
144,192,23559,2,0,P|92:204,2,37.5,8|0|0,0:0|0:0|0:0,0:0:0
300,212,23889,2,0,P|348:148|444:144,1,165.000005035401,4|8,0:0|0:0,0:0:0
448,228,24383,1,0,0:0:0
408,308,24548,6,0,P|324:352,1,82.5000025177003
244,220,24878,2,0,P|328:264,1,82.5000025177003,8|0,0:0|0:0,0:0:0
356,176,25208,1,0,0:0:0
332,88,25372,1,0,0:0:0
256,40,25537,2,0,P|160:20,1,82.5000025177003,8|0,0:0|0:0,0:0:0
40,136,25867,6,0,P|148:104|148:104|244:120,1,194.999991073609,0|8,0:0|0:0,0:0:0
272,228,26361,1,0,0:0:0
168,244,26526,6,0,P|64:216,1,82.5000025177003,4|0,0:0|0:0,0:0:0
176,344,26856,2,0,P|255:365,1,82.5000025177003,8|0,0:0|0:0,0:0:0
351,205,27186,2,0,P|272:228,1,82.5000025177003
400,328,27515,2,0,P|496:300,1,82.5000025177003,8|0,0:0|0:0,0:0:0
412,140,27845,6,0,P|364:124|364:124|236:160,1,165.000005035401,0|8,0:0|0:0,0:0:0
168,188,28339,1,0,0:0:0
80,208,28504,1,0,0:0:0
32,132,28669,1,0,0:0:0
120,108,28834,2,0,P|212:36,1,82.5000025177003,8|0,0:0|0:0,0:0:0
300,196,29164,6,0,P|268:244|284:364,1,165.000005035401,0|8,0:0|0:0,0:0:0
356,312,29658,2,0,P|520:232,1,165.000005035401
464,156,30153,1,8,0:0:0
416,80,30317,1,0,0:0:0
336,36,30482,2,0,P|264:96,1,82.5000025177003
188,52,30812,2,0,P|128:136,1,82.5000025177003,8|0,0:0|0:0,0:0:0
104,300,31142,6,0,P|156:216|156:216|260:172,1,194.999991073609,0|8,0:0|0:0,0:0:0
360,208,31636,1,0,0:0:0
264,280,31801,6,0,P|220:352,1,82.5000025177003,4|0,0:0|0:0,0:0:0
352,312,32131,2,0,P|395:241,1,82.5000025177003,8|0,0:0|0:0,0:0:0
292,88,32460,2,0,P|278:180,1,82.5000025177003
392,108,32790,2,0,P|404:26,1,82.5000025177003,8|0,0:0|0:0,0:0:0
184,40,33120,6,0,P|168:136|168:136|108:184,1,165.000005035401,0|8,0:0|0:0,0:0:0
64,256,33614,1,0,0:0:0
12,332,33779,2,0,P|48:348|48:348|100:344,1,82.5000025177003
232,236,34109,2,0,P|188:232|188:232|148:252,1,82.5000025177003,8|0,0:0|0:0,0:0:0
292,328,34438,6,0,P|372:308|404:232,1,165.000005035401,0|8,0:0|0:0,0:0:0
336,176,34933,2,0,P|252:28,1,165.000005035401
164,40,35427,1,8,0:0:0
64,244,35757,5,0,0:0:0
64,244,35922,2,0,P|128:264|224:220,1,165.000005035401,8|0,0:0|0:0,0:0:0
220,140,36416,2,0,P|288:80,1,82.5000025177003
400,132,36746,2,0,P|472:80,1,82.5000025177003,8|0,0:0|0:0,0:0:0
320,20,37076,6,0,P|304:100|336:184,1,165.000005035401,0|8,0:0|0:0,0:0:0
332,268,37570,2,0,P|184:352,1,165.000005035401
96,356,38065,1,8,0:0:0
56,140,38394,5,0,0:0:0
56,140,38559,2,0,P|132:148|188:220,1,165.000005035401,8|0,0:0|0:0,0:0:0
192,304,39054,2,0,P|268:360,1,82.5000025177003
360,280,39383,2,0,P|436:336,1,82.5000025177003,8|0,0:0|0:0,0:0:0
292,232,39713,6,0,P|300:148|372:104,1,165.000005035401,4|8,0:0|0:0,0:0:0
448,140,40208,2,0,P|336:12,1,165.000005035401
248,32,40702,1,8,0:0:0
196,96,40867,6,0,P|140:156|60:156,1,165.000005035401
96,72,41361,2,0,P|32:8,1,82.5000025177003,8|0,0:0|0:0,0:0:0
61,156,41691,2,0,P|132:216,1,82.5000025177003,0|0,0:0|0:0,0:0:0
152,308,42021,2,0,P|233:297,1,82.5000025177003,8|0,0:0|0:0,0:0:0
296,156,42350,6,0,P|348:200|448:176,1,165.000005035401,0|8,0:0|0:0,0:0:0
380,112,42845,2,0,P|240:16,1,165.000005035401
156,36,43339,2,0,P|120:68|108:104,1,82.5000025177003,8|0,0:0|0:0,0:0:0
120,192,43669,5,0,0:0:0
168,268,43834,1,0,0:0:0
248,312,43999,1,8,0:0:0
340,312,44164,1,0,0:0:0
420,268,44328,2,0,P|444:240|448:192,1,82.5000025177003
376,52,44658,2,0,P|352:104,3,41.2500012588501,8|0|0|0,0:0|0:0|0:0|0:0,0:0:0
332,96,44988,6,0,P|280:128|176:112,1,165.000005035401,4|0,0:0|0:0,0:0:0
124,56,45482,1,0,0:0:0
44,72,45647,2,0,P|0:152,1,82.5000025177003
52,212,45977,5,0,0:0:0
52,212,46142,2,0,P|140:248|156:320,1,165.000005035401,8|0,0:0|0:0,0:0:0
236,336,46636,1,0,0:0:0
316,356,46801,1,0,0:0:0
392,328,46966,2,0,P|456:272,1,82.5000025177003
460,192,47295,5,0,0:0:0
460,192,47460,2,0,P|392:164|372:72,1,165.000005035401,8|0,0:0|0:0,0:0:0
292,52,47955,2,0,P|228:116,1,82.5000025177003
116,88,48284,2,0,P|176:24,1,82.5000025177003
304,156,48614,2,0,P|272:236,1,82.5000025177003,0|8,0:0|0:0,0:0:0
196,268,48944,6,0,P|156:192|64:192,1,165.000005035401
0,208,49438,2,0,P|124:80,1,165.000005035401
192,56,49933,1,0,0:0:0
228,132,50098,2,0,P|304:152|384:96,1,165.000005035401,0|0,0:0|0:0,0:0:0
440,60,50592,2,0,P|492:160,1,82.5000025177003
452,296,50922,6,0,P|413:222,1,82.5000025177003,0|8,0:0|0:0,0:0:0
288,216,51251,2,0,P|340:316,1,82.5000025177003,0|8,0:0|0:0,0:0:0
204,260,51581,1,0,0:0:0
204,260,51746,2,0,P|172:176|100:168,1,165.000005035401
44,320,52405,5,0,0:0:0
100,260,52570,1,0,0:0:0
156,200,52735,2,0,P|152:124|232:72,1,165.000005035401,8|0,0:0|0:0,0:0:0
300,84,53230,1,0,0:0:0
304,164,53394,6,0,P|368:204|452:160,1,165.000005035401
468,92,53889,2,0,P|412:16,1,82.5000025177003,0|8,0:0|0:0,0:0:0
300,84,54219,2,0,P|244:8,1,82.5000025177003,0|8,0:0|0:0,0:0:0
224,216,54548,2,0,P|168:140,1,82.5000025177003,0|0,0:0|0:0,0:0:0
48,192,54878,2,0,P|-8:116,1,82.5000025177003
120,24,55208,1,8,0:0:0
256,188,55567,5,4,0:0:0
256,188,55731,1,0,0:0:0
448,60,56061,1,0,0:0:0
448,60,56226,2,0,P|352:68,1,82.5000025177003,0|0,0:0|0:0,0:0:0
317,150,56556,2,0,P|400:144,1,82.5000025177003,8|0,0:0|0:0,0:0:0
452,208,56885,5,0,0:0:0
452,208,57050,2,0,P|368:252|368:328,1,165.000005035401
284,344,57545,1,0,0:0:0
204,328,57709,1,0,0:0:0
140,276,57874,1,8,0:0:0
56,64,58204,5,4,0:0:0
56,64,58369,1,0,0:0:0
256,120,58698,1,0,0:0:0
256,120,58863,2,0,P|176:160,1,82.5000025177003
192,240,59193,2,0,P|265:203,1,82.5000025177003,8|0,0:0|0:0,0:0:0
336,248,59523,5,0,0:0:0
336,248,59687,2,0,P|372:316|460:320,1,165.000005035401
472,244,60182,1,0,0:0:0
440,168,60347,1,0,0:0:0
372,124,60512,1,8,0:0:0
128,316,60841,5,4,0:0:0
128,316,61006,1,0,0:0:0
92,116,61336,1,0,0:0:0
92,116,61501,2,0,P|152:184,1,82.5000025177003
220,140,61830,2,0,P|165:78,1,82.5000025177003,8|0,0:0|0:0,0:0:0
236,36,62160,5,0,0:0:0
236,36,62325,2,0,P|308:80|396:48,1,165.000005035401
452,104,62819,1,0,0:0:0
456,188,62984,1,0,0:0:0
424,264,63149,2,0,P|372:328,1,82.5000025177003,8|0,0:0|0:0,0:0:0
252,352,63479,6,0,P|308:288|272:192,1,165.000005035401,4|8,0:0|0:0,0:0:0
92,240,63973,2,0,P|148:292|232:264,1,165.000005035401
256,192,64468,1,8,0:0:0
308,128,64632,1,0,0:0:0
388,72,64797,6,0,P|504:84,1,97.4999955368044,4|0,0:0|0:0,0:0:0
456,216,65127,2,0,P|359:205,1,97.4999955368044,8|0,0:0|0:0,0:0:0
200,316,65457,2,0,P|312:292|312:292|412:332|408:332,1,194.999991073609,0|8,0:0|0:0,0:0:0
464,300,65951,5,0,0:0:0
456,216,66116,2,0,P|400:172|392:64,1,165.000005035401,4|8,0:0|0:0,0:0:0
316,40,66610,1,0,0:0:0
232,32,66775,1,0,0:0:0
160,76,66940,1,0,0:0:0
128,152,67105,2,0,P|156:240,1,82.5000025177003,8|0,0:0|0:0,0:0:0
184,352,67435,6,0,P|216:268|308:256,1,165.000005035401,0|8,0:0|0:0,0:0:0
364,236,67929,1,0,0:0:0
444,224,68094,2,0,P|452:152|388:88,2,165.000005035401,0|8|0,0:0|0:0|0:0,0:0:0
412,300,68918,5,0,0:0:0
336,332,69083,1,8,0:0:0
252,324,69248,1,0,0:0:0
184,276,69413,2,0,P|164:236|168:176,1,82.5000025177003
280,96,69742,2,0,P|264:140|224:164,1,82.5000025177003,8|0,0:0|0:0,0:0:0
196,152,69990,1,0,0:0:0
160,132,70072,6,0,P|108:68|12:80,2,165.000005035401,0|8|0,0:0|0:0|0:0,0:0:0
100,188,70896,1,0,0:0:0
80,268,71061,1,4,0:0:0
252,336,71391,6,0,P|272:292|320:264,1,82.5000025177003
380,256,71720,1,8,0:0:0
444,208,71885,1,0,0:0:0
464,128,72050,2,0,P|460:76|432:40,1,82.5000025177003
360,52,72380,2,0,P|248:76,1,82.5000025177003,8|0,0:0|0:0,0:0:0
216,176,72709,6,0,P|312:152|312:152|344:172|392:156,1,165.000005035401,0|8,0:0|0:0,0:0:0
444,208,73204,1,0,0:0:0
432,288,73369,2,0,P|352:320,1,82.5000025177003
288,364,73698,2,0,P|188:340,1,82.5000025177003,8|0,0:0|0:0,0:0:0
128,320,74028,6,0,P|116:232|28:204,1,165.000005035401,4|8,0:0|0:0,0:0:0
248,48,74687,2,0,P|420:28,1,165.000005035401,0|8,0:0|0:0,0:0:0
424,112,75182,1,0,0:0:0
352,176,75347,2,0,P|240:156,1,97.4999955368044,0|0,0:0|0:0,0:0:0
216,308,75676,2,0,P|104:288,1,97.4999955368044,8|0,0:0|0:0,0:0:0
32,88,76006,6,0,P|168:116|168:116|256:76,2,194.999991073609,0|8|4,0:0|0:0|0:0,0:0:0
20,168,76830,1,0,0:0:0
60,240,76995,1,8,0:0:0
140,264,77160,1,0,0:0:0
220,252,77325,2,0,P|304:232|368:300,1,165.000005035401,0|8,0:0|0:0,0:0:0
284,308,77819,5,0,0:0:0
284,308,77984,2,0,P|324:132,2,165.000005035401,0|8|0,0:0|0:0|0:0,0:0:0
204,292,78808,1,0,0:0:0
148,232,78973,6,0,P|136:140|56:108,1,165.000005035401,8|4,0:0|0:0,0:0:0
28,176,79468,1,0,0:0:0
44,256,79632,1,8,0:0:0
108,308,79797,1,0,0:0:0
188,328,79962,2,0,P|368:344,2,165.000005035401,0|8|0,0:0|0:0|0:0,0:0:0
172,248,80786,5,0,0:0:0
160,168,80951,2,0,P|60:152,1,82.5000025177003,8|0,0:0|0:0,0:0:0
172,40,81281,2,0,P|253:53,1,82.5000025177003
388,252,81610,6,0,P|264:232|264:232|248:196|248:196,2,165.000005035401,8|4|8,0:0|0:0|0:0,0:0:0
428,180,82435,1,0,0:0:0
488,120,82599,2,0,P|480:72|452:40,1,82.5000025177003
376,48,82929,2,0,P|328:96|220:72,1,165.000005035401,8|0,0:0|0:0,0:0:0
160,60,83424,5,0,0:0:0
88,96,83588,1,8,0:0:0
60,172,83753,1,0,0:0:0
100,244,83918,2,0,P|192:280,1,82.5000025177003
224,344,84248,6,0,P|336:320|336:320|384:340,2,165.000005035401,8|4|8,0:0|0:0|0:0,0:0:0
140,348,85072,1,0,0:0:0
68,308,85237,2,0,P|-20:320,1,82.5000025177003
60,204,85566,2,0,P|141:192,1,82.5000025177003,8|0,0:0|0:0,0:0:0
304,268,85896,6,0,P|224:232|224:232|240:192|224:148,1,165.000005035401,0|8,0:0|0:0,0:0:0
140,64,86391,1,0,0:0:0
144,192,86556,2,0,P|328:176,1,165.000005035401,0|8,0:0|0:0,0:0:0
488,28,87227,6,0,P|400:80|508:248,1,330.000010070801,4|8,0:0|0:0,0:0:0
268,380,88216,2,0,P|364:340,1,82.5000025177003,0|0,0:0|0:0,0:0:0
416,308,88545,2,0,P|344:256|312:168,1,165.000005035401,0|0,0:0|0:0,0:0:0
280,112,89040,1,0,0:0:0
248,36,89205,2,0,P|68:16,1,165.000005035401,8|0,0:0|0:0,0:0:0
24,356,89864,6,0,P|112:304|4:136,1,330.000010070801,4|8,0:0|0:0,0:0:0
244,4,90853,2,0,P|148:44,1,82.5000025177003
96,76,91183,2,0,P|168:128|200:216,1,165.000005035401,0|0,0:0|0:0,0:0:0
232,272,91677,1,0,0:0:0
248,352,91842,2,0,P|352:364,2,82.5000025177003,8|0|0,0:0|0:0|0:0,0:0:0
172,324,92336,6,0,P|68:276|88:144,1,247.500007553101
140,108,92996,1,0,0:0:0
224,100,93161,1,8,0:0:0
460,28,93490,1,0,0:0:0
460,112,93655,2,0,P|360:212|248:164,1,247.500007553101
228,116,94314,1,0,0:0:0
192,40,94479,2,0,P|144:24|96:24,1,82.5000025177003
184,208,94974,6,0,P|272:268|384:204,1,247.500007553101,4|8,0:0|0:0,0:0:0
380,124,95633,2,0,P|396:60|496:32,1,165.000005035401
448,232,96292,2,0,P|332:256|260:156,1,247.500007553101,0|8,0:0|0:0,0:0:0
256,80,96952,1,0,0:0:0
196,24,97117,2,0,P|28:48,1,165.000005035401,8|0,0:0|0:0,0:0:0
48,356,97776,6,0,P|308:304,1,247.500007553101,4|0,0:0|0:0,0:0:0
300,224,98435,2,0,P|296:128|372:72,1,165.000005035401,8|0,0:0|0:0,0:0:0
484,168,99095,1,0,0:0:0
276,304,99424,1,0,0:0:0
56,192,99754,1,8,0:0:0
256,44,100084,6,0,P|272:136|420:160,1,247.500007553101
440,244,100743,2,0,P|328:376,1,165.000005035401,0|8,0:0|0:0,0:0:0
96,300,101402,1,0,0:0:0
128,224,101567,1,0,0:0:0
180,160,101732,2,0,P|292:144|316:76,1,165.000005035401
464,40,102391,1,8,0:0:0
360,220,102721,6,0,P|308:260|300:364,2,165.000005035401,0|4|0,0:0|0:0|0:0,0:0:0
432,180,103545,1,0,0:0:0
380,116,103710,2,0,P|208:56,1,165.000005035401,8|0,0:0|0:0,0:0:0
144,36,104205,1,0,0:0:0
72,80,104369,6,0,P|92:136|80:176,1,82.5000025177003
64,236,104699,2,0,P|108:236|152:204,1,82.5000025177003
196,156,105029,2,0,P|256:208|344:196,1,165.000005035401,8|0,0:0|0:0,0:0:0
400,148,105523,1,0,0:0:0
428,72,105688,1,4,0:0:0
256,192,105770,12,0,108573,0:0:0
256,192,108985,12,2,110798,0:0:0
