osu file format v12

[General]
AudioFilename: MAD.mp3
AudioLeadIn: 0
PreviewTime: 64486
Countdown: 0
SampleSet: Soft
StackLeniency: 0.7
Mode: 0
LetterboxInBreaks: 0

[Editor]
Bookmarks: 23891,44998,66105,87212,105681
DistanceSpacing: 1.2
BeatDivisor: 2
GridSize: 16

[Metadata]
Title:The Beginning
TitleUnicode:The Beginning
Artist:ONE OK ROCK
ArtistUnicode:ONE OK ROCK
Creator:tutuhaha
Version:AngelHoney
Source:
Tags:MAD AngelHoney Naruto Shippuuden Kiiwa
BeatmapID:206280
BeatmapSetID:68891

[Difficulty]
HPDrainRate:6
CircleSize:4
OverallDifficulty:6
ApproachRate:8
SliderMultiplier:2
SliderTickRate:2

[Events]
//Background and Video events
0,0,"6cec26adf0bbbd464b36d6d8.jpg",0,0
Video,0,"NARUTO.avi"
//Break Periods
//Storyboard Layer 0 (Background)
//Storyboard Layer 1 (Fail)
//Storyboard Layer 2 (Pass)
//Storyboard Layer 3 (Foreground)
//Storyboard Sound Samples
//Background Colour Transformations
3,100,163,162,255

[TimingPoints]
148,329.67032967033,4,2,2,50,1,0
1466,-133.333333333333,4,2,2,50,0,0
23060,-133.333333333333,4,1,3,50,0,0
23230,329.67032967033,4,1,3,60,1,0
23559,-100,4,1,3,70,0,0
23889,-100,4,1,3,80,0,0
44988,-125,4,1,3,60,0,0
55567,329.67032967033,4,1,3,70,1,0
64797,-100,4,1,3,75,0,0
66116,-100,4,1,3,80,0,0
87227,329.67032967033,4,1,3,70,1,0
87227,-133.333333333333,4,1,3,60,0,0

[Colours]
Combo1 : 248,211,171
Combo2 : 171,252,203
Combo3 : 175,221,254
Combo4 : 249,254,186
Combo5 : 240,80,80

[HitObjects]
64,144,2785,6,0,B|112:112|112:112|224:128|224:128|288:96,2,225.000008583069,2|2|2,0:0|0:0|0:0,0:0:0:0:
128,256,4104,1,0,0:0:0:0:
240,240,4433,1,0,0:0:0:0:
352,224,4763,1,0,0:0:0:0:
464,208,5093,1,0,0:0:0:0:
416,336,5422,6,0,B|352:352|352:352|256:320|256:320|192:336,2,225.000008583069,2|2|2,0:0|0:0|0:0,0:0:0:0:
352,224,6741,1,0,0:0:0:0:
272,128,7071,2,0,P|144:208|0:144,1,300.000011444092
160,64,8060,6,0,B|208:32|208:32|320:48|320:48|384:16,2,225.000008583069,2|2|2,0:0|0:0|0:0,0:0:0:0:
64,160,9378,1,0,0:0:0:0:
176,224,9708,1,0,0:0:0:0:
288,176,10038,1,0,0:0:0:0:
416,208,10367,1,0,0:0:0:0:
336,320,10697,6,0,B|272:288|272:288|176:304|176:304|112:272,2,225.000008583069,2|2|2,0:0|0:0|0:0,0:0:0:0:
448,368,12016,1,0,0:0:0:0:
480,256,12345,1,2,0:0:0:0:
416,160,12675,1,2,0:0:0:0:
432,48,13005,1,2,0:0:0:0:
304,112,13334,6,0,P|192:160|89:118,2,225.000008583069,2|2|2,0:0|0:0|0:0,0:0:0:0:
416,160,14653,2,0,P|416:240|480:304,1,150.000005722046
288,272,15312,2,0,P|224:320|140:320,1,150.000005722046
32,176,15972,6,0,P|144:144|240:208,2,225.000008583069,2|2|2,0:0|0:0|0:0,0:0:0:0:
96,288,17290,1,0,0:0:0:0:
208,272,17620,1,0,0:0:0:0:
320,256,17950,1,0,0:0:0:0:
432,240,18279,1,0,0:0:0:0:
352,128,18609,6,0,P|240:144|176:48,2,225.000008583069,2|2|2,0:0|0:0|0:0,0:0:0:0:
480,128,19928,1,0,0:0:0:0:
432,240,20257,2,0,P|304:224|208:352,1,300.000011444092
32,304,21246,6,0,P|144:240|144:128,2,225.000008583069,2|2|2,0:0|0:0|0:0,0:0:0:0:
0,192,22565,1,0,0:0:0:0:
96,96,22895,1,0,0:0:0:0:
160,64,23060,1,8,0:0:0:0:
176,128,23230,1,8,0:0:0:0:
240,96,23394,1,8,0:0:0:0:
256,160,23559,1,8,0:0:0:0:
320,128,23724,1,8,0:0:0:0:
384,96,23889,6,0,P|352:208|416:272,1,200,8|0,0:0|0:0,0:0:0:0:
272,304,24383,2,0,P|176:288|96:368,1,200,8|0,0:0|0:0,0:0:0:0:
0,208,24878,2,0,P|112:208|176:128,1,200,8|0,0:0|0:0,0:0:0:0:
432,96,25372,2,0,P|320:128|256:64,1,200,8|0,0:0|0:0,0:0:0:0:
336,336,25867,2,0,P|304:240|192:224,1,200,8|8,0:0|0:0,0:0:0:0:
112,256,26361,1,0,0:0:0:0:
16,176,26526,6,0,P|112:112|112:32,1,200,8|0,0:0|0:0,0:0:0:0:
288,224,27021,2,0,P|236:136|328:36,1,200,8|0,0:0|0:0,0:0:0:0:
448,112,27515,2,0,P|496:192|432:280,1,200,8|0,0:0|0:0,0:0:0:0:
240,320,28010,2,0,P|176:240|240:144,1,200,8|0,0:0|0:0,0:0:0:0:
368,112,28504,2,0,P|304:32|160:48,1,200,8|8,0:0|0:0,0:0:0:0:
144,108,28999,1,0,0:0:0:0:
32,80,29164,6,0,P|16:192|96:256,1,200,8|0,0:0|0:0,0:0:0:0:
176,368,29658,2,0,P|240:288|208:192,1,200,8|0,0:0|0:0,0:0:0:0:
384,48,30153,2,0,P|304:112|176:80,1,200,8|0,0:0|0:0,0:0:0:0:
320,224,30647,2,0,P|416:176|528:208,1,200,8|0,0:0|0:0,0:0:0:0:
352,352,31142,2,0,P|256:288|128:336,1,200,8|8,0:0|0:0,0:0:0:0:
80,352,31636,1,0,0:0:0:0:
0,256,31801,6,0,P|112:208|128:112,1,200,8|0,0:0|0:0,0:0:0:0:
368,208,32295,2,0,P|256:160|256:64,1,200,8|0,0:0|0:0,0:0:0:0:
0,80,32790,2,0,P|96:64|144:144,1,200,8|0,0:0|0:0,0:0:0:0:
224,320,33284,2,0,P|160:240|32:256,1,200,8|0,0:0|0:0,0:0:0:0:
272,208,33779,2,0,P|368:256|488:188,1,200,8|8,0:0|0:0,0:0:0:0:
496,128,34273,1,0,0:0:0:0:
384,96,34438,6,0,P|272:32|192:64,1,200,8|0,0:0|0:0,0:0:0:0:
176,272,34933,2,0,P|192:176|296:136,1,200,8|0,0:0|0:0,0:0:0:0:
432,336,35427,2,0,P|388:264|272:240,1,200,8|0,0:0|0:0,0:0:0:0:
128,352,35922,2,0,P|224:384|320:320,1,200,8|0,0:0|0:0,0:0:0:0:
192,128,36416,2,0,P|252:220|188:296,1,200,8|8,0:0|0:0,0:0:0:0:
144,208,36911,1,0,0:0:0:0:
288,96,37076,6,0,L|496:96,1,200,8|0,0:0|0:0,0:0:0:0:
224,160,37570,2,0,L|0:160,1,200,8|0,0:0|0:0,0:0:0:0:
304,224,38065,2,0,L|528:224,1,200,8|0,0:0|0:0,0:0:0:0:
208,288,38559,2,0,L|-16:288,1,200,8|0,0:0|0:0,0:0:0:0:
288,352,39054,2,0,L|496:352,1,200,8|8,0:0|0:0,0:0:0:0:
304,224,39548,1,0,0:0:0:0:
176,128,39713,6,0,P|208:224|128:304,1,200,8|0,0:0|0:0,0:0:0:0:
416,160,40208,2,0,P|320:112|320:0,1,200,8|0,0:0|0:0,0:0:0:0:
48,80,40702,2,0,P|112:144|240:80,1,200,8|0,0:0|0:0,0:0:0:0:
304,224,41197,2,0,P|192:272|160:368,1,200,8|0,0:0|0:0,0:0:0:0:
352,352,41691,2,0,P|464:288|480:208,1,200,8|8,0:0|0:0,0:0:0:0:
400,144,42186,1,0,0:0:0:0:
272,48,42350,6,0,L|496:32,1,200,8|0,0:0|0:0,0:0:0:0:
224,128,42845,2,0,L|0:144,1,200,8|0,0:0|0:0,0:0:0:0:
288,192,43339,2,0,L|512:176,1,200,8|0,0:0|0:0,0:0:0:0:
240,272,43834,2,0,L|32:288,1,200,8|0,0:0|0:0,0:0:0:0:
304,336,44328,2,0,L|528:320,1,200,8|8,0:0|0:0,0:0:0:0:
288,192,44823,1,0,0:0:0:0:
160,256,44988,6,0,P|48:256|0:192,1,160
80,128,45482,1,0,0:0:0:0:
192,144,45647,2,0,L|288:112,1,80
400,192,45977,2,0,L|304:224,1,80,0|8,0:0|0:0,0:0:0:0:
448,96,46306,2,0,P|496:144|480:240,1,160
416,304,46801,1,0,0:0:0:0:
304,272,46966,2,0,L|320:352,1,80
208,320,47295,2,0,L|192:240,1,80,0|8,0:0|0:0,0:0:0:0:
96,288,47625,6,0,P|32:240|32:160,2,160
128,176,48449,1,0,0:0:0:0:
208,96,48614,2,0,L|128:64,1,80,0|8,0:0|0:0,0:0:0:0:
304,48,48944,2,0,L|384:80,1,80
448,176,49273,2,0,P|368:176|304:240,1,160
320,336,49768,1,8,0:0:0:0:
224,288,49933,2,0,L|144:256,1,80
32,208,50262,6,0,L|48:304,1,80
128,160,50592,2,0,P|208:144|256:64,1,160
352,32,51087,1,8,0:0:0:0:
352,144,51251,2,0,L|432:160,1,80,0|8,0:0|0:0,0:0:0:0:
352,256,51581,2,0,L|272:240,1,80
176,128,51911,2,0,L|256:144,1,80
160,240,52240,2,0,L|80:224,1,80
0,112,52570,2,0,L|80:128,1,80,0|8,0:0|0:0,0:0:0:0:
208,16,52900,6,0,P|144:48|64:16,1,160
224,128,53394,1,0,0:0:0:0:
320,64,53559,2,0,P|384:32|464:64,1,160
512,160,54054,1,8,0:0:0:0:
400,160,54219,2,0,L|320:192,1,80,0|8,0:0|0:0,0:0:0:0:
208,80,54548,2,0,L|240:160,1,80
192,240,54878,2,0,L|112:272,1,80,0|8,0:0|0:0,0:0:0:0:
0,160,55208,2,0,L|32:240,1,80,8|8,0:0|0:0,0:0:0:0:
112,160,55567,5,8,0:0:0:0:
112,160,55731,2,0,P|224:128|240:48,1,200,8|0,0:0|0:0,0:0:0:0:
336,160,56226,2,0,P|416:96|512:128,1,200,8|0,0:0|0:0,0:0:0:0:
480,224,56720,1,0,0:0:0:0:
448,336,56885,1,8,0:0:0:0:
368,256,57050,1,0,0:0:0:0:
272,192,57215,1,0,0:0:0:0:
224,288,57380,1,8,0:0:0:0:
112,304,57545,1,0,0:0:0:0:
128,192,57709,1,0,0:0:0:0:
80,96,57874,1,8,0:0:0:0:
0,192,58039,1,0,0:0:0:0:
16,304,58204,5,8,0:0:0:0:
16,304,58369,2,0,P|160:304|192:240,1,200,8|0,0:0|0:0,0:0:0:0:
336,288,58863,2,0,P|272:208|320:112,1,200,8|0,0:0|0:0,0:0:0:0:
400,64,59358,1,0,0:0:0:0:
496,128,59523,1,8,0:0:0:0:
400,176,59687,1,0,0:0:0:0:
288,144,59852,1,0,0:0:0:0:
192,208,60017,1,8,0:0:0:0:
288,272,60182,1,0,0:0:0:0:
400,288,60347,1,0,0:0:0:0:
512,240,60512,1,8,0:0:0:0:
496,368,60676,1,0,0:0:0:0:
336,368,60841,5,8,0:0:0:0:
336,368,61006,2,0,P|224:368|176:288,1,200,8|0,0:0|0:0,0:0:0:0:
0,256,61501,2,0,P|96:256|160:160,1,200,8|0,0:0|0:0,0:0:0:0:
144,64,61995,1,0,0:0:0:0:
240,112,62160,1,8,0:0:0:0:
320,48,62325,1,0,0:0:0:0:
416,96,62490,1,0,0:0:0:0:
480,176,62654,1,8,0:0:0:0:
368,208,62819,1,0,0:0:0:0:
256,192,62984,1,0,0:0:0:0:
144,224,63149,1,8,0:0:0:0:
48,160,63314,1,0,0:0:0:0:
0,304,63479,6,0,P|96:288|160:368,1,200,0|8,0:0|0:0,0:0:0:0:
400,256,63973,2,0,P|304:256|240:336,1,200,0|8,0:0|0:0,0:0:0:0:
176,224,64468,2,0,P|208:176|224:96,1,100,0|8,0:0|0:0,0:0:0:0:
32,80,64797,6,0,L|144:64,1,100
432,128,65127,2,0,L|320:112,1,100
16,208,65457,2,0,L|128:192,1,100,8|0,0:0|0:0,0:0:0:0:
432,256,65786,2,0,L|320:240,1,100,8|0,0:0|0:0,0:0:0:0:
176,288,66116,6,0,P|240:192|176:80,1,200,4|8,0:0|0:0,0:0:0:0:
144,32,66610,1,0,0:0:0:0:
304,48,66775,2,0,P|400:96|496:48,1,200,0|8,0:0|0:0,0:0:0:0:
480,192,67270,1,0,0:0:0:0:
368,240,67435,2,0,L|400:352,1,100
256,208,67764,2,0,L|224:112,1,100,8|0,0:0|0:0,0:0:0:0:
176,288,68094,2,0,P|96:240|0:288,1,200,0|8,0:0|0:0,0:0:0:0:
48,112,68588,6,0,P|160:128|224:64,1,200
432,96,69083,2,0,P|336:128|304:240,1,200,8|0,0:0|0:0,0:0:0:0:
336,320,69577,1,0,0:0:0:0:
496,272,69742,2,0,P|448:240|384:240,1,100,8|0,0:0|0:0,0:0:0:0:
192,256,70072,2,0,P|288:208|304:112,1,200,0|8,0:0|0:0,0:0:0:0:
240,32,70567,1,0,0:0:0:0:
144,96,70731,2,0,P|96:80|32:80,1,100
80,208,71061,2,0,P|64:256|16:304,1,100,8|0,0:0|0:0,0:0:0:0:
192,256,71391,6,0,P|288:208|384:272,1,200,0|8,0:0|0:0,0:0:0:0:
272,96,71885,2,0,P|384:112|448:32,1,200
464,192,72380,2,0,P|480:240|528:288,1,100,8|0,0:0|0:0,0:0:0:0:
368,256,72709,2,0,P|304:336|192:320,1,200,0|8,0:0|0:0,0:0:0:0:
144,256,73204,1,0,0:0:0:0:
256,224,73369,2,0,P|265:100|185:68,1,200,0|8,0:0|0:0,0:0:0:0:
96,96,73863,1,0,0:0:0:0:
160,192,74028,6,0,P|64:256|80:352,2,200,0|8|0,0:0|0:0|0:0,0:0:0:0:
240,272,74852,1,0,0:0:0:0:
336,208,75017,2,0,L|464:192,1,100,8|0,0:0|0:0,0:0:0:0:
480,64,75347,2,0,P|384:96|304:48,1,200,0|8,0:0|0:0,0:0:0:0:
208,112,75841,1,0,0:0:0:0:
96,64,76006,2,0,P|80:112|16:160,1,100
160,240,76336,2,0,P|112:240|48:272,1,100,8|0,0:0|0:0,0:0:0:0:
240,336,76665,6,0,P|352:304|384:208,1,200,0|8,0:0|0:0,0:0:0:0:
240,224,77160,2,0,P|128:208|96:112,1,200
208,112,77654,2,0,P|272:96|320:48,1,100,8|0,0:0|0:0,0:0:0:0:
464,80,77984,2,0,P|384:160|400:240,1,200,0|8,0:0|0:0,0:0:0:0:
240,336,78479,2,0,P|272:240|192:176,1,200
64,288,78973,2,0,L|176:272,1,100,8|0,0:0|0:0,0:0:0:0:
96,160,79303,6,0,P|96:112|64:32,1,100
240,80,79632,2,0,P|240:128|272:208,1,100,8|0,0:0|0:0,0:0:0:0:
384,288,79962,2,0,P|272:272|208:336,1,200,0|8,0:0|0:0,0:0:0:0:
192,192,80457,1,0,0:0:0:0:
64,192,80621,2,0,P|96:240|80:320,1,100
96,48,80951,2,0,P|48:80|-16:80,1,100,8|0,0:0|0:0,0:0:0:0:
176,144,81281,2,0,P|288:144|352:48,1,200,0|8,0:0|0:0,0:0:0:0:
464,48,81775,1,0,0:0:0:0:
432,160,81940,6,0,P|400:240|448:336,2,200,0|8|0,0:0|0:0|0:0,0:0:0:0:
304,192,82764,1,0,0:0:0:0:
208,128,82929,2,0,P|160:112|80:112,1,100,8|0,0:0|0:0,0:0:0:0:
32,256,83259,2,0,P|128:208|224:256,1,200,0|8,0:0|0:0,0:0:0:0:
384,288,83753,2,0,P|288:288|224:384,1,200
112,320,84248,2,0,P|120:259|80:192,1,100,8|0,0:0|0:0,0:0:0:0:
80,80,84577,6,0,L|176:112,1,100
288,192,84907,2,0,L|192:224,1,100,8|0,0:0|0:0,0:0:0:0:
304,80,85237,2,0,L|400:48,1,100
512,208,85567,2,0,L|416:176,1,100,8|0,0:0|0:0,0:0:0:0:
288,288,85896,2,0,P|400:272|464:336,1,200,0|8,0:0|0:0,0:0:0:0:
512,208,86391,1,0,0:0:0:0:
432,112,86556,2,0,P|336:160|224:128,1,200,8|8,0:0|0:0,0:0:0:0:
128,80,87050,1,0,0:0:0:0:
32,208,87227,6,0,P|176:208|208:352,2,300.000011444092,4|8|0,0:0|0:0|0:0,0:0:0:0:
80,320,88710,1,0,0:0:0:0:
80,320,88875,2,0,L|144:240,1,75.0000028610231
256,160,89205,2,0,L|192:80,1,75.0000028610231,8|0,0:0|0:0,0:0:0:0:
48,112,89534,2,0,L|-16:192,1,75.0000028610231
112,240,89864,6,0,P|272:288|368:176,2,300.000011444092,4|8|0,0:0|0:0|0:0,0:0:0:0:
80,144,91347,1,0,0:0:0:0:
176,80,91512,2,0,L|208:160,1,75.0000028610231
352,160,91842,2,0,L|320:80,1,75.0000028610231,8|0,0:0|0:0,0:0:0:0:
464,32,92172,2,0,L|496:112,1,75.0000028610231
432,240,92501,6,0,P|288:240|208:368,2,300.000011444092,4|8|0,0:0|0:0|0:0,0:0:0:0:
368,368,93985,1,0,0:0:0:0:
368,368,94150,2,0,L|320:288,1,75.0000028610231
160,192,94479,2,0,P|256:160|288:96,1,150.000005722046,8|0,0:0|0:0,0:0:0:0:
384,64,94974,1,0,0:0:0:0:
368,176,95139,6,0,P|480:208|496:304,1,225.000008583069,4|0,0:0|0:0,0:0:0:0:
384,288,95798,2,0,P|320:336|224:304,1,150.000005722046,8|0,0:0|0:0,0:0:0:0:
176,256,96292,1,0,0:0:0:0:
96,320,96457,2,0,L|16:336,1,75.0000028610231,0|8,0:0|0:0,0:0:0:0:
0,224,96787,2,0,L|80:240,1,75.0000028610231
96,128,97117,2,0,L|16:144,1,75.0000028610231,8|0,0:0|0:0,0:0:0:0:
0,32,97446,2,0,L|80:48,1,75.0000028610231
176,80,97776,6,0,P|288:128|384:80,1,225.000008583069,4|0,0:0|0:0,0:0:0:0:
448,208,98435,2,0,P|368:192|304:272,1,150.000005722046,8|0,0:0|0:0,0:0:0:0:
256,320,98930,1,0,0:0:0:0:
176,256,99095,2,0,L|96:240,1,75.0000028610231
80,144,99424,2,0,L|160:160,1,75.0000028610231
320,96,99754,2,0,L|240:112,1,75.0000028610231,8|0,0:0|0:0,0:0:0:0:
240,16,100084,2,0,L|320:0,1,75.0000028610231
416,48,100413,6,0,P|464:160|384:240,1,225.000008583069,4|0,0:0|0:0,0:0:0:0:
320,160,101073,2,0,P|256:192|176:160,1,150.000005722046,8|0,0:0|0:0,0:0:0:0:
192,64,101567,1,0,0:0:0:0:
96,112,101732,2,0,P|48:192|80:272,1,150.000005722046
144,304,102227,1,0,0:0:0:0:
144,304,102391,2,0,L|208:256,1,75.0000028610231,8|0,0:0|0:0,0:0:0:0:
320,304,102721,2,0,L|256:352,1,75.0000028610231
416,336,103051,6,0,P|448:256|416:192,1,150.000005722046,4|0,0:0|0:0,0:0:0:0:
336,144,103545,1,0,0:0:0:0:
320,240,103710,2,0,P|256:304|176:288,1,150.000005722046,8|0,0:0|0:0,0:0:0:0:
128,240,104205,1,0,0:0:0:0:
208,176,104369,2,0,P|176:96|96:80,1,150.000005722046
48,160,104864,1,0,0:0:0:0:
48,160,105029,2,0,L|144:176,1,75.0000028610231,8|0,0:0|0:0,0:0:0:0:
208,288,105358,2,0,L|128:272,1,75.0000028610231
32,256,105688,5,4,0:0:0:0:
