osu file format v12

[General]
AudioFilename: The Beginning.mp3
AudioLeadIn: 1000
PreviewTime: 74892
Countdown: 0
SampleSet: Normal
StackLeniency: 0.7
Mode: 0
LetterboxInBreaks: 0

[Editor]
Bookmarks: 69865,86873
DistanceSpacing: 1
BeatDivisor: 4
GridSize: 8

[Metadata]
Title:The Beginning
TitleUnicode:The Beginning
Artist:ONE OK ROCK
ArtistUnicode:ONE OK ROCK
Creator:Kuria
Version:Normal
Source:
Tags:envi byakugan249 hakunokaemi fate zero fate/zero rurouni kenshin mad amv
BeatmapID:205036
BeatmapSetID:71561

[Difficulty]
HPDrainRate:4
CircleSize:3
OverallDifficulty:4
ApproachRate:4
SliderMultiplier:1.1
SliderTickRate:1

[Events]
//Background and Video events
Video,-54,"thebeg.avi"
0,0,"fzero.jpg",0,0
//Break Periods
2,121697,130726
//Storyboard Layer 0 (Background)
//Storyboard Layer 1 (Fail)
//Storyboard Layer 2 (Pass)
//Storyboard Layer 3 (Foreground)
//Storyboard Sound Samples
//Background Colour Transformations
3,100,163,162,255

[TimingPoints]
140,329.67032967033,4,2,0,70,1,0
2777,-133.333333333333,4,2,0,70,0,0
23052,-100,4,1,1,60,0,0
23546,-100,4,1,1,65,0,0
23876,-100,4,1,1,70,0,0
24205,-100,4,1,1,15,0,0
24370,-100,4,1,1,70,0,0
24535,-100,4,1,1,15,0,0
24700,-100,4,1,1,70,0,0
26843,-100,4,1,1,15,0,0
27008,-100,4,1,1,70,0,0
27832,-100,4,1,1,15,0,0
27997,-100,4,1,1,70,0,0
29480,-100,4,1,1,15,0,0
29645,-100,4,1,1,70,0,0
30469,-100,4,1,1,15,0,0
30634,-100,4,1,1,70,0,0
32118,-100,4,1,1,15,0,0
32282,-100,4,1,1,70,0,0
32447,-100,4,1,1,15,0,0
32612,-100,4,1,1,70,0,0
33601,-100,4,1,1,15,0,0
33683,-100,4,1,1,70,0,0
34755,-100,4,1,1,15,0,0
34920,-100,4,1,1,70,0,0
35744,-100,4,1,1,15,0,0
35909,-100,4,1,1,70,0,0
37392,-100,4,1,1,15,0,0
37557,-100,4,1,1,70,0,0
38381,-100,4,1,1,15,0,0
38546,-100,4,1,1,70,0,0
42667,-100,4,1,1,15,0,0
42832,-100,4,1,1,70,0,0
42997,-100,4,1,1,15,0,0
43161,-100,4,1,1,70,0,0
44150,-100,4,1,1,15,0,0
44315,-100,4,1,1,70,0,0
44975,-100,4,1,1,60,0,0
46623,-100,4,1,1,15,0,0
46705,-100,4,1,1,70,0,0
47942,-100,4,1,1,15,0,0
48024,-100,4,1,1,70,0,0
50579,-100,4,1,1,15,0,0
50661,-100,4,1,1,70,0,0
51898,-100,4,1,1,15,0,0
51980,-100,4,1,1,70,0,0
55030,-100,4,1,1,55,0,0
55524,-100,4,1,1,70,0,0
66074,-100,4,1,1,75,0,0
74315,-100,4,1,1,15,0,0
74398,-100,4,1,1,76,0,0
74645,-100,4,1,1,15,0,0
74727,-100,4,1,1,76,0,0
76623,-100,4,1,3,80,0,1
76705,-100,4,1,1,80,0,1
79260,-100,4,1,2,80,0,1
79343,-100,4,1,1,80,0,1
83216,-100,4,1,2,80,0,1
83299,-100,4,1,1,80,0,1
84535,-100,4,1,2,80,0,1
84618,-100,4,1,1,80,0,1
87172,-100,4,1,2,80,0,1
87255,-100,4,1,1,80,0,1
89810,-100,4,1,2,80,0,1
89892,-100,4,1,1,80,0,1
91129,-100,4,1,2,80,0,1
91211,-100,4,1,1,80,0,1
96403,333.333333333333,4,1,1,80,1,0
96736,337.078651685393,4,1,1,80,1,0
97073,340.909090909091,4,1,1,80,1,0
97413,348.837209302326,4,1,1,80,1,0
97761,329.67032967033,4,1,1,80,1,0
98090,-100,4,1,2,80,0,0
98172,-100,4,1,1,80,0,0
99079,-100,4,1,2,80,0,0
99161,-100,4,1,1,80,0,0
100727,-100,4,1,2,80,0,0
100809,-100,4,1,1,80,0,0
101716,-100,4,1,2,80,0,0
101798,-100,4,1,1,80,0,0
103364,-100,4,1,2,80,0,0
103447,-100,4,1,1,80,0,0
103694,-100,4,1,2,80,0,0
103776,-100,4,1,1,80,0,0
108639,-100,4,1,2,80,0,0
108721,-100,4,1,1,80,0,0
108969,-100,4,1,2,80,0,0
109051,-100,4,1,1,80,0,0
110123,-100,4,1,1,15,0,0
110205,-100,4,1,1,80,0,0
111276,-100,4,1,2,80,0,0
111359,-100,4,1,1,80,0,0
112265,-100,4,1,2,80,0,0
112348,-100,4,1,1,80,0,0
113914,-100,4,1,2,80,0,0
113996,-100,4,1,1,80,0,0
114243,-100,4,1,2,80,0,0
114326,-100,4,1,1,80,0,0
115397,-100,4,1,2,80,0,0
115480,-100,4,1,1,80,0,0
117541,-100,4,1,2,70,0,0
118859,-100,4,1,2,60,0,0
120178,-100,4,1,2,50,0,0
121497,-100,4,2,1,20,0,0
132046,-133.333333333333,4,1,1,60,0,0
137650,-133.333333333333,4,1,1,15,0,0
137732,-133.333333333333,4,1,1,60,0,0
141936,-100,4,1,1,55,0,0
142265,-100,4,1,1,65,0,0
142595,-100,4,1,3,80,0,1
142678,-100,4,1,1,80,0,1
145232,-100,4,1,2,80,0,1
145315,-100,4,1,1,80,0,1
153145,-100,4,1,1,85,0,1
153474,-100,4,1,1,80,0,1
155782,-100,4,1,2,80,0,1
155864,-100,4,1,1,80,0,1
157101,-100,4,1,2,80,0,1
157183,-100,4,1,1,80,0,1
163694,-133.333333333333,4,1,1,70,0,0
164024,-133.333333333333,4,1,1,15,0,0
164106,-133.333333333333,4,1,1,70,0,0
165342,-133.333333333333,4,1,1,15,0,0
165425,-133.333333333333,4,1,1,70,0,0
166661,-133.333333333333,4,1,1,15,0,0
166743,-133.333333333333,4,1,1,70,0,0
169298,-133.333333333333,4,1,1,15,0,0
169381,-133.333333333333,4,1,1,70,0,0
170617,-133.333333333333,4,1,1,15,0,0
170699,-133.333333333333,4,1,1,70,0,0
171936,-133.333333333333,4,1,1,15,0,0
172018,-133.333333333333,4,1,1,70,0,0
174573,-133.333333333333,4,1,1,15,0,0
174656,-133.333333333333,4,1,1,70,0,0
176881,-133.333333333333,4,1,3,70,0,0
176963,-133.333333333333,4,1,1,70,0,0
182156,348.837209302326,4,1,2,60,1,0
182156,-133.333333333333,4,1,2,60,0,0
183202,405.405405405405,4,2,1,60,1,0
183607,422.535211267606,4,2,1,60,1,0
184029,476.190476190476,4,2,1,60,1,0
184148,-133.333333333333,4,2,1,50,0,0
184505,500,4,2,1,50,1,0
185005,476.190476190476,4,2,1,50,1,0
185481,517.241379310345,4,2,1,40,1,0
185481,-133.333333333333,4,2,1,40,0,0
186256,-133.333333333333,4,2,1,30,0,0
186774,-133.333333333333,4,2,1,20,0,0
187291,-133.333333333333,4,2,1,5,0,0

[Colours]
Combo1 : 255,128,0
Combo2 : 128,128,255
Combo3 : 192,192,192
Combo4 : 255,128,192
Combo5 : 255,255,128
SliderBorder : 0,0,0

[HitObjects]
128,200,2777,2,0,P|186:258|270:260,1,165.000006294251,0|0,0:0|0:0,0:0:0:0:
339,219,3766,1,2,0:0:0:0:
386,150,4096,2,0,L|429:75,2,82.5000031471254,0|0|2,0:0|0:0|0:0,0:0:0:0:
223,122,5414,6,0,P|148:92|58:116,1,165.000006294251,0|0,0:0|0:0,0:0:0:0:
33,184,6403,1,2,0:0:0:0:
51,264,6733,2,0,L|72:350,2,82.5000031471254,0|0|2,0:0|0:0|0:0,0:0:0:0:
143,126,8052,6,0,P|212:84|307:100,1,165.000006294251,0|2,0:0|0:0,0:0:0:0:
350,151,9041,1,0,0:0:0:0:
330,231,9370,2,0,P|261:273|166:257,1,165.000006294251,0|2,0:0|0:0,0:0:0:0:
120,207,10359,1,0,0:0:0:0:
92,129,10689,6,0,L|64:42,2,82.5000031471254,0|0|2,0:0|0:0|0:0,0:0:0:0:
253,165,12008,2,0,L|282:78,2,82.5000031471254,0|0|2,0:0|0:0|0:0,0:0:0:0:
221,241,12997,1,2,0:0:0:0:
269,307,13326,6,0,P|334:358|436:340,1,165.000006294251,0|2,0:0|0:0,0:0:0:0:
468,197,14645,1,0,0:0:0:0:
438,119,14975,1,0,0:0:0:0:
405,43,15304,1,2,0:0:0:0:
246,89,15964,6,0,P|170:111|88:86,1,165.000006294251,0|2,0:0|0:0,0:0:0:0:
36,150,16953,1,0,0:0:0:0:
82,218,17282,2,0,P|158:196|240:221,1,165.000006294251,0|2,0:0|0:0,0:0:0:0:
299,275,18271,1,0,0:0:0:0:
368,224,18601,6,0,P|400:168|400:104,2,123.750004720688,0|2|2,0:0|0:0|0:0,0:0:0:0:
299,274,19920,1,0,0:0:0:0:
216,256,20249,1,0,0:0:0:0:
184,184,20579,1,2,0:0:0:0:
184,16,21238,6,0,P|104:48|72:120,1,165.000006294251,0|2,0:0|0:0,0:0:0:0:
56,200,22227,1,2,0:0:0:0:
96,272,22557,2,0,L|181:314,1,82.5000031471254
253,293,23216,6,0,L|362:301,1,110,8|8,0:0|0:0,0:0:0:0:
457,244,23876,6,0,P|488:170|468:73,2,165,4|8|8,0:0|0:0|0:0,0:0:0:0:
362,301,25194,2,0,L|253:293,2,110,2|2|8,0:0|0:0|0:0,0:0:0:0:
407,86,26513,6,0,L|228:71,1,165,4|8,0:0|0:0,0:0:0:0:
115,177,27502,2,0,L|279:190,1,165,8|8,0:0|0:0,0:0:0:0:
443,205,28491,1,2,0:0:0:0:
407,309,28821,1,10,0:0:0:0:
302,343,29150,6,0,P|223:355|137:305,1,165,4|8,0:0|0:0,0:0:0:0:
97,161,30140,2,0,P|176:149|262:199,1,165,8|8,0:0|0:0,0:0:0:0:
349,317,31129,1,2,0:0:0:0:
349,317,31458,1,8,0:0:0:0:
438,252,31788,6,8,P|478:181|480:97,2,165,4|8|8,0:0|0:0|0:0,0:0:0:0:
304,344,33271,2,0,P|256:312|248:208,1,165,0|8,0:0|0:0,0:0:0:0:
344,248,34096,1,8,0:0:0:0:
344,248,34425,6,0,P|381:176|362:78,1,165,4|8,0:0|0:0,0:0:0:0:
224,16,35414,2,0,P|187:88|206:186,1,165,2|8,0:0|0:0,0:0:0:0:
344,200,36403,1,2,0:0:0:0:
344,200,36733,1,8,0:0:0:0:
312,299,37063,6,0,P|243:350|152:343,1,165,2|8,0:0|0:0,0:0:0:0:
46,235,38052,2,0,P|115:184|206:191,1,165,2|8,0:0|0:0,0:0:0:0:
348,235,39041,1,2,0:0:0:0:
348,235,39370,1,8,0:0:0:0:
395,135,39700,6,0,L|438:29,1,110,8|2,0:0|0:0,0:0:0:0:
499,123,40359,2,0,L|457:224,1,110,2|8,0:0|0:0,0:0:0:0:
381,304,41019,2,0,L|389:368,2,55,0|8|0,0:0|0:0|0:0,0:0:0:0:
272,288,41678,2,0,P|238:246|231:185,1,110,8|8,0:0|0:0,0:0:0:0:
144,128,42337,6,0,P|109:194|113:291,2,165,8|8|8,0:0|0:0|0:0,0:0:0:0:
296,200,43821,2,0,P|369:217|467:179,1,165,8|8,0:0|0:0,0:0:0:0:
496,88,44645,1,8,0:0:0:0:
496,88,44975,5,4,0:0:0:0:
472,304,45634,1,0,0:0:0:0:
259,353,46293,2,0,P|151:350|67:273,1,220,2|0,0:0|0:0,0:0:0:0:
53,170,47282,1,2,0:0:0:0:
142,106,47612,2,0,P|250:109|334:186,1,220,2|0,0:0|0:0,0:0:0:0:
161,320,48931,5,2,0:0:0:0:
161,320,49260,1,2,0:0:0:0:
93,232,49590,1,0,0:0:0:0:
93,232,49920,1,2,0:0:0:0:
131,129,50249,2,0,P|211:57|320:54,1,220,2|0,0:0|0:0,0:0:0:0:
484,198,51568,6,0,P|404:270|295:273,1,220,2|0,0:0|0:0,0:0:0:0:
199,220,52557,1,2,0:0:0:0:
101,167,52887,2,0,P|85:220|100:283,2,110,2|2|0,0:0|0:0|0:0,0:0:0:0:
315,118,54205,6,0,P|369:121|419:94,2,110,2|2|0,0:0|0:0|0:0,0:0:0:0:
208,90,55194,1,8,0:0:0:0:
124,161,55524,6,0,P|132:264|239:287,1,220,4|2,0:0|0:0,0:0:0:0:
315,221,56513,1,8,0:0:0:0:
376,128,56843,2,0,L|427:29,2,110,2|8|2,0:0|0:0|0:0,0:0:0:0:
315,221,57832,1,8,0:0:0:0:
263,318,58161,6,0,L|151:318,1,110,2|8,0:0|0:0,0:0:0:0:
100,221,58821,2,0,L|210:221,1,110,2|8,0:0|0:0,0:0:0:0:
316,221,59480,1,2,0:0:0:0:
382,133,59810,1,8,0:0:0:0:
316,44,60140,2,0,L|200:45,1,110,2|8,0:0|0:0,0:0:0:0:
102,60,60799,6,0,P|63:164|106:270,1,220,2|2,0:0|0:0,0:0:0:0:
189,327,61788,1,8,0:0:0:0:
288,280,62118,2,0,P|336:264|400:272,2,110,2|8|2,0:0|0:0|0:0,0:0:0:0:
189,327,63107,1,8,0:0:0:0:
125,237,63436,6,0,L|61:133,1,110,2|8,0:0|0:0,0:0:0:0:
136,56,64096,2,0,L|193:149,1,110,2|8,0:0|0:0,0:0:0:0:
256,240,64755,2,0,P|360:272|456:216,1,220,2|2,0:0|0:0,0:0:0:0:
480,112,65744,1,8,0:0:0:0:
386,53,66074,6,0,L|329:28,1,55,6|8,0:0|0:0,0:0:0:0:
257,108,66568,2,0,L|201:132,1,55,2|8,0:0|0:0,0:0:0:0:
115,66,67063,1,8,0:0:0:0:
41,147,67392,6,0,P|33:205|57:260,1,110,2|8,0:0|0:0,0:0:0:0:
127,331,68052,2,0,P|175:347|239:331,1,110,2|8,0:0|0:0,0:0:0:0:
288,240,68711,6,0,L|312:184,1,55,4|8,0:0|0:0,0:0:0:0:
304,80,69205,2,0,L|368:56,1,55,2|10,0:0|0:0,0:0:0:0:
464,88,69700,1,8,0:0:0:0:
472,200,70030,6,0,P|464:256|424:296,1,110,2|8,0:0|0:0,0:0:0:0:
320,264,70689,2,0,P|264:240|208:248,1,110,2|8,0:0|0:0,0:0:0:0:
112,208,71348,6,0,P|104:264|128:320,2,110,4|8|2,0:0|0:0|0:0,0:0:0:0:
160,112,72337,1,8,0:0:0:0:
264,80,72667,6,0,L|384:48,1,110,2|10,0:0|0:0,0:0:0:0:
448,128,73326,2,0,L|341:156,1,110,2|8,0:0|0:0,0:0:0:0:
240,192,73986,6,0,P|216:272|240:360,2,165,6|2|8,0:0|0:0|0:0,0:0:0:0:
320,264,75304,2,0,P|329:316|368:360,2,110,2|8|2,0:0|0:0|0:0,0:0:0:0:
391,180,76293,2,0,P|410:83|312:71,1,220,8|8,0:0|0:0,0:0:0:0:
105,123,77612,5,8,0:0:0:0:
82,230,77942,2,0,L|62:339,2,110,2|8|2,0:0|0:0|0:0,0:0:0:0:
105,123,78931,2,0,P|197:66|324:83,1,220,8|8,0:0|0:0,0:0:0:0:
409,267,80249,5,8,0:0:0:0:
448,164,80579,2,0,L|483:59,2,110,2|8|2,0:0|0:0|0:0,0:0:0:0:
409,267,81568,2,0,P|373:311|317:324,1,110,8|2,0:0|0:0,0:0:0:0:
222,279,82227,5,8,0:0:0:0:
222,279,82557,1,2,0:0:0:0:
132,343,82887,2,0,P|121:240|204:170,1,220,8|8,0:0|0:0,0:0:0:0:
222,278,83876,1,2,0:0:0:0:
319,328,84205,2,0,P|426:320|498:227,1,220,8|8,0:0|0:0,0:0:0:0:
329,93,85524,5,8,0:0:0:0:
228,138,85854,2,0,L|113:183,2,110,2|8|2,0:0|0:0|0:0,0:0:0:0:
324,190,86843,2,0,L|107:278,1,220,8|8,0:0|0:0,0:0:0:0:
37,199,87832,2,0,P|18:150|20:84,2,110,2|8|2,0:0|0:0|0:0,0:0:0:0:
121,272,88821,1,8,0:0:0:0:
121,272,89150,1,2,0:0:0:0:
221,228,89480,6,0,P|322:202|431:234,1,220,8|8,0:0|0:0,0:0:0:0:
492,142,90469,1,2,0:0:0:0:
429,51,90799,2,0,P|323:75|219:45,1,220,8|8,0:0|0:0,0:0:0:0:
110,68,91788,2,0,P|71:102|48:164,1,110,2|8,0:0|0:0,0:0:0:0:
250,244,92777,6,0,P|233:292|244:358,2,110,8|2|8,0:0|0:0|0:0,0:0:0:0:
439,132,94096,2,0,P|448:182|491:233,2,110,8|2|8,0:0|0:0|0:0,0:0:0:0:
356,59,95085,2,0,B|288:21|208:105|143:57,1,220,2|2,0:0|0:0,0:0:0:0:
52,120,96074,1,8,0:0:0:0:
51,228,96403,2,0,L|73:346,1,110,2|8,0:0|0:0,0:0:0:0:
166,283,97073,2,0,L|145:174,1,110,2|8,0:0|0:0,0:0:0:0:
144,59,97761,6,0,B|192:30|252:98|314:50,1,165,4|8,0:0|0:0,0:0:0:0:
457,116,98750,2,0,P|466:200|422:279,1,165,4|8,0:0|0:0,0:0:0:0:
272,318,99739,1,2,0:0:0:0:
272,318,100068,1,8,0:0:0:0:
185,250,100398,6,0,P|110:225|13:251,1,165,4|8,0:0|0:0,0:0:0:0:
110,99,101387,2,0,P|185:124|282:98,1,165,4|8,0:0|0:0,0:0:0:0:
421,48,102376,1,2,0:0:0:0:
421,48,102706,1,8,0:0:0:0:
444,155,103035,6,0,L|481:324,2,165,4|8|4,0:0|0:0|0:0,0:0:0:0:
336,120,104354,2,0,P|352:88|368:72,2,55,0|8|0,0:0|0:0|0:0,0:0:0:0:
256,192,105013,2,0,P|208:192|160:144,1,110,2|8,0:0|0:0,0:0:0:0:
243,91,105673,6,0,P|150:37|39:65,1,220,14|2,0:0|0:0,0:0:0:0:
64,168,106662,1,8,0:0:0:0:
87,276,106991,2,0,P|180:330|291:302,1,220,2|2,0:0|0:0,0:0:0:0:
334,208,107980,1,8,0:0:0:0:
408,127,108310,6,0,P|442:197|416:281,2,165,4|8|4,0:0|0:0|0:0,0:0:0:0:
212,227,109793,2,0,P|128:224|64:152,1,165,2|2,0:0|0:0,0:0:0:0:
69,60,110618,1,8,0:0:0:0:
179,43,110947,6,0,B|248:18|275:105|345:78,1,165,4|8,0:0|0:0,0:0:0:0:
453,194,111936,2,8,P|391:245|298:246,1,165,4|8,0:0|0:0,0:0:0:0:
186,138,112925,1,2,0:0:0:0:
186,138,113255,1,8,0:0:0:0:
100,207,113585,6,0,P|59:274|66:369,2,165,4|8|4,0:0|0:0|0:0,0:0:0:0:
264,191,115068,2,0,P|336:222|421:208,1,165,2|2,0:0|0:0,0:0:0:0:
452,106,115892,2,0,L|464:48,1,55,8|4,0:0|0:0,0:0:0:0:
256,192,116222,12,2,121497,0:0:0:0:
72,136,132046,5,2,0:0:0:0:
190,250,132706,1,8,0:0:0:0:
338,178,133365,2,0,P|378:166|429:176,2,82.5000031471254,2|2|8,0:0|0:0|0:0,0:0:0:0:
190,251,134684,6,0,P|150:263|99:253,2,82.5000031471254,2|2|8,0:0|0:0|0:0,0:0:0:0:
254,199,135673,1,2,0:0:0:0:
315,143,136002,2,0,P|332:179|329:234,2,82.5000031471254,2|2|8,0:0|0:0|0:0,0:0:0:0:
264,77,136991,1,2,0:0:0:0:
184,88,137321,6,0,B|136:88|120:128|104:168|48:168,1,165.000006294251,2|8,0:0|0:0,0:0:0:0:
133,309,138640,1,2,0:0:0:0:
214,324,138969,1,2,0:0:0:0:
287,287,139299,1,8,0:0:0:0:
305,206,139629,1,0,0:0:0:0:
316,124,139958,6,0,P|333:86|377:62,1,82.5000031471254,2|2,0:0|0:0,0:0:0:0:
402,138,140618,2,0,P|443:133|486:159,1,82.5000031471254,8|2,0:0|0:0,0:0:0:0:
431,219,141277,6,0,P|455:252|454:302,1,82.5000031471254,2|2,0:0|0:0,0:0:0:0:
365,353,141936,1,8,0:0:0:0:
285,277,142266,2,0,P|186:236|68:263,1,220,8|8,0:0|0:0,0:0:0:0:
161,53,143585,5,8,0:0:0:0:
257,106,143914,2,0,P|307:123|369:112,1,110,2|8,0:0|0:0,0:0:0:0:
463,69,144574,1,2,0:0:0:0:
487,176,144903,2,0,B|475:265|346:228|333:328,1,220,8|8,0:0|0:0,0:0:0:0:
226,339,145892,1,2,0:0:0:0:
226,339,146222,5,8,0:0:0:0:
122,300,146552,2,0,P|78:266|58:203,2,110,2|8|2,0:0|0:0|0:0,0:0:0:0:
226,339,147541,1,8,0:0:0:0:
430,258,148200,6,0,L|455:151,1,110,8|2,0:0|0:0,0:0:0:0:
378,70,148859,2,0,L|353:177,1,110,8|2,0:0|0:0,0:0:0:0:
327,284,149519,1,8,0:0:0:0:
224,242,149848,1,2,0:0:0:0:
150,323,150178,1,8,0:0:0:0:
79,238,150508,6,0,P|47:134|96:19,2,220,2|2|2,0:0|0:0|0:0,0:0:0:0:
150,322,152156,1,8,0:0:0:0:
258,340,152486,1,2,0:0:0:0:
362,305,152815,6,0,L|482:270,1,110,8|4,0:0|0:0,0:0:0:0:
456,164,153475,2,0,L|350:194,1,110,8|2,0:0|0:0,0:0:0:0:
253,141,154134,2,0,P|235:80|246:24,2,110,8|2|8,0:0|0:0|0:0,0:0:0:0:
311,234,155123,1,2,0:0:0:0:
238,316,155453,6,0,P|132:331|39:254,1,220,8|8,0:0|0:0,0:0:0:0:
20,159,156442,1,2,0:0:0:0:
96,79,156771,2,0,P|202:64|295:141,1,220,8|8,0:0|0:0,0:0:0:0:
311,235,157760,2,0,P|358:259|427:261,1,110,2|8,0:0|0:0,0:0:0:0:
434,43,158750,5,8,0:0:0:0:
334,90,159079,1,2,0:0:0:0:
236,140,159409,1,8,0:0:0:0:
37,43,160068,5,8,0:0:0:0:
133,98,160398,1,2,0:0:0:0:
236,140,160728,1,8,0:0:0:0:
384,296,161387,6,0,P|441:296|502:331,2,110,8|2|8,0:0|0:0|0:0,0:0:0:0:
280,336,162376,2,0,P|221:337|161:303,1,110,2|8,0:0|0:0,0:0:0:0:
112,224,163035,2,0,L|56:240,2,55,8|4|0,0:0|0:0|0:0,0:0:0:0:
184,136,163695,6,0,P|267:138|340:94,1,165.000006294251,4|8,0:0|0:0,0:0:0:0:
464,200,165013,2,0,P|381:198|308:242,1,165.000006294251,2|8,0:0|0:0,0:0:0:0:
240,280,166002,1,0,0:0:0:0:
168,320,166332,6,0,P|97:284|77:199,1,165.000006294251,4|8,0:0|0:0,0:0:0:0:
117,135,167321,1,0,0:0:0:0:
194,107,167651,1,2,0:0:0:0:
271,134,167980,1,0,0:0:0:0:
292,213,168310,1,8,0:0:0:0:
169,325,168969,6,0,P|98:289|78:204,1,165.000006294251,4|8,0:0|0:0,0:0:0:0:
102,132,169958,1,2,0:0:0:0:
183,121,170288,2,0,P|265:112|329:49,1,165.000006294251,2|8,0:0|0:0,0:0:0:0:
458,153,171607,6,0,P|376:162|312:225,1,165.000006294251,4|8,0:0|0:0,0:0:0:0:
260,275,172596,1,0,0:0:0:0:
179,255,172925,2,0,L|87:221,1,82.5000031471254,2|2,0:0|0:0,0:0:0:0:
103,143,173585,2,0,L|195:177,1,82.5000031471254,8|0,0:0|0:0,0:0:0:0:
257,201,174244,6,0,P|336:218|408:177,1,165.000006294251,4|8,0:0|0:0,0:0:0:0:
306,47,175563,2,0,L|322:139,1,82.5000031471254,2|2,0:0|0:0,0:0:0:0:
336,209,176222,1,8,0:0:0:0:
293,280,176552,6,0,P|222:316|138:300,1,165.000006294251,2|2,0:0|0:0,0:0:0:0:
88,237,177541,1,8,0:0:0:0:
144,82,178200,1,2,0:0:0:0:
220,49,178530,1,2,0:0:0:0:
270,114,178859,1,8,0:0:0:0:
287,194,179189,6,0,L|309:291,1,82.5000031471254,2|4,0:0|0:0,0:0:0:0:
238,323,179848,2,0,L|219:242,1,82.5000031471254,0|8,0:0|0:0,0:0:0:0:
156,189,180508,2,0,P|114:181|63:196,2,82.5000031471254,0|2|2,0:0|0:0|0:0,0:0:0:0:
219,242,181497,1,8,0:0:0:0:
360,168,182156,1,4,0:0:0:0:
256,192,183202,12,4,187291,0:0:0:0:
