osu file format v12

[General]
AudioFilename: Rock, Scissors, Paper.mp3
AudioLeadIn: 2000
PreviewTime: 89722
Countdown: 0
SampleSet: Normal
StackLeniency: 0.7
Mode: 0
LetterboxInBreaks: 0
WidescreenStoryboard: 0

[Editor]
Bookmarks: 10429,30014,40273
DistanceSpacing: 0.8
BeatDivisor: 4
GridSize: 4

[Metadata]
Title:Rock, Scissors, Paper
TitleUnicode:Rock, Scissors, Paper
Artist:ONE OK ROCK
ArtistUnicode:ONE OK ROCK
Creator:Haya
Version:Normal
Source:
Tags:nicovideo mad amv Tenshichan Bomber34 LunarSakuya Sakuya Bomber
BeatmapID:241185
BeatmapSetID:82282

[Difficulty]
HPDrainRate:4
CircleSize:3
OverallDifficulty:4
ApproachRate:5
SliderMultiplier:1.1
SliderTickRate:1

[Events]
//Background and Video events
0,0,"Ragnarok Online - SinX.jpg",0,0
Video,0,"ONE OK ROCK - Rock Scissors Paper [MAD].avi"
//Break Periods
2,20592,28829
2,52923,58985
2,110202,116263
//Storyboard Layer 0 (Background)
//Storyboard Layer 1 (Fail)
//Storyboard Layer 2 (Pass)
//Storyboard Layer 3 (Foreground)
//Storyboard Sound Samples
//Background Colour Transformations
3,100,255,255,255

[TimingPoints]
496,310.880829015544,4,2,1,40,1,0
10444,-100,4,1,1,60,0,0
30340,-100,4,1,1,50,0,0
30651,-100,4,2,1,50,0,0
40133,-100,4,1,1,60,0,0
62905,-100,4,1,2,45,0,0
63060,-100,4,1,1,60,0,0
64770,-100,4,1,2,45,0,0
64908,-100,4,1,1,60,0,0
65392,-100,4,1,2,45,0,0
65547,-100,4,1,1,60,0,0
80081,314.13612565445,4,1,1,60,1,0
88876,307.692307692308,4,1,1,60,1,0
90106,310.880829015544,4,1,1,85,1,1
90106,-100,4,1,1,85,0,1
99665,-100,4,1,2,70,0,1
99821,-100,4,1,1,85,0,1
99976,-100,4,1,1,85,0,0
100054,-100,4,1,1,85,0,1
105883,-100,4,1,2,70,0,1
106038,-100,4,1,1,85,0,1
110002,-100,4,1,1,55,0,0
119328,346.820809248555,4,1,1,55,1,0
119674,225.563909774436,4,1,1,55,1,0
119899,257.510729613734,4,1,1,55,1,0
120152,221.40221402214,4,1,1,55,1,0
120594,319.148936170213,4,1,1,55,1,0
120913,310.880829015544,4,1,1,55,1,0
120913,-100,4,1,1,85,0,1
130783,-100,4,1,1,85,0,0
130861,-100,4,1,1,85,0,1
136690,-100,4,1,2,70,0,1
136845,-100,4,1,1,85,0,1
140809,-100,4,1,1,85,0,0
153400,-100,4,1,0,25,0,0
153555,-100,4,1,1,55,0,0

[Colours]
Combo1 : 216,216,216
Combo2 : 130,130,255
Combo3 : 170,85,255

[HitObjects]
224,260,496,2,0,P|145:287|77:344,2,165
312,252,1739,1,0,0:0:0:0:
336,168,2050,1,0,0:0:0:0:
336,168,2361,2,0,P|311:120|300:60,1,110
211,65,2983,6,0,P|202:119|124:200,1,165,2|0,0:0|0:0,0:0:0:0:
96,280,3760,1,0,0:0:0:0:
96,280,3915,2,0,P|128:332|182:352,1,110
248,304,4537,1,0,0:0:0:0:
322,253,4848,2,0,P|375:234|396:178,1,110
312,164,5470,6,0,P|380:101|460:132,2,165
259,238,6713,1,2,0:0:0:0:
208,310,7024,1,0,0:0:0:0:
135,259,7335,1,0,0:0:0:0:
186,186,7646,1,0,0:0:0:0:
259,238,7957,2,0,P|352:248|402:193,2,165
256,144,9200,1,2,0:0:0:0:
256,144,9511,6,0,L|256:16,2,110,2|2|2,0:0|0:0|0:0,0:0:0:0:
320,208,10444,6,0,B|355:164|342:117|342:117|410:76,2,165,12|8|8,0:0|0:0|0:0,0:0:0:0:
192,208,11843,2,0,B|157:164|170:117|170:117|102:76,1,165,8|8,0:0|0:0,0:0:0:0:
40,136,12620,1,0,0:0:0:0:
73,217,12931,6,0,P|118:285|193:327,1,165,8|8,0:0|0:0,0:0:0:0:
322,325,13863,2,0,P|394:285|439:217,2,165,8|8|8,0:0|0:0|0:0,0:0:0:0:
256,264,15107,1,0,0:0:0:0:
336,228,15418,6,0,B|360:172|360:172|317:144|323:80,1,165,8|8,0:0|0:0,0:0:0:0:
189,80,16350,2,0,B|195:144|152:172|152:172|176:228,2,165,8|8|8,0:0|0:0|0:0,0:0:0:0:
104,100,17594,1,0,0:0:0:0:
56,172,17905,2,0,L|120:331,2,165,8|8|8,0:0|0:0|0:0,0:0:0:0:
104,100,19148,6,0,P|154:99|232:128,1,110
300,115,19770,2,0,P|358:99|408:100,1,110,8|0,0:0|0:0,0:0:0:0:
480,152,20392,1,4,0:0:0:0:
256,104,30029,5,0,0:0:0:0:
328,152,30340,2,0,P|378:188|394:241,1,110,4|0,0:0|0:0,0:0:0:0:
368,320,30962,2,0,P|318:284|302:231,1,110
209,240,31584,2,0,P|194:284|144:320,1,110
120,232,32205,2,0,P|74:240|17:215,1,110
80,152,32827,6,0,P|41:125|19:67,1,110
112,64,33449,1,0,0:0:0:0:
192,96,33760,1,0,0:0:0:0:
256,160,34071,1,0,0:0:0:0:
320,96,34382,1,0,0:0:0:0:
400,64,34692,1,0,0:0:0:0:
448,136,35003,2,0,P|416:196|427:243,1,110
488,296,35625,6,0,P|430:324|377:309,1,110
304,280,36247,1,0,0:0:0:0:
256,208,36558,1,0,0:0:0:0:
208,280,36869,1,0,0:0:0:0:
124,315,37179,2,0,P|66:321|25:280,1,110
56,252,37646,1,0,0:0:0:0:
95,232,37801,6,0,P|135:200|160:148,2,110
64,144,38734,2,0,P|88:91|128:59,1,110
159,148,39356,2,0,B|195:151|257:198|257:198|308:153|371:145,1,220
396,140,40133,2,0,P|435:143|460:172,1,55,8|4,0:0|0:0,0:0:0:0:
397,224,40599,6,0,P|346:237|286:289,1,110
211,270,41221,2,0,P|165:236|114:223,1,110
152,144,41843,1,0,0:0:0:0:
152,144,42154,1,0,0:0:0:0:
204,76,42464,6,0,P|253:59|313:82,2,110
256,148,43397,1,0,0:0:0:0:
256,236,43708,1,0,0:0:0:0:
306,307,44019,6,0,P|253:325|204:308,2,110
392,320,44951,2,0,P|427:274|472:239,1,110
464,152,45573,1,0,0:0:0:0:
464,152,45884,6,0,P|357:176|247:150,1,220
200,80,46817,1,0,0:0:0:0:
114,105,47128,1,0,0:0:0:0:
114,194,47439,1,0,0:0:0:0:
198,225,47749,6,0,P|204:277|245:322,1,110
288,244,48371,2,0,P|340:238|385:196,1,110
304,156,48993,2,0,P|298:104|256:58,1,110
219,139,49615,2,8,L|146:167,2,55
256,192,50236,12,4,52723,0:0:0:0:
160,152,60185,5,0,0:0:0:0:
212,80,60495,1,8,0:0:0:0:
300,80,60806,1,0,0:0:0:0:
352,152,61117,1,8,0:0:0:0:
344,240,61428,6,0,P|286:268|248:314,1,110,0|8,0:0|0:0,0:0:0:0:
256,301,62050,2,0,P|217:261|167:239,1,110,0|8,0:0|0:0,0:0:0:0:
160,328,62672,6,0,P|73:263|56:136,1,220
104,88,63604,1,8,0:0:0:0:
176,40,63915,1,0,0:0:0:0:
264,40,64226,1,8,0:0:0:0:
352,56,64537,2,0,P|439:121|456:248,2,220
304,128,66091,1,8,0:0:0:0:
304,128,66402,6,0,P|268:184|253:241,1,110,0|8,0:0|0:0,0:0:0:0:
276,312,67024,2,0,P|234:319|167:316,1,110,0|8,0:0|0:0,0:0:0:0:
168,228,67646,1,0,0:0:0:0:
188,140,67957,1,8,0:0:0:0:
268,104,68268,1,0,0:0:0:0:
332,164,68578,1,8,0:0:0:0:
324,252,68889,5,0,0:0:0:0:
239,284,69200,2,0,P|130:306|80:216,1,220,8|8,0:0|0:0,0:0:0:0:
168,228,70133,2,0,P|193:184|213:121,1,110,0|8,0:0|0:0,0:0:0:0:
300,127,70755,2,0,P|317:180|344:228,1,110,0|8,0:0|0:0,0:0:0:0:
408,168,71376,5,0,0:0:0:0:
472,228,71687,1,8,0:0:0:0:
408,288,71998,2,0,P|345:309|294:339,1,110,0|8,0:0|0:0,0:0:0:0:
256,252,72620,1,0,0:0:0:0:
207,327,72931,2,0,P|170:306|107:285,1,110,0|8,0:0|0:0,0:0:0:0:
144,208,73552,5,8,0:0:0:0:
208,152,73863,1,0,0:0:0:0:
256,80,74174,1,8,0:0:0:0:
304,152,74485,1,0,0:0:0:0:
368,208,74796,2,0,P|352:292|458:353,1,220,8|8,0:0|0:0,0:0:0:0:
440,264,75729,2,0,P|464:224|448:160,1,110,0|8,0:0|0:0,0:0:0:0:
403,90,76350,6,0,P|355:114|299:106,1,110,0|8,0:0|0:0,0:0:0:0:
211,106,76972,2,0,P|157:114|109:90,1,110,0|8,0:0|0:0,0:0:0:0:
56,160,77594,2,0,P|99:193|116:244,1,110,0|8,0:0|0:0,0:0:0:0:
176,312,78216,1,0,0:0:0:0:
256,352,78527,1,8,0:0:0:0:
336,312,78837,6,0,P|392:288|416:224,1,110,0|8,0:0|0:0,0:0:0:0:
488,196,79459,2,0,P|439:159|371:170,1,110,0|0,0:0|0:0,0:0:0:0:
312,120,80081,6,0,P|304:180|337:228,2,110,4|0|8,0:0|0:0|0:0,0:0:0:0:
224,96,81023,1,0,0:0:0:0:
216,184,81337,6,0,P|152:265|224:344,1,220,8|8,0:0|0:0,0:0:0:0:
256,264,82279,1,0,0:0:0:0:
296,184,82594,2,0,P|360:265|288:344,1,220,8|8,0:0|0:0,0:0:0:0:
256,264,83536,1,0,0:0:0:0:
184,208,83850,6,0,P|137:172|122:113,1,110,8|0,0:0|0:0,0:0:0:0:
202,92,84478,2,0,P|256:80|315:93,1,110,8|0,0:0|0:0,0:0:0:0:
390,125,85107,2,0,P|375:172|328:208,1,110,12|0,0:0|0:0,0:0:0:0:
256,256,85735,2,0,L|256:368,1,110,8|0,0:0|0:0,0:0:0:0:
168,352,86363,6,0,L|168:232,1,110,8|0,0:0|0:0,0:0:0:0:
96,192,86991,1,8,0:0:0:0:
168,142,87306,2,0,L|168:32,1,110,0|8,0:0|0:0,0:0:0:0:
256,18,87934,2,0,L|256:128,1,110,8|0,0:0|0:0,0:0:0:0:
320,192,88562,5,0,0:0:0:0:
257,254,88876,1,0,0:0:0:0:
194,191,89183,1,0,0:0:0:0:
256,128,89491,1,0,0:0:0:0:
256,40,89799,1,0,0:0:0:0:
328,88,90106,6,0,L|438:134,1,110,4|8,0:0|0:0,0:0:0:0:
402,211,90727,2,0,L|291:164,1,110,0|8,0:0|0:0,0:0:0:0:
268,248,91349,2,0,L|378:294,2,110,0|8|8,0:0|0:0|0:0,0:0:0:0:
184,224,92282,1,8,0:0:0:0:
112,176,92593,6,0,P|113:123|142:68,1,110,0|8,0:0|0:0,0:0:0:0:
200,136,93214,2,0,P|256:144|308:137,1,110,0|8,0:0|0:0,0:0:0:0:
374,72,93836,2,0,P|399:123|400:176,1,110,0|8,0:0|0:0,0:0:0:0:
327,226,94458,1,8,0:0:0:0:
327,226,94769,6,0,P|299:279|256:300,1,110,8|0,0:0|0:0,0:0:0:0:
256,300,95390,2,0,P|212:279|184:226,1,110,8|0,0:0|0:0,0:0:0:0:
104,256,96012,2,0,P|76:203|32:182,1,110,8|0,0:0|0:0,0:0:0:0:
32,96,96634,1,8,0:0:0:0:
112,128,96945,1,8,0:0:0:0:
192,96,97256,6,0,L|212:218,1,110,8|0,0:0|0:0,0:0:0:0:
302,204,97878,2,0,L|320:96,1,110,8|0,0:0|0:0,0:0:0:0:
408,76,98499,2,0,B|389:186|389:186|450:213|435:298,1,220,8|8,0:0|0:0,0:0:0:0:
352,264,99432,2,0,P|257:310|152:256,1,220,8|4,0:0|0:0,0:0:0:0:
208,192,100365,5,8,0:0:0:0:
184,104,100675,1,0,0:0:0:0:
256,48,100986,1,8,0:0:0:0:
328,104,101297,1,0,0:0:0:0:
304,192,101608,1,8,0:0:0:0:
208,192,101919,1,8,0:0:0:0:
184,104,102230,6,0,P|144:112|80:152,1,110,8|0,0:0|0:0,0:0:0:0:
124,228,102852,2,0,P|63:234|15:207,2,110,8|0|8,0:0|0:0|0:0,0:0:0:0:
196,280,103784,1,0,0:0:0:0:
256,344,104095,1,8,0:0:0:0:
316,280,104406,1,8,0:0:0:0:
388,228,104717,2,0,P|449:234|497:207,1,110,8|4,0:0|0:0,0:0:0:0:
360,96,105650,6,0,B|302:112|302:112|256:77|208:113|208:113|138:93,1,220,0|0,0:0|0:0,0:0:0:0:
96,168,106582,2,0,L|208:200,1,110,8|8,0:0|0:0,0:0:0:0:
256,272,107204,1,8,0:0:0:0:
310,198,107515,2,0,L|416:168,1,110,0|8,0:0|0:0,0:0:0:0:
448,248,108137,2,0,L|342:278,1,110,0|8,0:0|0:0,0:0:0:0:
256,272,108758,5,8,0:0:0:0:
184,216,109069,1,8,0:0:0:0:
212,132,109380,1,8,0:0:0:0:
300,132,109691,1,8,0:0:0:0:
328,216,110002,1,4,0:0:0:0:
96,320,117463,6,0,P|173:307|210:221,2,165,8|8|8,0:0|0:0|0:0,0:0:0:0:
120,232,118707,2,0,P|140:172|178:145,1,110
256,104,119328,1,8,0:0:0:0:
335,145,119674,2,0,P|372:172|392:232,1,110
272,360,120594,5,0,0:0:0:0:
207,299,120913,2,0,P|167:267|159:211,1,110,4|8,0:0|0:0,0:0:0:0:
112,136,121534,2,0,P|159:117|212:138,1,110,0|8,0:0|0:0,0:0:0:0:
299,135,122156,2,0,P|291:185|240:221,1,110,0|8,0:0|0:0,0:0:0:0:
213,137,122778,2,0,P|220:86|265:51,1,110,8|8,0:0|0:0,0:0:0:0:
352,64,123400,5,0,0:0:0:0:
424,112,123710,1,8,0:0:0:0:
384,192,124021,2,0,L|272:192,2,110,0|8|0,0:0|0:0|0:0,0:0:0:0:
424,272,124954,1,8,0:0:0:0:
352,320,125265,1,8,0:0:0:0:
280,272,125576,6,0,P|216:240|160:232,1,110,8|0,0:0|0:0,0:0:0:0:
104,192,126197,1,8,0:0:0:0:
178,151,126508,2,0,P|216:144|280:112,1,110,0|8,0:0|0:0,0:0:0:0:
296,24,127130,2,0,P|258:31|194:63,2,110,0|8|8,0:0|0:0|0:0,0:0:0:0:
358,86,128063,6,0,P|329:138|327:203,1,110,8|0,0:0|0:0,0:0:0:0:
363,266,128685,1,8,0:0:0:0:
300,328,128995,1,0,0:0:0:0:
211,328,129306,1,8,0:0:0:0:
149,266,129617,1,8,0:0:0:0:
187,187,129928,2,0,P|183:138|154:86,1,110,8|0,0:0|0:0,0:0:0:0:
64,64,130550,2,0,P|68:113|97:165,1,110,8|4,0:0|0:0,0:0:0:0:
188,187,131172,6,0,P|257:258|324:184,1,220,8|8,0:0|0:0,0:0:0:0:
344,104,132104,2,0,P|397:133|412:179,1,110,0|8,0:0|0:0,0:0:0:0:
392,264,132726,2,0,B|291:331,1,110,8|8,0:0|0:0,0:0:0:0:
211,324,133348,6,0,B|120:264,1,110,0|8,0:0|0:0,0:0:0:0:
96,176,133969,2,0,P|149:147|163:102,1,110,0|8,0:0|0:0,0:0:0:0:
216,32,134591,2,0,P|251:72|251:139,1,110,0|8,0:0|0:0,0:0:0:0:
320,192,135213,1,8,0:0:0:0:
256,256,135524,1,8,0:0:0:0:
192,192,135835,1,4,0:0:0:0:
112,152,136146,5,8,0:0:0:0:
187,107,136457,2,0,P|256:36|323:110,1,220
356,191,137389,2,0,P|286:187|256:164,1,110,8|8,0:0|0:0,0:0:0:0:
256,164,138011,2,0,P|225:187|155:191,1,110,8|8,0:0|0:0,0:0:0:0:
120,264,138633,1,8,0:0:0:0:
203,293,138944,2,0,P|257:279|319:301,1,110,0|8,0:0|0:0,0:0:0:0:
392,264,139565,5,8,0:0:0:0:
320,208,139876,1,8,0:0:0:0:
256,144,140187,1,8,0:0:0:0:
192,208,140498,1,8,0:0:0:0:
120,264,140809,1,4,0:0:0:0:
240,320,141275,6,0,P|327:307|392:244,1,165,8|8,0:0|0:0,0:0:0:0:
383,125,142208,2,0,P|327:77|240:64,1,165,8|8,0:0|0:0,0:0:0:0:
152,88,142985,1,0,0:0:0:0:
202,160,143296,6,0,B|226:216|226:216|184:246|195:311,1,165,12|8,0:0|0:0,0:0:0:0:
320,344,144229,6,0,B|296:288|296:288|338:258|327:193,1,165,12|8,0:0|0:0,0:0:0:0:
272,76,145161,6,0,P|154:63|93:148,1,220,0|12,0:0|0:0,0:0:0:0:
128,264,146249,2,0,B|178:363|278:345,1,165,8|8,0:0|0:0,0:0:0:0:
384,304,147182,2,0,B|333:204|233:222,1,165,8|8,0:0|0:0,0:0:0:0:
168,200,147959,1,0,0:0:0:0:
184,112,148270,6,0,P|266:139|352:136,1,165,12|8,0:0|0:0,0:0:0:0:
328,272,149203,2,0,P|246:245|168:246,1,165,8|8,0:0|0:0,0:0:0:0:
48,296,150135,2,0,P|88:344|152:360,1,110,8|0,0:0|0:0,0:0:0:0:
256,192,150757,12,8,153477,0:0:0:0:
