osu file format v12

[General]
AudioFilename: Rock, Scissors, Paper.mp3
AudioLeadIn: 2000
PreviewTime: 89722
Countdown: 0
SampleSet: Normal
StackLeniency: 0.7
Mode: 0
LetterboxInBreaks: 0
WidescreenStoryboard: 0

[Editor]
Bookmarks: 10429,30014,40273
DistanceSpacing: 1.2
BeatDivisor: 4
GridSize: 4

[Metadata]
Title:Rock, Scissors, Paper
TitleUnicode:Rock, Scissors, Paper
Artist:ONE OK ROCK
ArtistUnicode:ONE OK ROCK
Creator:Haya
Version:Insane
Source:
Tags:nicovideo mad amv Tenshichan Bomber34 LunarSakuya Sakuya Bomber
BeatmapID:229493
BeatmapSetID:82282

[Difficulty]
HPDrainRate:7
CircleSize:4
OverallDifficulty:7
ApproachRate:9
SliderMultiplier:1.8
SliderTickRate:1

[Events]
//Background and Video events
0,0,"Ragnarok Online - SinX.jpg",0,0
Video,0,"ONE OK ROCK - Rock Scissors Paper [MAD].avi"
//Break Periods
2,20592,27253
2,52923,59585
2,110202,114376
//Storyboard Layer 0 (Background)
//Storyboard Layer 1 (Fail)
//Storyboard Layer 2 (Pass)
//Storyboard Layer 3 (Foreground)
//Storyboard Sound Samples
//Background Colour Transformations
3,100,0,0,0

[TimingPoints]
496,310.880829015544,4,2,1,40,1,0
496,-133.333333333333,4,2,1,40,0,0
10444,-100,4,1,1,60,0,0
30340,-100,4,1,1,50,0,0
30651,-200,4,2,1,50,0,0
40133,-100,4,1,1,60,0,0
60185,-133.333333333333,4,1,1,60,0,0
80081,314.13612565445,4,1,1,60,1,0
88876,307.692307692308,4,1,1,60,1,0
89799,-100,4,1,1,60,0,0
90106,310.880829015544,4,1,1,85,1,1
99976,-100,4,1,1,85,0,0
100054,-100,4,1,1,85,0,1
110002,-100,4,1,1,85,0,0
117463,-100,4,1,1,55,0,0
119328,346.820809248555,4,1,1,55,1,0
119674,225.563909774436,4,1,1,55,1,0
119899,257.510729613734,4,1,1,55,1,0
120152,221.40221402214,4,1,1,55,1,0
120594,319.148936170213,4,1,1,55,1,0
120913,310.880829015544,4,1,1,55,1,0
120913,-100,4,1,1,85,0,1
130783,-100,4,1,1,85,0,0
130861,-100,4,1,1,85,0,1
140809,-100,4,1,1,85,0,0
153382,-100,4,1,0,25,0,0
153537,-100,4,1,1,55,0,0

[Colours]
Combo1 : 216,216,216
Combo2 : 130,130,255
Combo3 : 170,85,255

[HitObjects]
336,200,496,2,0,L|320:120,1,67.5000025749208,2|2,0:0|0:0,0:0:0:0:
236,112,806,1,0,0:0:0:0:
176,184,962,2,0,L|192:264,1,67.5000025749208,2|0,0:0|0:0,0:0:0:0:
292,296,1273,1,2,0:0:0:0:
292,296,1428,6,0,P|351:291|398:216,1,135.000005149842,2|0,0:0|0:0,0:0:0:0:
147,171,1894,2,0,P|122:224|164:302,1,135.000005149842,2|0,0:0|0:0,0:0:0:0:
328,108,2361,2,0,P|294:60|205:57,1,135.000005149842,2|0,0:0|0:0,0:0:0:0:
148,76,2827,6,0,P|109:98|87:133,2,67.5000025749208
148,308,3293,2,0,P|109:286|87:251,1,67.5000025749208,0|2,0:0|0:0,0:0:0:0:
184,192,3604,1,0,0:0:0:0:
228,320,3760,1,0,0:0:0:0:
300,280,3915,6,0,L|300:140,1,135.000005149842,2|0,0:0|0:0,0:0:0:0:
212,104,4382,2,0,L|212:244,1,135.000005149842,2|0,0:0|0:0,0:0:0:0:
318,296,4848,1,2,0:0:0:0:
360,129,5003,1,2,0:0:0:0:
193,87,5159,1,2,0:0:0:0:
151,254,5314,1,2,0:0:0:0:
318,296,5470,6,0,P|318:244|307:229,1,67.5000025749208,2|2,0:0|0:0,0:0:0:0:
134,193,5780,2,0,P|179:219|198:217,1,67.5000025749208,0|2,0:0|0:0,0:0:0:0:
315,86,6091,2,0,P|270:112|262:129,1,67.5000025749208,2|0,0:0|0:0,0:0:0:0:
317,292,6402,2,0,P|336:224|336:160,1,135.000005149842,2|0,0:0|0:0,0:0:0:0:
256,236,6869,1,2,0:0:0:0:
194,292,7024,2,0,P|176:224|176:160,1,135.000005149842,2|2,0:0|0:0,0:0:0:0:
256,236,7490,1,0,0:0:0:0:
332,192,7646,6,0,P|410:201|448:264,1,135.000005149842,0|2,0:0|0:0,0:0:0:0:
436,344,8112,1,2,0:0:0:0:
364,268,8268,1,2,0:0:0:0:
260,264,8423,2,0,L|138:323,1,135.000005149842,2|0,0:0|0:0,0:0:0:0:
48,252,8889,2,0,L|170:193,1,135.000005149842,2|2,0:0|0:0,0:0:0:0:
208,116,9356,5,2,0:0:0:0:
256,52,9511,1,2,0:0:0:0:
304,116,9666,2,0,P|339:146|356:181,1,67.5000025749208,0|2,0:0|0:0,0:0:0:0:
208,268,9977,2,0,P|173:238|156:203,1,67.5000025749208,0|2,0:0|0:0,0:0:0:0:
256,192,10288,1,0,0:0:0:0:
364,192,10444,6,0,P|339:287|252:319,1,180,12|0,0:0|0:0,0:0:0:0:
113,233,10910,2,0,P|185:259|270:210,1,180,8|0,0:0|0:0,0:0:0:0:
190,157,11376,2,0,P|95:132|63:45,1,180,8|0,0:0|0:0,0:0:0:0:
172,56,11843,5,8,0:0:0:0:
256,120,11998,1,0,0:0:0:0:
340,56,12154,1,0,0:0:0:0:
376,156,12309,2,0,P|341:197|300:216,1,90,8|0,0:0|0:0,0:0:0:0:
136,156,12620,2,0,P|171:197|202:213,1,90,8|0,0:0|0:0,0:0:0:0:
385,288,12931,6,0,P|372:203|287:172,1,180,8|0,0:0|0:0,0:0:0:0:
108,255,13397,2,0,P|188:286|257:228,1,180,8|0,0:0|0:0,0:0:0:0:
274,32,13863,2,0,P|207:86|223:175,1,180,8|0,0:0|0:0,0:0:0:0:
256,288,14330,5,8,0:0:0:0:
351,229,14485,1,0,0:0:0:0:
351,120,14641,1,0,0:0:0:0:
256,68,14796,1,8,0:0:0:0:
161,120,14951,1,0,0:0:0:0:
161,228,15107,1,8,0:0:0:0:
256,288,15262,1,0,0:0:0:0:
256,288,15418,6,0,P|187:327|79:310,1,180,8|0,0:0|0:0,0:0:0:0:
24,232,15884,2,0,L|44:136,1,90,8|0,0:0|0:0,0:0:0:0:
156,80,16195,2,0,L|136:176,1,90,0|8,0:0|0:0,0:0:0:0:
216,244,16506,1,0,0:0:0:0:
296,140,16661,1,0,0:0:0:0:
380,72,16817,6,0,P|411:117|396:176,1,90,8|0,0:0|0:0,0:0:0:0:
380,312,17128,2,0,P|411:267|396:208,1,90,0|8,0:0|0:0,0:0:0:0:
304,252,17439,2,0,P|273:297|288:356,2,90,0|8|0,0:0|0:0|0:0,0:0:0:0:
208,132,17905,6,0,P|160:64|56:75,1,180,8|0,0:0|0:0,0:0:0:0:
100,168,18371,2,0,P|148:236|252:225,1,180,8|0,0:0|0:0,0:0:0:0:
292,144,18837,1,8,0:0:0:0:
340,272,18993,1,0,0:0:0:0:
220,336,19148,6,0,P|168:344|124:336,1,90,0|8,0:0|0:0,0:0:0:0:
172,244,19459,2,0,P|135:205|116:165,1,90,0|8,0:0|0:0,0:0:0:0:
120,136,19692,1,8,0:0:0:0:
132,100,19770,2,0,P|163:68|203:47,1,90,8|0,0:0|0:0,0:0:0:0:
363,91,20081,2,0,P|331:123|292:144,1,90,8|0,0:0|0:0,0:0:0:0:
172,244,20392,1,4,0:0:0:0:
256,192,27853,12,0,29718,0:0:0:0:
21,192,30029,5,0,0:0:0:0:
48,192,30185,1,0,0:0:0:0:
74,192,30340,1,4,0:0:0:0:
208,192,30651,6,0,L|308:192,1,90
436,184,31273,2,0,P|413:125|373:109,1,90,0|2,0:0|0:0,0:0:0:0:
344,188,31739,1,0,0:0:0:0:
256,232,31894,1,0,0:0:0:0:
168,188,32050,1,0,0:0:0:0:
76,184,32205,2,0,P|99:125|139:109,1,90
192,196,32672,1,0,0:0:0:0:
192,196,32827,6,0,P|169:255|129:271,2,90,2|0|0,0:0|0:0|0:0,0:0:0:0:
216,120,33604,1,0,0:0:0:0:
256,48,33760,1,0,0:0:0:0:
296,120,33915,1,0,0:0:0:0:
320,196,34071,2,0,P|343:255|363:266,2,90,2|0|0,0:0|0:0|0:0,0:0:0:0:
256,104,34848,1,0,0:0:0:0:
152,88,35003,5,0,0:0:0:0:
152,296,35314,1,2,0:0:0:0:
360,296,35625,1,0,0:0:0:0:
360,88,35936,1,0,0:0:0:0:
120,192,36247,2,0,L|173:215,1,45
256,328,36558,2,0,L|279:275,1,45,2|0,0:0|0:0,0:0:0:0:
392,192,36869,2,0,L|339:169,1,45
256,56,37179,2,0,L|233:109,1,45
188,192,37490,5,0,0:0:0:0:
216,272,37646,1,0,0:0:0:0:
296,272,37801,1,2,0:0:0:0:
324,192,37957,1,0,0:0:0:0:
256,140,38112,1,0,0:0:0:0:
256,140,38423,1,0,0:0:0:0:
256,140,38734,1,0,0:0:0:0:
176,104,38889,6,0,P|159:82|136:64,2,45
176,280,39356,2,0,P|159:302|136:320,2,45
256,232,39822,1,0,0:0:0:0:
336,280,39977,1,0,0:0:0:0:
176,280,40133,5,0,0:0:0:0:
336,280,40288,1,4,0:0:0:0:
472,112,40599,6,0,P|396:128|296:84,1,180
40,112,41221,2,0,P|116:128|216:84,1,180
172,304,41843,1,0,0:0:0:0:
258,52,42154,1,0,0:0:0:0:
336,306,42464,1,0,0:0:0:0:
122,150,42775,1,0,0:0:0:0:
389,150,43086,1,0,0:0:0:0:
172,304,43397,6,0,P|79:284|74:204,1,180
184,192,43863,1,0,0:0:0:0:
256,100,44019,1,0,0:0:0:0:
328,192,44174,1,0,0:0:0:0:
441,211,44330,2,0,P|433:284|340:304,1,180
232,264,44796,1,0,0:0:0:0:
172,168,44951,2,0,P|256:138|347:177,1,180
337,168,45573,1,0,0:0:0:0:
337,168,45884,6,0,P|347:243|300:346,1,180
232,260,46350,1,0,0:0:0:0:
248,152,46506,2,0,P|266:108|315:80,2,90
232,260,46972,2,0,L|144:323,1,90
80,208,47283,2,0,L|6:260,2,90
128,108,47749,5,0,0:0:0:0:
256,68,47905,1,0,0:0:0:0:
384,108,48060,2,0,P|341:182|224:192,1,180
149,171,48527,1,0,0:0:0:0:
149,171,48682,2,0,P|164:137|204:104,1,90
272,32,48993,6,0,P|308:76|304:112,1,90,8|0,0:0|0:0,0:0:0:0:
413,157,49304,2,0,P|382:205|346:212,1,90,8|0,0:0|0:0,0:0:0:0:
337,330,49615,2,0,P|282:316|264:284,1,90,8|0,0:0|0:0,0:0:0:0:
149,312,49926,2,0,P|145:255|170:228,1,90,8|0,0:0|0:0,0:0:0:0:
108,127,50236,1,4,0:0:0:0:
256,192,50392,12,4,52723,0:0:0:0:
220,316,60185,6,0,P|260:292|328:196,1,135.000005149842,0|8,0:0|0:0,0:0:0:0:
292,68,60651,1,0,0:0:0:0:
292,68,60806,2,0,P|252:92|184:188,1,135.000005149842,0|8,0:0|0:0,0:0:0:0:
156,232,61273,2,0,P|208:244|236:236,1,67.5000025749208
252,316,61584,2,0,P|297:287|311:262,1,67.5000025749208,0|8,0:0|0:0,0:0:0:0:
376,316,61894,2,0,P|388:264|380:236,1,67.5000025749208
452,204,62205,2,0,P|414:177|319:188,1,135.000005149842
256,144,62672,6,0,L|192:80,1,67.5000025749208
144,144,62983,2,0,L|80:80,1,67.5000025749208,8|0,0:0|0:0,0:0:0:0:
56,168,63293,1,0,0:0:0:0:
96,236,63449,2,0,L|160:300,1,67.5000025749208,0|8,0:0|0:0,0:0:0:0:
200,344,63760,2,0,B|256:305|256:305|311:342,1,135.000005149842
416,236,64226,2,0,L|368:283,2,67.5000025749208,8|0|0,0:0|0:0|0:0,0:0:0:0:
451,163,64692,2,0,P|431:129|399:108,1,67.5000025749208,0|8,0:0|0:0,0:0:0:0:
257,86,65003,2,0,P|287:131|355:185,1,135.000005149842
349,181,65470,1,8,0:0:0:0:
349,181,65780,1,0,0:0:0:0:
364,196,66091,5,8,0:0:0:0:
364,196,66247,1,0,0:0:0:0:
312,288,66402,2,0,P|254:304|220:298,1,67.5000025749208
152,300,66713,2,0,P|174:245|213:214,1,101.250003862381,8|0,0:0|0:0,0:0:0:0:
204,164,67024,2,0,P|198:167|139:176,1,67.5000025749208
44,216,67335,6,0,P|12:152|13:82,2,135.000005149842,8|0|8,0:0|0:0|0:0,0:0:0:0:
120,136,68112,2,0,P|152:200|151:270,1,135.000005149842
212,316,68578,1,8,0:0:0:0:
292,300,68734,6,0,P|328:288|349:264,1,67.5000025749208
428,252,69045,2,0,P|416:216|392:195,1,67.5000025749208
380,116,69356,2,0,P|344:128|323:152,1,67.5000025749208
132,268,69666,2,0,P|168:256|189:232,1,67.5000025749208
256,192,69977,1,0,0:0:0:0:
256,88,70133,6,0,L|185:76,1,67.5000025749208,4|0,0:0|0:0,0:0:0:0:
152,192,70444,2,0,L|140:263,1,67.5000025749208,8|0,0:0|0:0,0:0:0:0:
256,296,70755,2,0,L|327:308,1,67.5000025749208
360,192,71065,1,8,0:0:0:0:
360,192,71221,6,0,P|340:152|332:119,1,67.5000025749208
256,88,71532,1,0,0:0:0:0:
178,130,71687,2,0,P|172:152|152:192,1,67.5000025749208,8|0,0:0|0:0,0:0:0:0:
110,267,71998,1,0,0:0:0:0:
167,330,72154,1,0,0:0:0:0:
241,298,72309,1,8,0:0:0:0:
235,214,72464,1,0,0:0:0:0:
153,192,72620,1,0,0:0:0:0:
96,136,72775,6,0,P|104:94|134:61,1,67.5000025749208,0|8,0:0|0:0,0:0:0:0:
196,60,73086,2,0,P|217:71|259:74,1,67.5000025749208,0|0,0:0|0:0,0:0:0:0:
320,132,73397,2,0,P|312:155|284:187,2,67.5000025749208,0|8|0,0:0|0:0|0:0,0:0:0:0:
394,74,73863,2,0,P|408:94|416:136,1,67.5000025749208
376,208,74174,5,8,0:0:0:0:
304,248,74330,1,0,0:0:0:0:
256,312,74485,1,0,0:0:0:0:
208,248,74641,1,0,0:0:0:0:
136,208,74796,1,8,0:0:0:0:
136,208,74951,2,0,P|67:150|136:98,1,202.500007724762,0|8,0:0|0:0,0:0:0:0:
344,128,75729,1,0,0:0:0:0:
204,249,76040,1,0,0:0:0:0:
204,249,76195,6,0,P|157:230|135:202,1,67.5000025749208
231,118,76506,2,0,P|272:87|307:82,1,67.5000025749208
332,208,76817,2,0,P|338:258|325:291,1,67.5000025749208
256,320,77128,1,0,0:0:0:0:
196,192,77283,1,8,0:0:0:0:
256,64,77439,1,0,0:0:0:0:
316,192,77594,1,0,0:0:0:0:
256,248,77749,6,0,P|207:261|179:288,1,67.5000025749208,0|8,0:0|0:0,0:0:0:0:
52,236,78060,2,0,P|101:223|129:196,1,67.5000025749208
148,104,78371,2,0,P|99:117|71:144,2,67.5000025749208,0|8|0,0:0|0:0|0:0,0:0:0:0:
256,80,78837,5,4,0:0:0:0:
308,144,78993,1,0,0:0:0:0:
220,212,79148,1,8,0:0:0:0:
344,280,79304,1,0,0:0:0:0:
172,352,79459,1,8,0:0:0:0:
112,184,79615,1,8,0:0:0:0:
112,184,79692,1,8,0:0:0:0:
112,184,79770,1,8,0:0:0:0:
280,112,79926,1,8,0:0:0:0:
344,280,80081,6,0,P|392:260|440:144,1,180,4|0,0:0|0:0,0:0:0:0:
304,80,80552,1,0,0:0:0:0:
168,104,80709,2,0,P|120:124|72:240,1,180,8|0,0:0|0:0,0:0:0:0:
132,324,81180,6,0,P|168:296|180:248,1,90
136,156,81494,1,0,0:0:0:0:
178,56,81651,2,0,P|255:20|336:57,1,180,0|8,0:0|0:0,0:0:0:0:
376,156,82122,1,0,0:0:0:0:
331,254,82279,2,0,P|344:296|380:324,1,90
441,234,82594,6,0,B|435:161|370:147|370:147|341:91,1,180,4|0,0:0|0:0,0:0:0:0:
256,192,83065,1,0,0:0:0:0:
168,288,83222,2,0,B|142:237|142:237|77:223|71:150,1,180,8|0,0:0|0:0,0:0:0:0:
188,136,83693,6,0,L|232:220,1,90
352,236,84007,2,0,L|308:152,2,90
316,344,84478,1,8,0:0:0:0:
196,344,84635,1,0,0:0:0:0:
160,236,84793,1,0,0:0:0:0:
256,160,84950,1,0,0:0:0:0:
188,76,85107,2,0,L|140:160,1,90,4|0,0:0|0:0,0:0:0:0:
390,191,85421,2,0,L|341:107,1,90
189,308,85735,2,0,L|374:309,1,180,8|0,0:0|0:0,0:0:0:0:
452,236,86206,5,0,0:0:0:0:
340,200,86363,2,0,P|268:200|196:166,1,135
195,124,86677,2,0,P|118:165|88:216,1,135,0|8,0:0|0:0,0:0:0:0:
76,256,86991,1,0,0:0:0:0:
152,336,87149,1,0,0:0:0:0:
256,288,87306,1,0,0:0:0:0:
256,192,87463,12,0,89491,0:0:0:0:
256,56,89799,6,0,L|256:152,1,90,8|0,0:0|0:0,0:0:0:0:
156,188,90106,6,0,P|175:233|232:250,1,90,4|0,0:0|0:0,0:0:0:0:
412,200,90416,2,0,P|393:155|336:138,1,90,8|0,0:0|0:0,0:0:0:0:
256,96,90727,2,0,L|172:56,1,90,0|0,0:0|0:0,0:0:0:0:
36,96,91038,1,8,0:0:0:0:
36,96,91194,2,0,L|120:136,1,90
88,240,91504,1,0,0:0:0:0:
88,240,91660,2,0,L|172:280,1,90,8|0,0:0|0:0,0:0:0:0:
256,316,91971,1,8,0:0:0:0:
312,224,92126,2,0,L|228:184,1,90,0|8,0:0|0:0,0:0:0:0:
256,316,92437,1,0,0:0:0:0:
364,296,92593,6,0,P|400:264|396:200,1,90,0|0,0:0|0:0,0:0:0:0:
292,46,92903,2,0,P|246:31|192:66,1,90,8|0,0:0|0:0,0:0:0:0:
111,233,93214,2,0,P|121:280|179:309,1,90
408,100,93525,2,0,P|359:97|313:121,1,90,8|0,0:0|0:0,0:0:0:0:
259,369,93836,2,0,P|286:328|288:276,1,90
100,106,94147,2,0,P|122:150|166:178,1,90,8|0,0:0|0:0,0:0:0:0:
256,208,94458,1,8,0:0:0:0:
364,192,94613,1,0,0:0:0:0:
412,104,94769,5,8,0:0:0:0:
399,95,94846,1,0,0:0:0:0:
385,87,94924,1,0,0:0:0:0:
371,79,95002,1,0,0:0:0:0:
356,72,95080,2,0,P|308:92|255:101,1,90,4|0,0:0|0:0,0:0:0:0:
268,208,95390,2,0,P|219:188|176:157,1,90,8|0,0:0|0:0,0:0:0:0:
111,243,95701,2,0,P|73:158|84:58,1,180,0|8,0:0|0:0,0:0:0:0:
180,32,96168,6,0,P|207:72|218:113,1,90
184,216,96479,1,0,0:0:0:0:
256,296,96634,1,8,0:0:0:0:
328,216,96789,1,0,0:0:0:0:
294,111,96945,2,0,P|305:72|332:32,1,90,8|0,0:0|0:0,0:0:0:0:
400,116,97256,5,8,0:0:0:0:
400,132,97333,1,0,0:0:0:0:
400,148,97411,1,0,0:0:0:0:
400,164,97489,1,0,0:0:0:0:
400,180,97567,2,0,P|374:238|339:256,1,90
284,168,97878,2,0,P|229:200|190:195,1,90,8|0,0:0|0:0,0:0:0:0:
200,92,98188,2,0,P|136:87|107:60,2,90,0|0|8,0:0|0:0|0:0,0:0:0:0:
256,184,98655,1,8,0:0:0:0:
312,92,98810,6,0,P|375:87|404:60,1,90,8|0,0:0|0:0,0:0:0:0:
356,248,99121,2,0,P|360:311|387:340,1,90,8|0,0:0|0:0,0:0:0:0:
200,292,99432,2,0,P|136:296|107:323,1,90,8|0,0:0|0:0,0:0:0:0:
156,136,99743,2,0,P|151:72|124:43,1,90,8|0,0:0|0:0,0:0:0:0:
48,120,100054,5,4,0:0:0:0:
88,232,100209,1,0,0:0:0:0:
132,340,100365,2,0,P|175:340|225:306,1,90,8|0,0:0|0:0,0:0:0:0:
304,224,100675,2,0,P|350:137|417:85,1,180
304,16,101142,1,0,0:0:0:0:
212,84,101297,2,0,L|144:165,1,90
284,176,101608,2,0,L|352:95,1,90
436,176,101919,2,0,L|368:257,1,90
280,286,102230,5,8,0:0:0:0:
257,293,102308,1,0,0:0:0:0:
235,301,102385,1,0,0:0:0:0:
213,308,102463,1,0,0:0:0:0:
192,312,102541,2,0,P|153:297|122:258,1,90,4|0,0:0|0:0,0:0:0:0:
132,104,102852,2,0,P|171:119|202:158,1,90,8|0,0:0|0:0,0:0:0:0:
320,192,103162,5,0,0:0:0:0:
320,192,103318,1,0,0:0:0:0:
356,88,103473,1,8,0:0:0:0:
356,88,103629,1,0,0:0:0:0:
392,192,103784,1,0,0:0:0:0:
392,192,103940,1,0,0:0:0:0:
424,296,104095,1,8,0:0:0:0:
324,336,104251,1,0,0:0:0:0:
260,248,104406,2,0,L|184:188,1,90,8|0,0:0|0:0,0:0:0:0:
84,216,104717,2,0,L|160:276,2,90,8|0|4,0:0|0:0|0:0,0:0:0:0:
64,108,105183,1,0,0:0:0:0:
80,91,105261,1,0,0:0:0:0:
97,74,105339,1,8,0:0:0:0:
200,48,105494,5,0,0:0:0:0:
200,48,105650,2,0,P|289:60|354:128,1,180,4|8,0:0|0:0,0:0:0:0:
344,216,106116,1,0,0:0:0:0:
325,336,106271,2,0,P|269:311|256:288,1,90
186,336,106582,2,0,P|242:311|256:288,1,90,8|0,0:0|0:0,0:0:0:0:
256,180,106893,5,8,0:0:0:0:
256,180,106971,1,0,0:0:0:0:
256,180,107049,2,0,L|168:140,1,90,0|8,0:0|0:0,0:0:0:0:
48,208,107359,2,0,L|136:248,1,90,0|4,0:0|0:0,0:0:0:0:
464,176,107670,2,0,L|376:136,1,90,0|8,0:0|0:0,0:0:0:0:
256,80,107981,1,0,0:0:0:0:
144,192,108137,1,8,0:0:0:0:
256,304,108292,1,0,0:0:0:0:
368,192,108447,1,8,0:0:0:0:
256,80,108603,1,0,0:0:0:0:
160,96,108758,6,0,P|106:111|71:151,1,90,8|0,0:0|0:0,0:0:0:0:
387,156,109069,2,0,P|401:102|384:52,1,90,8|0,0:0|0:0,0:0:0:0:
220,323,109380,2,0,P|260:362|312:372,1,90,8|0,0:0|0:0,0:0:0:0:
291,60,109691,2,0,P|251:21|199:11,1,90,8|0,0:0|0:0,0:0:0:0:
256,192,110002,1,4,0:0:0:0:
256,192,114976,12,0,117152,0:0:0:0:
256,192,117463,5,8,0:0:0:0:
72,176,117774,1,8,0:0:0:0:
164,120,117929,1,8,0:0:0:0:
334,359,118240,1,8,0:0:0:0:
239,307,118396,1,8,0:0:0:0:
361,40,118707,1,8,0:0:0:0:
364,148,118862,1,8,0:0:0:0:
364,148,119017,2,0,P|323:230|233:246,1,180
151,221,119501,2,0,P|209:130|300:130,1,178
283,125,119899,5,8,0:0:0:0:
294,128,119963,1,0,0:0:0:0:
304,132,120027,1,8,0:0:0:0:
315,134,120092,1,0,0:0:0:0:
327,138,120152,1,8,0:0:0:0:
432,164,120299,2,0,L|474:111,4,60,8|8|8|8|8,0:0|0:0|0:0|0:0|0:0,0:0:0:0:
428,264,120753,1,0,0:0:0:0:
396,352,120913,6,0,P|327:356|300:340,1,90,4|0,0:0|0:0,0:0:0:0:
136,256,121223,2,0,P|205:260|232:244,1,90,8|0,0:0|0:0,0:0:0:0:
356,160,121534,2,0,P|287:164|260:148,1,90,0|0,0:0|0:0,0:0:0:0:
176,104,121845,2,0,P|230:61|261:58,2,90,8|0|0,0:0|0:0|0:0,0:0:0:0:
164,212,122311,1,0,0:0:0:0:
256,312,122467,1,8,0:0:0:0:
348,212,122622,1,0,0:0:0:0:
256,92,122778,2,0,P|309:70|340:71,1,90,8|0,0:0|0:0,0:0:0:0:
432,192,123089,2,0,P|379:214|329:207,1,90,8|0,0:0|0:0,0:0:0:0:
132,53,123400,6,0,P|186:76|203:105,1,90,0|0,0:0|0:0,0:0:0:0:
271,369,123710,2,0,P|241:320|244:286,1,90,8|0,0:0|0:0,0:0:0:0:
354,36,124021,2,0,P|349:94|326:119,1,90
84,260,124332,2,0,P|123:215|156:208,1,90,8|0,0:0|0:0,0:0:0:0:
438,234,124643,2,0,P|381:247|350:234,1,90,0|0,0:0|0:0,0:0:0:0:
291,130,124954,2,0,P|348:117|376:128,1,90,8|0,0:0|0:0,0:0:0:0:
353,236,125265,1,0,0:0:0:0:
244,284,125420,1,0,0:0:0:0:
183,187,125576,5,8,0:0:0:0:
170,178,125653,1,0,0:0:0:0:
157,168,125731,1,0,0:0:0:0:
144,159,125809,1,0,0:0:0:0:
131,147,125887,2,0,P|84:120|66:63,1,90,4|0,0:0|0:0,0:0:0:0:
215,56,126197,2,0,P|256:40|311:72,1,90,8|0,0:0|0:0,0:0:0:0:
381,147,126508,2,0,P|428:120|446:63,2,90,0|0|8,0:0|0:0|0:0,0:0:0:0:
296,212,126975,1,0,0:0:0:0:
216,284,127130,6,0,P|120:288|52:219,1,180,0|8,0:0|0:0,0:0:0:0:
68,128,127596,2,0,P|128:156|144:204,1,90,0|8,0:0|0:0,0:0:0:0:
216,96,127907,2,0,P|249:153|234:201,1,90,0|8,0:0|0:0,0:0:0:0:
356,168,128218,6,0,P|350:233|310:265,1,90
400,360,128529,2,0,P|405:294|445:262,1,90,0|8,0:0|0:0,0:0:0:0:
484,192,128840,1,0,0:0:0:0:
419,106,128995,2,0,P|344:61|256:96,1,180,0|8,0:0|0:0,0:0:0:0:
263,260,129462,5,0,0:0:0:0:
263,260,129617,2,0,P|276:251|290:157,1,90,8|0,0:0|0:0,0:0:0:0:
156,105,129928,2,0,P|156:121|230:179,1,90,8|0,0:0|0:0,0:0:0:0:
300,184,130239,1,8,0:0:0:0:
300,184,130394,1,0,0:0:0:0:
416,284,130550,1,8,0:0:0:0:
416,284,130705,1,0,0:0:0:0:
268,324,130861,6,0,P|217:320|165:278,1,90,4|0,0:0|0:0,0:0:0:0:
104,184,131172,2,0,P|127:136|165:114,1,90,8|0,0:0|0:0,0:0:0:0:
212,208,131482,2,0,P|296:182|359:94,1,180,0|8,0:0|0:0,0:0:0:0:
292,24,131949,1,0,0:0:0:0:
232,112,132104,2,0,P|288:181|372:207,1,180,0|8,0:0|0:0,0:0:0:0:
372,328,132571,1,0,0:0:0:0:
372,328,132726,2,0,L|264:312,1,90,8|0,0:0|0:0,0:0:0:0:
180,280,133037,2,0,P|140:248|120:204,1,90,8|0,0:0|0:0,0:0:0:0:
164,116,133348,6,0,P|204:148|224:192,1,90,4|0,0:0|0:0,0:0:0:0:
123,214,133659,2,0,P|83:182|63:138,1,90,8|0,0:0|0:0,0:0:0:0:
256,64,133969,2,0,P|296:96|316:140,1,90,0|0,0:0|0:0,0:0:0:0:
256,320,134280,2,0,P|216:288|196:244,1,90,8|0,0:0|0:0,0:0:0:0:
300,216,134591,5,0,0:0:0:0:
300,216,134747,1,0,0:0:0:0:
348,108,134902,2,0,L|425:62,1,90,8|0,0:0|0:0,0:0:0:0:
504,148,135213,2,0,L|427:194,1,90,8|0,0:0|0:0,0:0:0:0:
324,244,135524,1,8,0:0:0:0:
256,336,135679,1,0,0:0:0:0:
188,244,135835,5,4,0:0:0:0:
116,164,135990,1,0,0:0:0:0:
168,64,136146,2,0,B|210:69|257:84|257:84|300:69|344:64,2,180,8|0|8,0:0|0:0|0:0,0:0:0:0:
116,160,136923,1,0,0:0:0:0:
116,160,137078,2,0,P|177:167|211:184,1,90,0|0,0:0|0:0,0:0:0:0:
309,178,137389,2,0,P|335:167|396:160,1,90,8|0,0:0|0:0,0:0:0:0:
376,264,137700,1,8,0:0:0:0:
256,336,137856,1,0,0:0:0:0:
132,332,138011,6,8,P|154:286|207:264,1,90,8|0,0:0|0:0,0:0:0:0:
396,316,138322,2,0,P|350:293|328:240,1,90,4|0,0:0|0:0,0:0:0:0:
380,52,138633,2,0,P|357:97|304:119,1,90,8|0,0:0|0:0,0:0:0:0:
116,68,138944,2,0,P|161:90|183:143,1,90,0|0,0:0|0:0,0:0:0:0:
164,264,139254,2,0,P|118:241|100:209,1,90,8|0,0:0|0:0,0:0:0:0:
256,96,139565,5,4,0:0:0:0:
256,288,139721,1,0,0:0:0:0:
323,124,139876,1,8,0:0:0:0:
188,259,140032,1,0,0:0:0:0:
352,192,140187,1,8,0:0:0:0:
159,192,140343,1,0,0:0:0:0:
323,259,140498,1,8,0:0:0:0:
188,124,140653,2,0,P|125:85|81:85,1,90,0|4,0:0|0:0,0:0:0:0:
72,204,140964,5,0,0:0:0:0:
116,304,141120,2,0,P|179:343|223:343,1,90,8|8,0:0|0:0,0:0:0:0:
324,260,141431,1,0,0:0:0:0:
416,136,141586,2,0,P|353:97|309:97,1,90,8|8,0:0|0:0,0:0:0:0:
248,152,141897,1,0,0:0:0:0:
305,241,142052,2,0,P|368:280|412:280,1,90,8|8,0:0|0:0,0:0:0:0:
372,172,142363,1,0,0:0:0:0:
320,76,142519,1,0,0:0:0:0:
216,100,142674,1,8,0:0:0:0:
200,208,142830,1,0,0:0:0:0:
100,244,142985,1,8,0:0:0:0:
116,136,143140,1,0,0:0:0:0:
216,100,143296,6,0,P|317:88|366:154,1,180,12|8,0:0|0:0,0:0:0:0:
460,92,143762,2,0,P|472:193|406:242,1,180,8|8,0:0|0:0,0:0:0:0:
472,336,144229,2,0,P|371:348|322:282,1,180,8|8,0:0|0:0,0:0:0:0:
228,340,144695,2,0,P|216:239|282:190,1,180,8|8,0:0|0:0,0:0:0:0:
360,132,145161,2,0,P|404:108|420:68,2,90,8|0|8,0:0|0:0|0:0,0:0:0:0:
256,100,145628,1,0,0:0:0:0:
152,132,145783,6,0,P|108:108|92:68,1,90,12|0,0:0|0:0,0:0:0:0:
152,132,146094,2,0,L|196:224,1,90,8|8,0:0|0:0,0:0:0:0:
152,328,146405,2,0,L|113:246,1,90,0|8,0:0|0:0,0:0:0:0:
332,136,146716,2,0,P|376:160|392:200,1,90,8|0,0:0|0:0,0:0:0:0:
340,292,147026,1,0,0:0:0:0:
240,336,147182,1,0,0:0:0:0:
252,228,147337,1,8,0:0:0:0:
152,264,147493,1,0,0:0:0:0:
104,168,147648,2,0,L|252:40,1,180,8|8,0:0|0:0,0:0:0:0:
368,140,148115,1,0,0:0:0:0:
456,248,148270,6,0,L|385:316,1,90,12|0,0:0|0:0,0:0:0:0:
320,228,148581,2,0,L|249:296,1,90,8|8,0:0|0:0,0:0:0:0:
160,340,148892,2,0,P|148:292|168:244,1,90,0|8,0:0|0:0,0:0:0:0:
280,44,149203,2,0,P|285:122|216:195,1,180,8|8,0:0|0:0,0:0:0:0:
184,124,149669,2,0,P|262:118|335:187,1,180,8|8,0:0|0:0,0:0:0:0:
312,288,150135,5,8,0:0:0:0:
468,175,150291,1,0,0:0:0:0:
400,272,150446,1,8,0:0:0:0:
453,92,150602,1,0,0:0:0:0:
483,257,150757,1,4,0:0:0:0:
256,192,150835,12,8,153477,0:0:0:0:
