osu file format v12

[General]
AudioFilename: Re make.mp3
AudioLeadIn: 0
PreviewTime: 147830
Countdown: 0
SampleSet: Normal
StackLeniency: 0.7
Mode: 3
LetterboxInBreaks: 0
SpecialStyle: 0
WidescreenStoryboard: 0

[Editor]
DistanceSpacing: 2
BeatDivisor: 4
GridSize: 8

[Metadata]
Title:Re:make
TitleUnicode:Re:make
Artist:ONE OK ROCK
ArtistUnicode:ONE OK ROCK
Creator:indyinyou
Version:Amateur Drum
Source:
Tags:Remake
BeatmapID:352618
BeatmapSetID:141360

[Difficulty]
HPDrainRate:8
CircleSize:7
OverallDifficulty:8
ApproachRate:5
SliderMultiplier:1.4
SliderTickRate:1

[Events]
//Background and Video events
0,0,"Re make.jpg",0,0
Video,-1200,"Re make.avi"
//Break Periods
//Storyboard Layer 0 (Background)
//Storyboard Layer 1 (Fail)
//Storyboard Layer 2 (Pass)
//Storyboard Layer 3 (Foreground)
//Storyboard Sound Samples
//Background Colour Transformations
3,100,163,162,255

[TimingPoints]
624,348.837209302326,4,1,1,70,1,0
48065,-100,4,1,2,70,0,0
59228,-100,4,1,1,70,0,0
103879,-100,4,1,2,70,0,0
117483,348.837209302326,4,1,1,70,1,0
119052,-100,4,1,1,70,0,0
120273,348.837209302326,4,1,1,70,1,0
122714,348.837209302326,4,1,1,70,1,0
125504,-100,4,1,1,70,0,0
170155,-100,4,1,2,70,0,0
192481,-100,4,1,1,70,0,0

[HitObjects]
109,192,11786,1,0,0:0:0:70:bassdrum.wav
475,192,11786,1,0,0:0:0:40:tom.wav
475,192,11961,1,0,0:0:0:40:tom.wav
109,192,12135,1,0,0:0:0:70:bassdrum.wav
109,192,12484,1,0,0:0:0:70:bassdrum.wav
109,192,12833,1,0,0:0:0:70:bassdrum.wav
109,192,13182,1,0,0:0:0:70:bassdrum.wav
109,192,13530,1,0,0:0:0:70:bassdrum.wav
109,192,13879,1,0,0:0:0:70:bassdrum.wav
109,192,14228,1,0,0:0:0:70:bassdrum.wav
402,192,14577,1,0,0:0:0:70:bassdrum.wav
36,192,14577,1,0,0:0:0:40:tom.wav
36,192,14751,1,0,0:0:0:40:tom.wav
402,192,14926,1,0,0:0:0:70:bassdrum.wav
402,192,15275,1,0,0:0:0:70:bassdrum.wav
402,192,15624,1,0,0:0:0:70:bassdrum.wav
36,192,15972,1,0,0:0:0:40:tom.wav
402,192,15972,1,0,0:0:0:70:bassdrum.wav
36,192,16147,1,0,0:0:0:40:tom.wav
402,192,16322,1,0,0:0:0:70:bassdrum.wav
402,192,16670,1,0,0:0:0:70:bassdrum.wav
402,192,17019,1,0,0:0:0:70:bassdrum.wav
109,192,17368,1,0,0:0:0:70:bassdrum.wav
475,192,17368,1,0,0:0:0:40:tom.wav
475,192,17542,1,0,0:0:0:40:tom.wav
109,192,17717,1,0,0:0:0:70:bassdrum.wav
109,192,18065,1,0,0:0:0:70:bassdrum.wav
109,192,18414,1,0,0:0:0:70:bassdrum.wav
475,192,18763,1,10,0:0:0:0:
256,192,18937,1,0,0:0:0:30:snare.wav
36,192,19112,1,10,0:0:0:0:
402,192,19286,1,0,0:0:0:30:snare.wav
109,192,19461,1,10,0:0:0:0:
329,192,19635,1,0,0:0:0:30:snare.wav
182,192,19810,1,10,0:0:0:0:
475,192,19984,1,0,0:0:0:30:snare.wav
329,192,20158,1,10,0:0:0:0:
36,192,20333,1,0,0:0:0:45:snare.wav
182,192,20507,1,10,0:0:0:0:
402,192,20682,1,0,0:0:0:45:snare.wav
109,192,20856,1,10,0:0:0:0:
256,192,21030,1,0,0:0:0:45:snare.wav
475,192,21205,1,10,0:0:0:0:
36,192,21379,1,0,0:0:0:45:snare.wav
402,192,21554,1,10,0:0:0:0:
109,192,21728,1,0,0:0:0:70:snare.wav
256,192,21903,1,10,0:0:0:0:
475,192,22077,1,0,0:0:0:70:snare.wav
182,192,22251,1,10,0:0:0:0:
36,192,22426,1,0,0:0:0:70:snare.wav
402,192,22600,1,10,0:0:0:0:
256,192,22775,1,0,0:0:0:70:snare.wav
475,192,22949,1,0,0:0:0:70:bassdrum.wav
36,192,22949,1,0,0:0:0:70:cymbol.wav
402,192,23124,1,0,0:0:0:70:bassdrum.wav
109,192,23298,1,0,0:0:0:70:snare.wav
329,192,23298,1,0,0:0:0:70:hihat02.wav
475,192,23647,1,0,0:0:0:70:hihat02.wav
329,192,23996,1,0,0:0:0:70:hihat02.wav
109,192,23996,1,10,0:0:0:0:
256,192,24170,1,0,0:0:0:70:bassdrum.wav
475,192,24344,1,0,0:0:0:70:hihat02.wav
109,192,24693,1,0,0:0:0:70:snare.wav
329,192,24693,1,0,0:0:0:70:hihat02.wav
402,192,25042,1,6,0:0:0:0:
402,192,25217,1,0,0:0:0:70:bassdrum.wav
109,192,25391,1,0,0:0:0:70:snare.wav
329,192,25391,1,0,0:0:0:70:hihat02.wav
256,192,25740,1,6,0:0:0:0:
256,192,25914,1,0,0:0:0:70:bassdrum.wav
402,192,26089,1,0,0:0:0:70:snare.wav
182,192,26089,1,0,0:0:0:70:hihat02.wav
36,192,26437,1,0,0:0:0:70:hihat02.wav
182,192,26786,1,0,0:0:0:70:hihat02.wav
402,192,26786,1,10,0:0:0:0:
256,192,26961,1,0,0:0:0:70:bassdrum.wav
36,192,27135,1,0,0:0:0:70:hihat02.wav
109,192,27310,1,0,0:0:0:70:bassdrum.wav
402,192,27484,1,0,0:0:0:70:snare.wav
182,192,27484,1,0,0:0:0:70:hihat02.wav
109,192,27833,1,6,0:0:0:0:
109,192,28007,1,0,0:0:0:70:bassdrum.wav
402,192,28182,1,0,0:0:0:70:snare.wav
182,192,28182,1,0,0:0:0:70:hihat02.wav
256,192,28530,1,6,0:0:0:0:
256,192,28705,1,0,0:0:0:70:bassdrum.wav
182,192,28879,1,0,0:0:0:70:snare.wav
329,192,28879,1,0,0:0:0:70:hihat02.wav
475,192,29228,1,0,0:0:0:70:hihat02.wav
36,192,29577,1,0,0:0:0:70:hihat02.wav
256,192,29577,1,10,0:0:0:0:
402,192,29751,1,0,0:0:0:70:bassdrum.wav
475,192,29926,1,0,0:0:0:70:hihat02.wav
329,192,30275,1,0,0:0:0:70:snare.wav
182,192,30275,1,0,0:0:0:70:hihat02.wav
109,192,30624,1,6,0:0:0:0:
402,192,30798,1,0,0:0:0:70:bassdrum.wav
256,192,30972,1,0,0:0:0:70:snare.wav
36,192,30972,1,0,0:0:0:70:hihat02.wav
109,192,31321,1,6,0:0:0:0:
402,192,31496,1,0,0:0:0:70:bassdrum.wav
182,192,31670,1,0,0:0:0:70:snare.wav
329,192,31670,1,0,0:0:0:70:hihat02.wav
36,192,32019,1,0,0:0:0:70:hihat02.wav
475,192,32368,1,0,0:0:0:70:hihat02.wav
256,192,32368,1,10,0:0:0:0:
109,192,32542,1,0,0:0:0:70:bassdrum.wav
36,192,32717,1,0,0:0:0:70:hihat02.wav
402,192,32891,1,0,0:0:0:70:bassdrum.wav
182,192,33065,1,0,0:0:0:70:snare.wav
329,192,33065,1,0,0:0:0:70:hihat02.wav
109,192,33414,1,6,0:0:0:0:
402,192,33589,1,0,0:0:0:70:bassdrum.wav
329,192,33763,1,0,0:0:0:70:snare.wav
36,192,33763,1,0,0:0:0:70:cymbol.wav
109,192,34112,1,0,0:0:0:40:tom.wav
402,192,34461,1,0,0:0:0:40:tom.wav
109,192,34810,1,0,0:0:0:40:tom.wav
402,192,35158,1,0,0:0:0:40:tom01.wav
256,192,35507,1,0,0:0:0:40:tom.wav
475,192,35682,1,0,0:0:0:40:tom01.wav
329,192,35856,1,0,0:0:0:40:tom01.wav
182,192,36030,1,0,0:0:0:40:tom.wav
36,192,36205,1,0,0:0:0:50:snare.wav
109,192,36292,1,0,0:0:0:50:snare.wav
182,192,36379,1,0,0:0:0:50:snare.wav
475,192,36467,1,0,0:0:0:50:snare.wav
402,192,36554,1,0,0:0:0:50:snare.wav
329,192,36641,1,0,0:0:0:50:snare.wav
36,192,36728,1,0,0:0:0:50:snare.wav
109,192,36815,1,0,0:0:0:50:snare.wav
182,192,36903,1,0,0:0:0:70:cymbol.wav
475,192,36903,1,0,0:0:0:70:bassdrum.wav
475,192,37251,1,0,0:0:0:70:hihat02.wav
329,192,37251,1,10,0:0:0:0:
109,192,37600,1,6,0:0:0:0:
475,192,37949,1,0,0:0:0:70:hihat02.wav
402,192,37949,1,10,0:0:0:0:
256,192,38298,1,6,0:0:0:0:
475,192,38647,1,0,0:0:0:70:hihat02.wav
329,192,38647,1,10,0:0:0:0:
109,192,38996,1,6,0:0:0:0:
475,192,39344,1,0,0:0:0:70:hihat02.wav
402,192,39344,1,10,0:0:0:0:
256,192,39693,1,6,0:0:0:0:
36,192,40042,1,0,0:0:0:70:hihat02.wav
182,192,40042,1,10,0:0:0:0:
402,192,40391,1,6,0:0:0:0:
36,192,40740,1,0,0:0:0:70:hihat02.wav
109,192,40740,1,10,0:0:0:0:
256,192,41089,1,6,0:0:0:0:
36,192,41437,1,0,0:0:0:70:hihat02.wav
182,192,41437,1,10,0:0:0:0:
402,192,41786,1,6,0:0:0:0:
329,192,42135,1,0,0:0:0:70:cymbol.wav
182,192,42135,1,10,0:0:0:0:
256,192,42484,1,6,0:0:0:0:
182,192,42833,1,0,0:0:0:70:hihat02.wav
402,192,42833,1,10,0:0:0:0:
109,192,43182,1,6,0:0:0:0:
182,192,43530,1,0,0:0:0:70:hihat02.wav
402,192,43530,1,10,0:0:0:0:
256,192,43879,1,6,0:0:0:0:
182,192,44228,1,0,0:0:0:70:hihat02.wav
402,192,44228,1,10,0:0:0:0:
109,192,44577,1,6,0:0:0:0:
182,192,44926,1,0,0:0:0:70:hihat02.wav
402,192,44926,1,10,0:0:0:0:
256,192,45275,1,6,0:0:0:0:
329,192,45624,1,0,0:0:0:70:hihat02.wav
109,192,45624,1,10,0:0:0:0:
402,192,45972,1,6,0:0:0:0:
109,192,46321,1,10,0:0:0:0:
329,192,46321,1,0,0:0:0:70:hihat02.wav
256,192,46670,1,6,0:0:0:0:
402,192,47019,1,0,0:0:0:70:snare.wav
109,192,47019,1,0,0:0:0:70:hihat02.wav
475,192,47193,1,0,0:0:0:70:cymbol.wav
36,192,47193,1,0,0:0:0:70:bassdrum.wav
402,192,47542,1,0,0:0:0:70:cymbol.wav
109,192,47542,1,0,0:0:0:70:bassdrum.wav
182,192,47717,1,0,0:0:0:70:snare.wav
329,192,47804,1,0,0:0:0:70:snare.wav
182,192,47891,1,0,0:0:0:70:snare.wav
329,192,47978,1,0,0:0:0:70:snare.wav
36,192,48065,1,0,0:0:0:70:cymbol.wav
475,192,48065,1,0,0:0:0:70:bassdrum.wav
475,192,48414,1,0,0:0:0:70:ride.wav
256,192,48414,1,0,0:0:0:70:snare.wav
109,192,48763,1,6,0:0:0:0:
109,192,48937,1,0,0:0:0:70:bassdrum.wav
475,192,49112,1,0,0:0:0:70:ride.wav
329,192,49112,1,0,0:0:0:70:snare.wav
109,192,49461,1,6,0:0:0:0:
256,192,49810,1,0,0:0:0:70:snare.wav
475,192,49810,1,0,0:0:0:70:ride.wav
109,192,50158,1,6,0:0:0:0:
109,192,50333,1,0,0:0:0:70:bassdrum.wav
475,192,50507,1,0,0:0:0:70:ride.wav
329,192,50507,1,0,0:0:0:70:snare.wav
402,192,50856,1,6,0:0:0:0:
256,192,51205,1,0,0:0:0:70:snare.wav
36,192,51205,1,0,0:0:0:70:ride.wav
402,192,51554,1,6,0:0:0:0:
402,192,51728,1,0,0:0:0:70:bassdrum.wav
36,192,51902,1,0,0:0:0:70:ride.wav
182,192,51903,1,0,0:0:0:70:snare.wav
402,192,52251,1,6,0:0:0:0:
36,192,52600,1,0,0:0:0:70:ride.wav
256,192,52600,1,0,0:0:0:70:snare.wav
402,192,52949,1,6,0:0:0:0:
402,192,53124,1,0,0:0:0:70:bassdrum.wav
36,192,53298,1,0,0:0:0:70:ride.wav
182,192,53298,1,0,0:0:0:70:snare.wav
36,192,53647,1,0,0:0:0:70:cymbol.wav
475,192,53647,1,0,0:0:0:70:bassdrum.wav
329,192,53996,1,0,0:0:0:70:snare.wav
182,192,53996,1,0,0:0:0:70:ride.wav
109,192,54344,1,6,0:0:0:0:
402,192,54519,1,0,0:0:0:70:bassdrum.wav
329,192,54693,1,0,0:0:0:70:snare.wav
182,192,54693,1,0,0:0:0:70:ride.wav
256,192,55042,1,6,0:0:0:0:
182,192,55391,1,0,0:0:0:70:ride.wav
329,192,55391,1,0,0:0:0:70:snare.wav
109,192,55740,1,6,0:0:0:0:
402,192,55914,1,0,0:0:0:70:bassdrum.wav
182,192,56089,1,0,0:0:0:70:ride.wav
329,192,56089,1,0,0:0:0:70:snare.wav
36,192,56437,1,0,0:0:0:70:bassdrum.wav
475,192,56437,1,0,0:0:0:70:ride.wav
182,192,56786,1,0,0:0:0:70:ride.wav
329,192,56786,1,0,0:0:0:70:snare.wav
256,192,57135,1,6,0:0:0:0:
256,192,57310,1,0,0:0:0:70:bassdrum.wav
109,192,57484,1,0,0:0:0:70:ride.wav
402,192,57484,1,0,0:0:0:70:snare.wav
36,192,57833,1,0,0:0:0:70:cymbol.wav
475,192,57833,1,0,0:0:0:70:snare.wav
256,192,58007,1,0,0:0:0:70:bassdrum.wav
402,192,58182,1,0,0:0:0:70:cymbol.wav
109,192,58182,1,0,0:0:0:70:snare.wav
256,192,58356,1,0,0:0:0:70:bassdrum.wav
36,192,58530,1,0,0:0:0:70:snare.wav
182,192,58618,1,0,0:0:0:70:snare.wav
475,192,58705,1,0,0:0:0:70:bassdrum.wav
329,192,58792,1,0,0:0:0:70:bassdrum.wav
256,192,58879,1,0,0:0:0:70:snare.wav
109,192,58879,1,0,0:0:0:40:tom01.wav
36,192,59228,1,0,0:0:0:70:bassdrum.wav
475,192,59228,1,0,0:0:0:70:cymbol.wav
256,192,59403,1,0,0:0:0:70:bassdrum.wav
329,192,59577,1,0,0:0:0:70:snare.wav
36,192,59577,1,0,0:0:0:70:hihat02.wav
475,192,59926,1,0,0:0:0:70:hihat02.wav
36,192,60275,1,0,0:0:0:70:hihat02.wav
329,192,60275,1,0,0:0:0:70:snare.wav
402,192,60449,1,0,0:0:0:70:bassdrum.wav
182,192,60624,1,0,0:0:0:70:hihat02.wav
329,192,60972,1,0,0:0:0:70:snare.wav
36,192,60972,1,0,0:0:0:70:hihat02.wav
256,192,61321,1,6,0:0:0:0:
402,192,61496,1,0,0:0:0:70:bassdrum.wav
329,192,61670,1,0,0:0:0:70:snare.wav
36,192,61670,1,0,0:0:0:70:hihat02.wav
109,192,62019,1,6,0:0:0:0:
256,192,62193,1,0,0:0:0:70:bassdrum.wav
182,192,62368,1,0,0:0:0:70:snare.wav
475,192,62368,1,0,0:0:0:70:hihat02.wav
329,192,62717,1,0,0:0:0:70:hihat02.wav
182,192,63065,1,0,0:0:0:70:hihat02.wav
475,192,63065,1,0,0:0:0:70:snare.wav
109,192,63240,1,0,0:0:0:70:bassdrum.wav
329,192,63414,1,0,0:0:0:70:hihat02.wav
109,192,63589,1,0,0:0:0:70:bassdrum.wav
182,192,63763,1,0,0:0:0:70:snare.wav
475,192,63763,1,0,0:0:0:70:hihat02.wav
109,192,64112,1,6,0:0:0:0:
109,192,64286,1,0,0:0:0:70:bassdrum.wav
182,192,64461,1,0,0:0:0:70:snare.wav
475,192,64461,1,0,0:0:0:70:hihat02.wav
402,192,64635,1,0,0:0:0:70:bassdrum.wav
256,192,64810,1,6,0:0:0:0:
109,192,64984,1,0,0:0:0:70:bassdrum.wav
182,192,65158,1,0,0:0:0:70:snare.wav
329,192,65158,1,0,0:0:0:70:hihat02.wav
475,192,65507,1,0,0:0:0:70:hihat02.wav
36,192,65856,1,0,0:0:0:70:hihat02.wav
182,192,65856,1,0,0:0:0:70:snare.wav
256,192,66030,1,0,0:0:0:70:bassdrum.wav
475,192,66205,1,0,0:0:0:70:hihat02.wav
182,192,66554,1,0,0:0:0:70:snare.wav
329,192,66554,1,0,0:0:0:70:hihat02.wav
402,192,66903,1,6,0:0:0:0:
402,192,67077,1,0,0:0:0:70:bassdrum.wav
36,192,67251,1,0,0:0:0:70:hihat02.wav
182,192,67251,1,0,0:0:0:70:snare.wav
109,192,67600,1,6,0:0:0:0:
109,192,67775,1,0,0:0:0:70:bassdrum.wav
182,192,67949,1,0,0:0:0:70:snare.wav
329,192,67949,1,0,0:0:0:70:hihat02.wav
475,192,68298,1,0,0:0:0:70:hihat02.wav
329,192,68647,1,0,0:0:0:70:hihat02.wav
182,192,68647,1,10,0:0:0:0:
256,192,68821,1,0,0:0:0:70:bassdrum.wav
36,192,68996,1,0,0:0:0:70:hihat02.wav
475,192,68996,1,0,0:0:0:70:snare.wav
402,192,69170,1,0,0:0:0:40:tom01.wav
256,192,69257,1,0,0:0:0:40:tom01.wav
109,192,69344,1,0,0:0:0:40:tom.wav
329,192,69519,1,0,0:0:0:40:tom.wav
182,192,69693,1,0,0:0:0:30:tom01.wav
475,192,69780,1,0,0:0:0:40:tom.wav
402,192,69868,1,0,0:0:0:70:snare.wav
329,192,69955,1,0,0:0:0:70:snare.wav
256,192,70042,1,0,0:0:0:70:snare.wav
36,192,70217,1,0,0:0:0:70:snare.wav
109,192,70304,1,0,0:0:0:70:snare.wav
475,192,70391,1,0,0:0:0:70:bassdrum.wav
182,192,70391,1,0,0:0:0:70:cymbol.wav
329,192,70565,1,0,0:0:0:30:hihat01.wav
182,192,70740,1,0,0:0:0:70:snare.wav
36,192,70740,1,0,0:0:0:30:hihat01.wav
475,192,70914,1,0,0:0:0:30:hihat01.wav
109,192,71089,1,0,0:0:0:70:bassdrum.wav
329,192,71263,1,0,0:0:0:30:hihat01.wav
182,192,71437,1,0,0:0:0:70:snare.wav
36,192,71437,1,0,0:0:0:30:hihat01.wav
402,192,71612,1,0,0:0:0:70:bassdrum.wav
329,192,71786,1,0,0:0:0:30:hihat01.wav
256,192,71961,1,0,0:0:0:70:bassdrum.wav
182,192,72135,1,0,0:0:0:70:snare.wav
36,192,72135,1,0,0:0:0:30:hihat01.wav
475,192,72310,1,0,0:0:0:30:hihat01.wav
402,192,72484,1,0,0:0:0:70:bassdrum.wav
256,192,72658,1,0,0:0:0:70:bassdrum.wav
182,192,72833,1,0,0:0:0:70:snare.wav
36,192,72833,1,0,0:0:0:30:hihat01.wav
329,192,73007,1,0,0:0:0:30:hihat01.wav
109,192,73182,1,0,0:0:0:70:bassdrum.wav
256,192,73356,1,0,0:0:0:70:bassdrum.wav
329,192,73530,1,0,0:0:0:70:snare.wav
475,192,73530,1,0,0:0:0:30:hihat01.wav
36,192,73705,1,0,0:0:0:30:hihat01.wav
109,192,73879,1,0,0:0:0:70:bassdrum.wav
182,192,74054,1,0,0:0:0:30:hihat01.wav
329,192,74228,1,0,0:0:0:70:snare.wav
475,192,74228,1,0,0:0:0:30:hihat01.wav
109,192,74403,1,0,0:0:0:70:bassdrum.wav
182,192,74577,1,0,0:0:0:30:hihat01.wav
256,192,74751,1,0,0:0:0:70:bassdrum.wav
329,192,74926,1,0,0:0:0:70:snare.wav
475,192,74926,1,0,0:0:0:30:hihat01.wav
36,192,75100,1,0,0:0:0:30:hihat01.wav
256,192,75275,1,0,0:0:0:70:bassdrum.wav
109,192,75449,1,0,0:0:0:70:bassdrum.wav
475,192,75624,1,0,0:0:0:30:hihat01.wav
329,192,75624,1,0,0:0:0:70:snare.wav
36,192,75798,1,0,0:0:0:30:hihat01.wav
256,192,75972,1,0,0:0:0:70:bassdrum.wav
36,192,76147,1,0,0:0:0:30:hihat01.wav
402,192,76321,1,0,0:0:0:70:snare.wav
182,192,76321,1,0,0:0:0:30:hihat01.wav
36,192,76496,1,0,0:0:0:30:hihat01.wav
109,192,76670,1,0,0:0:0:70:bassdrum.wav
182,192,76844,1,0,0:0:0:30:hihat01.wav
402,192,77019,1,0,0:0:0:70:snare.wav
329,192,77019,1,0,0:0:0:30:hihat01.wav
109,192,77193,1,0,0:0:0:70:bassdrum.wav
475,192,77368,1,0,0:0:0:30:hihat01.wav
256,192,77542,1,0,0:0:0:70:bassdrum.wav
402,192,77717,1,0,0:0:0:70:snare.wav
182,192,77717,1,0,0:0:0:30:hihat01.wav
36,192,77891,1,0,0:0:0:30:hihat01.wav
109,192,78065,1,0,0:0:0:70:bassdrum.wav
256,192,78240,1,0,0:0:0:70:bassdrum.wav
402,192,78414,1,0,0:0:0:70:snare.wav
329,192,78414,1,0,0:0:0:30:hihat01.wav
182,192,78589,1,0,0:0:0:70:bassdrum.wav
256,192,78763,1,0,0:0:0:70:bassdrum.wav
402,192,78937,1,0,0:0:0:70:bassdrum.wav
109,192,79112,1,0,0:0:0:70:snare.wav
329,192,79112,1,0,0:0:0:30:hihat01.wav
475,192,79286,1,0,0:0:0:30:hihat01.wav
402,192,79461,1,0,0:0:0:70:bassdrum.wav
329,192,79635,1,0,0:0:0:30:hihat01.wav
182,192,79810,1,0,0:0:0:30:hihat01.wav
109,192,79810,1,0,0:0:0:70:snare.wav
475,192,79984,1,6,0:0:0:0:
36,192,80158,1,0,0:0:0:70:bassdrum.wav
475,192,80333,1,6,0:0:0:0:
109,192,80507,1,0,0:0:0:70:snare.wav
329,192,80507,1,0,0:0:0:30:hihat01.wav
182,192,80682,1,0,0:0:0:40:tom.wav
402,192,80856,1,0,0:0:0:40:tom01.wav
256,192,81030,1,0,0:0:0:40:tom01.wav
109,192,81205,1,0,0:0:0:70:snare.wav
329,192,81379,1,0,0:0:0:70:snare.wav
182,192,81467,1,0,0:0:0:70:snare.wav
36,192,81554,1,0,0:0:0:70:cymbol.wav
475,192,81554,1,0,0:0:0:70:cymbol.wav
329,192,81903,1,0,0:0:0:30:snare.wav
182,192,81903,1,0,0:0:0:70:hihat02.wav
109,192,82077,1,0,0:0:0:70:bassdrum.wav
475,192,82251,1,0,0:0:0:70:hihat02.wav
256,192,82426,1,0,0:0:0:70:bassdrum.wav
36,192,82600,1,0,0:0:0:70:hihat02.wav
182,192,82775,1,0,0:0:0:30:snare.wav
475,192,82775,1,0,0:0:0:70:snare.wav
36,192,82949,1,0,0:0:0:70:hihat02.wav
329,192,83124,1,0,0:0:0:30:snare.wav
475,192,83124,1,0,0:0:0:70:snare.wav
109,192,83298,1,6,0:0:0:0:
256,192,83472,1,0,0:0:0:70:bassdrum.wav
329,192,83647,1,0,0:0:0:30:snare.wav
182,192,83647,1,0,0:0:0:70:hihat02.wav
109,192,83821,1,0,0:0:0:70:bassdrum.wav
475,192,83996,1,0,0:0:0:70:hihat02.wav
182,192,84170,1,0,0:0:0:70:snare.wav
329,192,84170,1,0,0:0:0:30:snare.wav
36,192,84344,1,6,0:0:0:0:
402,192,84519,1,0,0:0:0:70:bassdrum.wav
329,192,84693,1,0,0:0:0:30:snare.wav
182,192,84693,1,0,0:0:0:70:hihat02.wav
109,192,84868,1,0,0:0:0:70:bassdrum.wav
256,192,85042,1,12,0:0:0:0:
402,192,85217,1,0,0:0:0:70:bassdrum.wav
475,192,85391,1,0,0:0:0:70:hihat02.wav
36,192,85565,1,0,0:0:0:70:snare.wav
329,192,85565,1,0,0:0:0:30:snare.wav
475,192,85740,1,6,0:0:0:0:
182,192,85914,1,0,0:0:0:30:snare.wav
36,192,85914,1,0,0:0:0:70:snare.wav
402,192,86089,1,6,0:0:0:0:
109,192,86263,1,0,0:0:0:70:bassdrum.wav
182,192,86437,1,0,0:0:0:70:hihat02.wav
329,192,86437,1,0,0:0:0:30:snare.wav
475,192,86612,1,0,0:0:0:70:bassdrum.wav
36,192,86786,1,0,0:0:0:70:hihat02.wav
402,192,86961,1,0,0:0:0:30:snare.wav
109,192,86961,1,0,0:0:0:30:snare.wav
36,192,87135,1,0,0:0:0:70:cymbol.wav
475,192,87135,1,0,0:0:0:70:bassdrum.wav
256,192,87310,1,0,0:0:0:70:bassdrum.wav
182,192,87484,1,0,0:0:0:70:hihat02.wav
329,192,87484,1,0,0:0:0:30:snare.wav
402,192,87658,1,0,0:0:0:70:bassdrum.wav
475,192,87833,1,0,0:0:0:30:snare.wav
36,192,87833,1,0,0:0:0:70:hihat02.wav
109,192,88007,1,0,0:0:0:70:bassdrum.wav
182,192,88182,1,0,0:0:0:70:hihat02.wav
475,192,88356,1,0,0:0:0:30:snare.wav
329,192,88356,1,0,0:0:0:30:snare.wav
36,192,88530,1,6,0:0:0:0:
329,192,88705,1,0,0:0:0:30:snare.wav
182,192,88705,1,0,0:0:0:30:snare.wav
475,192,88879,1,6,0:0:0:0:
402,192,89054,1,0,0:0:0:70:bassdrum.wav
36,192,89228,1,0,0:0:0:70:hihat02.wav
329,192,89228,1,0,0:0:0:30:snare.wav
402,192,89403,1,0,0:0:0:70:bassdrum.wav
182,192,89577,1,0,0:0:0:70:hihat02.wav
329,192,89577,1,0,0:0:0:30:snare.wav
402,192,89751,1,0,0:0:0:30:snare.wav
109,192,89751,1,0,0:0:0:70:hihat02.wav
475,192,89926,1,0,0:0:0:70:cymbol.wav
36,192,89926,1,0,0:0:0:70:bassdrum.wav
256,192,90100,1,0,0:0:0:70:bassdrum.wav
402,192,90275,1,0,0:0:0:70:snare.wav
109,192,90275,1,0,0:0:0:70:hihat02.wav
475,192,90449,1,0,0:0:0:70:bassdrum.wav
329,192,90536,1,0,0:0:0:70:bassdrum.wav
36,192,90624,1,0,0:0:0:70:snare.wav
256,192,90798,1,0,0:0:0:70:bassdrum.wav
109,192,90972,1,0,0:0:0:70:snare.wav
402,192,90972,1,0,0:0:0:70:hihat02.wav
256,192,91147,1,0,0:0:0:70:bassdrum.wav
36,192,91321,1,0,0:0:0:50:snare.wav
182,192,91408,1,0,0:0:0:50:snare.wav
329,192,91496,1,0,0:0:0:40:tom01.wav
109,192,91670,1,0,0:0:0:40:tom01.wav
475,192,91844,1,0,0:0:0:50:snare.wav
329,192,91932,1,0,0:0:0:50:snare.wav
182,192,92019,1,0,0:0:0:40:tom.wav
402,192,92193,1,0,0:0:0:40:tom01.wav
109,192,92368,1,0,0:0:0:50:snare.wav
402,192,92455,1,0,0:0:0:50:snare.wav
182,192,92542,1,0,0:0:0:50:snare.wav
329,192,92629,1,0,0:0:0:50:snare.wav
36,192,92717,5,0,0:0:0:70:cymbol.wav
475,192,92717,1,0,0:0:0:70:bassdrum.wav
182,192,93065,1,0,0:0:0:70:hihat02.wav
329,192,93065,1,10,0:0:0:0:
109,192,93414,1,6,0:0:0:0:
475,192,93763,1,0,0:0:0:70:hihat02.wav
329,192,93763,1,10,0:0:0:0:
256,192,94112,1,6,0:0:0:0:
182,192,94461,1,0,0:0:0:70:hihat02.wav
329,192,94461,1,10,0:0:0:0:
109,192,94810,1,6,0:0:0:0:
475,192,95158,1,0,0:0:0:70:hihat02.wav
329,192,95158,1,10,0:0:0:0:
256,192,95507,1,6,0:0:0:0:
36,192,95856,1,0,0:0:0:70:hihat02.wav
329,192,95856,1,10,0:0:0:0:
402,192,96205,1,6,0:0:0:0:
36,192,96554,1,0,0:0:0:70:hihat02.wav
182,192,96554,1,10,0:0:0:0:
256,192,96903,1,6,0:0:0:0:
36,192,97251,1,0,0:0:0:70:hihat02.wav
329,192,97251,1,10,0:0:0:0:
402,192,97600,1,6,0:0:0:0:
329,192,97949,1,0,0:0:0:70:cymbol.wav
182,192,97949,1,10,0:0:0:0:
475,192,98298,1,0,0:0:0:70:bassdrum.wav
36,192,98298,1,0,0:0:0:70:cymbol.wav
329,192,98647,1,0,0:0:0:70:hihat02.wav
109,192,98647,1,10,0:0:0:0:
402,192,98996,1,6,0:0:0:0:
109,192,99344,1,10,0:0:0:0:
329,192,99344,1,0,0:0:0:70:hihat02.wav
256,192,99693,1,6,0:0:0:0:
329,192,100042,1,0,0:0:0:70:hihat02.wav
109,192,100042,1,10,0:0:0:0:
402,192,100391,1,6,0:0:0:0:
329,192,100740,1,0,0:0:0:70:hihat02.wav
109,192,100740,1,10,0:0:0:0:
256,192,101089,1,6,0:0:0:0:
182,192,101437,1,0,0:0:0:70:hihat02.wav
402,192,101437,1,10,0:0:0:0:
109,192,101786,1,6,0:0:0:0:
402,192,102135,1,10,0:0:0:0:
182,192,102135,1,0,0:0:0:70:hihat02.wav
256,192,102484,1,6,0:0:0:0:
36,192,102833,1,0,0:0:0:70:hihat02.wav
475,192,102833,1,0,0:0:0:70:snare.wav
329,192,103007,1,0,0:0:0:70:cymbol.wav
182,192,103007,1,0,0:0:0:70:bassdrum.wav
109,192,103356,1,0,0:0:0:70:cymbol.wav
402,192,103356,1,0,0:0:0:70:bassdrum.wav
182,192,103530,1,0,0:0:0:70:snare.wav
329,192,103618,1,0,0:0:0:70:snare.wav
182,192,103705,1,0,0:0:0:70:snare.wav
329,192,103792,1,0,0:0:0:70:snare.wav
36,192,103879,1,0,0:0:0:70:cymbol.wav
475,192,103879,1,0,0:0:0:70:bassdrum.wav
329,192,104228,1,0,0:0:0:70:snare.wav
36,192,104228,1,0,0:0:0:70:ride.wav
402,192,104577,1,6,0:0:0:0:
402,192,104751,1,0,0:0:0:70:bassdrum.wav
182,192,104926,1,0,0:0:0:70:snare.wav
36,192,104926,1,0,0:0:0:70:ride.wav
256,192,105275,1,6,0:0:0:0:
329,192,105624,1,0,0:0:0:70:snare.wav
36,192,105624,1,0,0:0:0:70:ride.wav
402,192,105972,1,6,0:0:0:0:
402,192,106147,1,0,0:0:0:70:bassdrum.wav
182,192,106321,1,0,0:0:0:70:snare.wav
36,192,106322,1,0,0:0:0:70:ride.wav
256,192,106670,1,6,0:0:0:0:
182,192,107019,1,0,0:0:0:70:snare.wav
475,192,107019,1,0,0:0:0:70:ride.wav
109,192,107368,1,6,0:0:0:0:
109,192,107542,1,0,0:0:0:70:bassdrum.wav
329,192,107717,1,0,0:0:0:70:snare.wav
475,192,107717,1,0,0:0:0:70:ride.wav
256,192,108065,1,6,0:0:0:0:
182,192,108414,1,0,0:0:0:70:snare.wav
475,192,108414,1,0,0:0:0:70:ride.wav
109,192,108763,1,6,0:0:0:0:
109,192,108937,1,0,0:0:0:70:bassdrum.wav
475,192,109112,1,0,0:0:0:70:ride.wav
329,192,109112,1,0,0:0:0:70:snare.wav
475,192,109461,1,0,0:0:0:70:bassdrum.wav
36,192,109461,1,0,0:0:0:70:cymbol.wav
329,192,109810,1,0,0:0:0:70:snare.wav
182,192,109810,1,0,0:0:0:70:ride.wav
109,192,110158,1,6,0:0:0:0:
402,192,110333,1,0,0:0:0:70:bassdrum.wav
329,192,110507,1,0,0:0:0:70:snare.wav
182,192,110507,1,0,0:0:0:70:ride.wav
256,192,110856,1,6,0:0:0:0:
329,192,111205,1,0,0:0:0:70:snare.wav
182,192,111205,1,0,0:0:0:70:ride.wav
109,192,111554,1,6,0:0:0:0:
402,192,111728,1,0,0:0:0:70:bassdrum.wav
329,192,111903,1,0,0:0:0:70:snare.wav
182,192,111903,1,0,0:0:0:70:ride.wav
475,192,112251,1,0,0:0:0:70:bassdrum.wav
36,192,112251,1,0,0:0:0:70:cymbol.wav
402,192,112600,1,0,0:0:0:70:snare.wav
109,192,112600,1,0,0:0:0:70:ride.wav
256,192,112949,1,6,0:0:0:0:
256,192,113124,1,0,0:0:0:70:bassdrum.wav
402,192,113298,1,0,0:0:0:70:snare.wav
109,192,113298,1,0,0:0:0:70:bassdrum.wav
329,192,113472,1,0,0:0:0:70:bassdrum.wav
36,192,113647,1,0,0:0:0:40:tom.wav
256,192,113647,1,0,0:0:0:30:snare.wav
182,192,113821,1,0,0:0:0:70:bassdrum.wav
256,192,113996,1,0,0:0:0:30:tom.wav
475,192,113996,1,0,0:0:0:30:snare.wav
329,192,114170,1,0,0:0:0:70:bassdrum.wav
109,192,114344,1,0,0:0:0:40:tom.wav
182,192,114432,1,0,0:0:0:40:tom.wav
256,192,114519,1,0,0:0:0:70:bassdrum.wav
475,192,114693,1,0,0:0:0:30:tom.wav
329,192,114868,1,0,0:0:0:40:tom01.wav
475,192,119052,1,0,0:0:0:40:tom01.wav
182,192,119227,1,0,0:0:0:70:bassdrum.wav
36,192,119401,1,0,0:0:0:70:bassdrum.wav
402,192,119576,1,0,0:0:0:70:snare.wav
182,192,119750,1,0,0:0:0:70:bassdrum.wav
36,192,119924,1,0,0:0:0:70:bassdrum.wav
402,192,120099,1,0,0:0:0:70:snare.wav
36,192,124109,1,0,0:0:0:70:snare.wav
182,192,124283,1,0,0:0:0:70:snare.wav
402,192,124458,1,0,0:0:0:70:bassdrum.wav
109,192,124632,1,0,0:0:0:70:snare.wav
329,192,124807,1,0,0:0:0:70:snare.wav
475,192,124981,1,0,0:0:0:70:bassdrum.wav
329,192,125155,1,0,0:0:0:70:snare.wav
182,192,125330,1,0,0:0:0:70:snare.wav
36,192,125504,1,0,0:0:0:70:cymbol.wav
475,192,125504,1,0,0:0:0:70:bassdrum.wav
475,192,125853,1,0,0:0:0:70:snare.wav
329,192,125853,1,0,0:0:0:70:hihat02.wav
109,192,126202,1,6,0:0:0:0:
109,192,126376,1,0,0:0:0:70:bassdrum.wav
329,192,126551,1,0,0:0:0:70:snare.wav
475,192,126551,1,0,0:0:0:70:hihat02.wav
256,192,126900,1,6,0:0:0:0:
109,192,127074,1,0,0:0:0:70:bassdrum.wav
329,192,127248,1,0,0:0:0:70:snare.wav
475,192,127248,1,0,0:0:0:70:hihat02.wav
109,192,127423,1,0,0:0:0:70:bassdrum.wav
475,192,127597,1,0,0:0:0:70:hihat02.wav
256,192,127772,1,0,0:0:0:70:bassdrum.wav
329,192,127946,1,0,0:0:0:70:snare.wav
475,192,127946,1,0,0:0:0:70:hihat02.wav
256,192,128295,1,6,0:0:0:0:
182,192,128644,1,0,0:0:0:70:snare.wav
36,192,128644,1,0,0:0:0:70:hihat02.wav
402,192,128993,1,6,0:0:0:0:
402,192,129167,1,0,0:0:0:70:bassdrum.wav
182,192,129341,1,0,0:0:0:70:snare.wav
36,192,129341,1,0,0:0:0:70:hihat02.wav
256,192,129690,1,6,0:0:0:0:
402,192,129865,1,0,0:0:0:70:bassdrum.wav
182,192,130039,1,0,0:0:0:70:snare.wav
36,192,130039,1,0,0:0:0:70:hihat02.wav
402,192,130214,1,0,0:0:0:70:bassdrum.wav
36,192,130388,1,0,0:0:0:70:hihat02.wav
256,192,130562,1,0,0:0:0:70:bassdrum.wav
182,192,130737,1,0,0:0:0:70:snare.wav
36,192,130737,1,0,0:0:0:70:hihat02.wav
402,192,130911,1,0,0:0:0:70:bassdrum.wav
475,192,131086,1,0,0:0:0:70:bassdrum.wav
36,192,131086,1,0,0:0:0:70:cymbol.wav
182,192,131434,1,0,0:0:0:70:snare.wav
329,192,131434,1,0,0:0:0:70:hihat02.wav
109,192,131783,1,6,0:0:0:0:
256,192,131958,1,0,0:0:0:70:bassdrum.wav
36,192,132132,1,0,0:0:0:70:snare.wav
475,192,132132,1,0,0:0:0:70:hihat02.wav
109,192,132481,1,6,0:0:0:0:
256,192,132655,1,0,0:0:0:70:bassdrum.wav
182,192,132830,1,0,0:0:0:70:snare.wav
329,192,132830,1,0,0:0:0:70:hihat02.wav
402,192,133004,1,0,0:0:0:70:bassdrum.wav
329,192,133179,1,0,0:0:0:70:hihat02.wav
256,192,133353,1,0,0:0:0:70:bassdrum.wav
36,192,133527,1,0,0:0:0:70:snare.wav
475,192,133527,1,0,0:0:0:70:hihat02.wav
256,192,133876,1,6,0:0:0:0:
402,192,134225,1,0,0:0:0:70:snare.wav
109,192,134225,1,0,0:0:0:70:hihat02.wav
182,192,134574,1,6,0:0:0:0:
329,192,134748,1,0,0:0:0:70:bassdrum.wav
402,192,134923,1,0,0:0:0:70:snare.wav
109,192,134923,1,0,0:0:0:70:hihat02.wav
256,192,135097,1,0,0:0:0:70:bassdrum.wav
36,192,135097,1,0,0:0:0:70:cymbol.wav
256,192,135446,1,0,0:0:0:70:bassdrum.wav
475,192,135446,1,0,0:0:0:70:cymbol.wav
36,192,135620,1,0,0:0:0:70:snare.wav
402,192,135795,1,0,0:0:0:70:bassdrum.wav
182,192,135795,1,0,0:0:0:70:cymbol.wav
329,192,136144,1,0,0:0:0:70:cymbol.wav
109,192,136144,1,0,0:0:0:70:bassdrum.wav
475,192,136318,1,0,0:0:0:70:snare.wav
256,192,136493,1,0,0:0:0:70:bassdrum.wav
475,192,136667,1,0,0:0:0:70:bassdrum.wav
36,192,136667,1,0,0:0:0:70:cymbol.wav
182,192,137016,1,0,0:0:0:70:snare.wav
329,192,137016,1,0,0:0:0:70:hihat02.wav
109,192,137365,1,6,0:0:0:0:
109,192,137539,1,0,0:0:0:70:bassdrum.wav
329,192,137714,1,0,0:0:0:70:snare.wav
475,192,137714,1,0,0:0:0:70:hihat02.wav
109,192,138062,1,6,0:0:0:0:
109,192,138237,1,0,0:0:0:70:bassdrum.wav
329,192,138411,1,0,0:0:0:70:snare.wav
182,192,138411,1,0,0:0:0:70:hihat02.wav
256,192,138586,1,0,0:0:0:70:bassdrum.wav
256,192,138934,1,0,0:0:0:70:bassdrum.wav
329,192,139109,1,0,0:0:0:70:snare.wav
475,192,139109,1,0,0:0:0:70:hihat02.wav
256,192,139458,1,6,0:0:0:0:
329,192,139807,1,0,0:0:0:70:snare.wav
182,192,139807,1,0,0:0:0:70:hihat02.wav
402,192,140155,1,6,0:0:0:0:
402,192,140330,1,0,0:0:0:70:bassdrum.wav
182,192,140504,1,0,0:0:0:70:snare.wav
36,192,140504,1,0,0:0:0:70:hihat02.wav
402,192,140853,1,6,0:0:0:0:
402,192,141027,1,0,0:0:0:70:bassdrum.wav
329,192,141202,1,0,0:0:0:70:snare.wav
182,192,141202,1,0,0:0:0:70:hihat02.wav
256,192,141376,1,0,0:0:0:70:bassdrum.wav
256,192,141725,1,0,0:0:0:70:bassdrum.wav
36,192,141900,1,0,0:0:0:70:snare.wav
182,192,141900,1,0,0:0:0:70:hihat02.wav
256,192,142074,1,0,0:0:0:70:bassdrum.wav
475,192,142248,1,0,0:0:0:70:snare.wav
329,192,142248,1,0,0:0:0:70:hihat02.wav
109,192,142423,1,0,0:0:0:70:bassdrum.wav
329,192,142597,1,0,0:0:0:70:snare.wav
475,192,142597,1,0,0:0:0:70:hihat02.wav
109,192,142772,1,0,0:0:0:70:bassdrum.wav
329,192,142946,1,0,0:0:0:70:snare.wav
475,192,142946,1,0,0:0:0:70:hihat02.wav
109,192,143120,1,0,0:0:0:70:bassdrum.wav
329,192,143295,1,0,0:0:0:70:snare.wav
475,192,143295,1,0,0:0:0:70:hihat02.wav
256,192,143469,1,0,0:0:0:70:bassdrum.wav
182,192,143644,1,0,0:0:0:70:snare.wav
36,192,143644,1,0,0:0:0:70:hihat02.wav
402,192,143818,1,0,0:0:0:70:bassdrum.wav
182,192,143993,1,0,0:0:0:70:snare.wav
36,192,143993,1,0,0:0:0:70:hihat02.wav
402,192,144167,1,0,0:0:0:70:bassdrum.wav
36,192,144341,1,0,0:0:0:70:snare.wav
182,192,144341,1,0,0:0:0:70:hihat02.wav
402,192,144516,1,0,0:0:0:70:bassdrum.wav
36,192,144690,1,0,0:0:0:70:snare.wav
182,192,144690,1,0,0:0:0:70:hihat02.wav
256,192,144865,1,0,0:0:0:70:bassdrum.wav
109,192,145039,1,0,0:0:0:70:snare.wav
402,192,145039,1,0,0:0:0:70:snare.wav
402,192,145214,1,0,0:0:0:70:cymbol.wav
109,192,145214,1,0,0:0:0:70:snare.wav
475,192,145562,1,0,0:0:0:70:snare.wav
36,192,145562,1,0,0:0:0:70:cymbol.wav
36,192,145737,1,0,0:0:0:70:snare.wav
475,192,145737,1,0,0:0:0:70:cymbol.wav
402,192,146086,1,0,0:0:0:70:cymbol.wav
109,192,146086,1,0,0:0:0:70:snare.wav
402,192,146260,1,0,0:0:0:70:cymbol.wav
109,192,146260,1,0,0:0:0:70:snare.wav
475,192,146609,1,0,0:0:0:70:snare.wav
36,192,146609,1,0,0:0:0:70:cymbol.wav
475,192,146783,1,0,0:0:0:70:snare.wav
36,192,146783,1,0,0:0:0:70:cymbol.wav
402,192,146958,1,0,0:0:0:70:bassdrum.wav
109,192,147045,1,0,0:0:0:70:bassdrum.wav
329,192,147132,1,0,0:0:0:50:snare.wav
182,192,147219,1,0,0:0:0:50:snare.wav
402,192,147307,1,0,0:0:0:50:snare.wav
109,192,147394,1,0,0:0:0:50:snare.wav
329,192,147481,1,0,0:0:0:50:snare.wav
182,192,147568,1,0,0:0:0:50:snare.wav
402,192,147655,1,0,0:0:0:50:snare.wav
109,192,147743,1,0,0:0:0:50:snare.wav
36,192,147830,1,0,0:0:0:70:bassdrum.wav
475,192,147830,1,0,0:0:0:70:cymbol.wav
329,192,148179,1,0,0:0:0:70:hihat02.wav
109,192,148179,1,10,0:0:0:0:
402,192,148527,1,6,0:0:0:0:
329,192,148876,1,0,0:0:0:70:hihat02.wav
109,192,148876,1,10,0:0:0:0:
256,192,149225,1,6,0:0:0:0:
329,192,149574,1,0,0:0:0:70:hihat02.wav
109,192,149574,1,10,0:0:0:0:
402,192,149923,1,6,0:0:0:0:
329,192,150272,1,0,0:0:0:70:hihat02.wav
109,192,150272,1,10,0:0:0:0:
256,192,150620,1,6,0:0:0:0:
182,192,150969,1,0,0:0:0:70:hihat02.wav
402,192,150969,1,10,0:0:0:0:
109,192,151318,1,6,0:0:0:0:
182,192,151667,1,0,0:0:0:70:hihat02.wav
402,192,151667,1,10,0:0:0:0:
256,192,152016,1,6,0:0:0:0:
182,192,152365,1,0,0:0:0:70:hihat02.wav
402,192,152365,1,10,0:0:0:0:
109,192,152714,1,6,0:0:0:0:
475,192,153062,1,0,0:0:0:70:cymbol.wav
182,192,153062,1,10,0:0:0:0:
256,192,153411,1,6,0:0:0:0:
329,192,153760,1,0,0:0:0:70:hihat02.wav
182,192,153760,1,10,0:0:0:0:
402,192,154109,1,6,0:0:0:0:
36,192,154458,1,0,0:0:0:70:hihat02.wav
182,192,154458,1,10,0:0:0:0:
256,192,154807,1,6,0:0:0:0:
329,192,155155,1,0,0:0:0:70:hihat02.wav
182,192,155155,1,10,0:0:0:0:
402,192,155504,1,6,0:0:0:0:
36,192,155852,1,0,0:0:0:70:hihat02.wav
182,192,155853,1,10,0:0:0:0:
256,192,156202,1,6,0:0:0:0:
182,192,156551,1,0,0:0:0:70:hihat02.wav
329,192,156551,1,10,0:0:0:0:
256,192,156900,1,6,0:0:0:0:
36,192,157074,1,0,0:0:0:70:snare.wav
109,192,157161,1,0,0:0:0:70:snare.wav
182,192,157248,1,0,0:0:0:70:snare.wav
475,192,157336,1,0,0:0:0:70:snare.wav
402,192,157423,1,0,0:0:0:70:snare.wav
329,192,157510,1,0,0:0:0:70:snare.wav
109,192,157597,1,0,0:0:0:70:bassdrum.wav
256,192,157684,1,0,0:0:0:40:tom01.wav
402,192,157772,1,0,0:0:0:40:tom.wav
36,192,157859,1,0,0:0:0:40:tom.wav
182,192,157946,1,0,0:0:0:40:tom01.wav
475,192,158033,1,0,0:0:0:40:tom01.wav
329,192,158120,1,0,0:0:0:70:cymbol.wav
402,192,158469,1,0,0:0:0:70:bassdrum.wav
109,192,158469,1,0,0:0:0:70:cymbol.wav
329,192,158644,1,0,0:0:0:70:snare.wav
182,192,158731,1,0,0:0:0:70:snare.wav
329,192,158818,1,0,0:0:0:70:snare.wav
182,192,158905,1,0,0:0:0:70:snare.wav
475,192,158993,1,0,0:0:0:70:bassdrum.wav
36,192,158993,1,0,0:0:0:70:cymbol.wav
329,192,159341,1,0,0:0:0:70:hihat02.wav
182,192,159341,1,10,0:0:0:0:
109,192,159690,1,6,0:0:0:0:
329,192,160039,1,0,0:0:0:70:hihat02.wav
182,192,160039,1,10,0:0:0:0:
256,192,160388,1,6,0:0:0:0:
329,192,160737,1,0,0:0:0:70:hihat02.wav
182,192,160737,1,10,0:0:0:0:
402,192,161086,1,6,0:0:0:0:
329,192,161434,1,0,0:0:0:70:hihat02.wav
182,192,161434,1,10,0:0:0:0:
256,192,161783,1,6,0:0:0:0:
36,192,162132,1,0,0:0:0:70:hihat02.wav
329,192,162132,1,10,0:0:0:0:
109,192,162481,1,6,0:0:0:0:
182,192,162830,1,0,0:0:0:70:hihat02.wav
329,192,162830,1,10,0:0:0:0:
256,192,163179,1,6,0:0:0:0:
36,192,163527,1,0,0:0:0:70:hihat02.wav
329,192,163527,1,10,0:0:0:0:
109,192,163876,1,6,0:0:0:0:
182,192,164225,1,0,0:0:0:70:hihat02.wav
329,192,164225,1,10,0:0:0:0:
256,192,164574,1,6,0:0:0:0:
182,192,164923,1,0,0:0:0:70:hihat02.wav
475,192,164923,1,10,0:0:0:0:
402,192,165272,1,6,0:0:0:0:
329,192,165620,1,10,0:0:0:0:
182,192,165620,1,0,0:0:0:70:hihat02.wav
256,192,165969,1,6,0:0:0:0:
475,192,166318,1,10,0:0:0:0:
182,192,166318,1,0,0:0:0:70:hihat02.wav
402,192,166667,1,6,0:0:0:0:
182,192,167016,1,0,0:0:0:70:hihat02.wav
329,192,167016,1,10,0:0:0:0:
475,192,167365,1,0,0:0:0:70:bassdrum.wav
36,192,167365,1,0,0:0:0:70:cymbol.wav
109,192,167539,1,0,0:0:0:70:snare.wav
402,192,167626,1,0,0:0:0:70:snare.wav
109,192,167714,1,0,0:0:0:70:snare.wav
402,192,167801,1,0,0:0:0:70:snare.wav
109,192,167888,1,0,0:0:0:70:snare.wav
402,192,167975,1,0,0:0:0:70:snare.wav
109,192,168062,1,0,0:0:0:70:cymbol.wav
329,192,168237,1,0,0:0:0:70:snare.wav
182,192,168324,1,0,0:0:0:70:snare.wav
329,192,168411,1,0,0:0:0:70:snare.wav
182,192,168498,1,0,0:0:0:70:snare.wav
329,192,168586,1,0,0:0:0:70:cymbol.wav
36,192,168760,1,0,0:0:0:70:snare.wav
109,192,168847,1,0,0:0:0:70:snare.wav
182,192,168934,1,0,0:0:0:70:cymbol.wav
475,192,169109,1,0,0:0:0:70:snare.wav
402,192,169196,1,0,0:0:0:70:snare.wav
329,192,169283,1,0,0:0:0:70:cymbol.wav
109,192,169458,1,0,0:0:0:70:snare.wav
402,192,169545,1,0,0:0:0:70:snare.wav
182,192,169632,1,0,0:0:0:70:snare.wav
329,192,169719,1,0,0:0:0:70:snare.wav
109,192,169807,1,0,0:0:0:70:snare.wav
402,192,169894,1,0,0:0:0:70:snare.wav
182,192,169981,1,0,0:0:0:70:snare.wav
329,192,170068,1,0,0:0:0:70:snare.wav
36,192,170155,1,0,0:0:0:70:cymbol.wav
475,192,170155,1,0,0:0:0:70:bassdrum.wav
256,192,170330,1,0,0:0:0:70:bassdrum.wav
329,192,170504,1,0,0:0:0:70:snare.wav
182,192,170504,1,0,0:0:0:70:ride.wav
402,192,170853,1,6,0:0:0:0:
109,192,171027,1,0,0:0:0:70:bassdrum.wav
329,192,171202,1,0,0:0:0:70:snare.wav
182,192,171202,1,0,0:0:0:70:ride.wav
402,192,171551,1,6,0:0:0:0:
256,192,171725,1,0,0:0:0:70:bassdrum.wav
329,192,171900,1,0,0:0:0:70:snare.wav
182,192,171900,1,0,0:0:0:70:ride.wav
109,192,172248,1,6,0:0:0:0:
256,192,172423,1,0,0:0:0:70:bassdrum.wav
329,192,172597,1,0,0:0:0:70:snare.wav
182,192,172597,1,0,0:0:0:70:ride.wav
109,192,172772,1,0,0:0:0:70:bassdrum.wav
256,192,172946,1,6,0:0:0:0:
402,192,173120,1,0,0:0:0:70:bassdrum.wav
329,192,173295,1,0,0:0:0:70:snare.wav
36,192,173295,1,0,0:0:0:70:ride.wav
402,192,173644,1,6,0:0:0:0:
256,192,173818,1,0,0:0:0:70:bassdrum.wav
182,192,173993,1,0,0:0:0:70:snare.wav
36,192,173993,1,0,0:0:0:70:ride.wav
256,192,174341,1,6,0:0:0:0:
402,192,174516,1,0,0:0:0:70:bassdrum.wav
329,192,174690,1,0,0:0:0:70:snare.wav
36,192,174691,1,0,0:0:0:70:ride.wav
402,192,175039,1,6,0:0:0:0:
256,192,175214,1,0,0:0:0:70:bassdrum.wav
182,192,175388,1,0,0:0:0:70:snare.wav
36,192,175388,1,0,0:0:0:70:ride.wav
402,192,175562,1,0,0:0:0:70:bassdrum.wav
256,192,175737,1,6,0:0:0:0:
109,192,175911,1,0,0:0:0:70:bassdrum.wav
182,192,176086,1,0,0:0:0:70:snare.wav
475,192,176086,1,0,0:0:0:70:ride.wav
109,192,176434,1,6,0:0:0:0:
256,192,176609,1,0,0:0:0:70:bassdrum.wav
329,192,176783,1,0,0:0:0:70:snare.wav
475,192,176783,1,0,0:0:0:70:ride.wav
256,192,177132,1,6,0:0:0:0:
109,192,177307,1,0,0:0:0:70:bassdrum.wav
182,192,177481,1,0,0:0:0:70:snare.wav
475,192,177481,1,0,0:0:0:70:ride.wav
475,192,177830,1,0,0:0:0:70:ride.wav
109,192,177830,1,0,0:0:0:70:bassdrum.wav
256,192,178004,1,0,0:0:0:70:bassdrum.wav
475,192,178179,1,0,0:0:0:70:ride.wav
329,192,178179,1,0,0:0:0:70:snare.wav
256,192,178353,1,0,0:0:0:70:bassdrum.wav
475,192,178527,1,0,0:0:0:70:bassdrum.wav
36,192,178527,1,0,0:0:0:70:cymbol.wav
256,192,178702,1,0,0:0:0:70:bassdrum.wav
329,192,178876,1,0,0:0:0:70:snare.wav
182,192,178876,1,0,0:0:0:70:ride.wav
109,192,179225,1,6,0:0:0:0:
402,192,179400,1,0,0:0:0:70:bassdrum.wav
329,192,179574,1,0,0:0:0:70:snare.wav
182,192,179574,1,0,0:0:0:70:ride.wav
256,192,179748,1,0,0:0:0:70:bassdrum.wav
109,192,179923,1,0,0:0:0:70:bassdrum.wav
475,192,180097,1,0,0:0:0:70:cymbol.wav
329,192,180097,1,0,0:0:0:70:bassdrum.wav
329,192,180272,1,0,0:0:0:70:bassdrum.wav
475,192,180272,1,0,0:0:0:70:cymbol.wav
402,192,180620,1,0,0:0:0:70:bassdrum.wav
182,192,180795,1,0,0:0:0:70:bassdrum.wav
36,192,180795,1,0,0:0:0:70:cymbol.wav
182,192,180969,1,0,0:0:0:70:bassdrum.wav
36,192,180969,1,0,0:0:0:70:cymbol.wav
475,192,181318,1,0,0:0:0:70:bassdrum.wav
36,192,181318,1,0,0:0:0:70:cymbol.wav
256,192,181493,1,0,0:0:0:70:bassdrum.wav
182,192,181667,1,0,0:0:0:70:snare.wav
329,192,181667,1,0,0:0:0:70:ride.wav
402,192,182016,1,6,0:0:0:0:
402,192,182190,1,0,0:0:0:70:bassdrum.wav
36,192,182365,1,0,0:0:0:70:snare.wav
182,192,182365,1,0,0:0:0:70:ride.wav
256,192,182714,1,6,0:0:0:0:
402,192,182888,1,0,0:0:0:70:bassdrum.wav
182,192,183062,1,0,0:0:0:70:snare.wav
329,192,183062,1,0,0:0:0:70:ride.wav
402,192,183411,1,6,0:0:0:0:
402,192,183586,1,0,0:0:0:70:bassdrum.wav
182,192,183760,1,0,0:0:0:70:snare.wav
36,192,183760,1,0,0:0:0:70:ride.wav
402,192,183934,1,0,0:0:0:70:bassdrum.wav
256,192,184109,1,6,0:0:0:0:
109,192,184283,1,0,0:0:0:70:bassdrum.wav
329,192,184458,1,0,0:0:0:70:snare.wav
182,192,184458,1,0,0:0:0:70:ride.wav
109,192,184807,1,6,0:0:0:0:
109,192,184981,1,0,0:0:0:70:bassdrum.wav
329,192,185155,1,0,0:0:0:70:snare.wav
475,192,185155,1,0,0:0:0:70:ride.wav
256,192,185504,1,6,0:0:0:0:
109,192,185679,1,0,0:0:0:70:bassdrum.wav
329,192,185853,1,0,0:0:0:70:snare.wav
182,192,185853,1,0,0:0:0:70:ride.wav
109,192,186202,1,6,0:0:0:0:
109,192,186376,1,0,0:0:0:70:bassdrum.wav
329,192,186551,1,0,0:0:0:70:snare.wav
475,192,186551,1,0,0:0:0:70:ride.wav
109,192,186725,1,0,0:0:0:70:bassdrum.wav
256,192,186900,1,6,0:0:0:0:
402,192,187074,1,0,0:0:0:70:bassdrum.wav
256,192,187248,1,0,0:0:0:70:snare.wav
36,192,187248,1,0,0:0:0:70:ride.wav
402,192,187597,1,6,0:0:0:0:
402,192,187772,1,0,0:0:0:70:bassdrum.wav
182,192,187946,1,0,0:0:0:70:snare.wav
36,192,187946,1,0,0:0:0:70:ride.wav
402,192,188295,1,6,0:0:0:0:
402,192,188469,1,0,0:0:0:70:bassdrum.wav
256,192,188644,1,0,0:0:0:70:snare.wav
36,192,188644,1,0,0:0:0:70:ride.wav
402,192,188993,1,6,0:0:0:0:
402,192,189167,1,0,0:0:0:70:bassdrum.wav
182,192,189341,1,0,0:0:0:70:snare.wav
36,192,189341,1,0,0:0:0:70:ride.wav
329,192,189690,1,6,0:0:0:0:
182,192,189865,1,0,0:0:0:70:bassdrum.wav
402,192,190039,1,0,0:0:0:70:snare.wav
109,192,190039,1,0,0:0:0:70:ride.wav
329,192,190388,1,6,0:0:0:0:
182,192,190562,1,0,0:0:0:70:bassdrum.wav
109,192,190737,1,0,0:0:0:70:snare.wav
402,192,190737,1,0,0:0:0:70:snare.wav
256,192,190911,1,0,0:0:0:70:bassdrum.wav
36,192,191086,1,0,0:0:0:70:snare.wav
475,192,191086,1,0,0:0:0:70:snare.wav
256,192,191260,1,0,0:0:0:70:bassdrum.wav
402,192,191434,1,0,0:0:0:70:snare.wav
109,192,191434,1,0,0:0:0:30:snare.wav
256,192,191609,1,0,0:0:0:70:bassdrum.wav
36,192,191783,1,0,0:0:0:70:snare.wav
475,192,191783,1,0,0:0:0:30:snare.wav
256,192,191958,1,0,0:0:0:70:bassdrum.wav
329,192,192132,1,0,0:0:0:70:snare.wav
182,192,192132,1,0,0:0:0:30:snare.wav
256,192,192307,1,0,0:0:0:70:bassdrum.wav
475,192,192481,1,0,0:0:0:70:bassdrum.wav
36,192,192481,1,0,0:0:0:70:cymbol.wav
256,192,192655,1,0,0:0:0:70:bassdrum.wav
329,192,192830,1,0,0:0:0:70:snare.wav
182,192,192830,1,0,0:0:0:70:cymbol.wav
109,192,193179,1,0,0:0:0:70:cymbol.wav
36,192,193527,1,0,0:0:0:70:cymbol.wav
475,192,193527,1,10,0:0:0:0:
256,192,193702,1,0,0:0:0:70:bassdrum.wav
402,192,193876,1,0,0:0:0:70:cymbol.wav
182,192,194225,1,0,0:0:0:70:cymbol.wav
329,192,194225,1,0,0:0:0:70:snare.wav
109,192,194574,1,0,0:0:0:70:bassdrum.wav
402,192,194574,1,0,0:0:0:70:cymbol.wav
256,192,194748,1,0,0:0:0:70:bassdrum.wav
36,192,194923,1,0,0:0:0:70:cymbol.wav
475,192,194923,1,0,0:0:0:70:snare.wav
402,192,195272,1,0,0:0:0:70:cymbol.wav
256,192,195446,1,0,0:0:0:70:bassdrum.wav
182,192,195620,1,0,0:0:0:70:cymbol.wav
329,192,195620,1,0,0:0:0:70:snare.wav
109,192,195969,1,0,0:0:0:70:cymbol.wav
36,192,196318,1,10,0:0:0:0:
475,192,196318,1,0,0:0:0:70:cymbol.wav
402,192,196493,1,0,0:0:0:70:bassdrum.wav
109,192,196667,1,0,0:0:0:70:cymbol.wav
329,192,197016,1,0,0:0:0:70:cymbol.wav
182,192,197016,1,0,0:0:0:70:snare.wav
256,192,197190,1,0,0:0:0:70:bassdrum.wav
475,192,197365,1,0,0:0:0:70:bassdrum.wav
36,192,197365,1,0,0:0:0:45:tom01.wav
475,192,197539,1,0,0:0:0:70:bassdrum.wav
36,192,197539,1,0,0:0:0:45:tom01.wav
475,192,197714,1,0,0:0:0:70:bassdrum.wav
36,192,197714,1,0,0:0:0:45:tom01.wav
475,192,197888,1,0,0:0:0:70:bassdrum.wav
36,192,197888,1,0,0:0:0:45:tom01.wav
