osu file format v14

[General]
AudioFilename: 07 Nothing Helps.mp3
AudioLeadIn: 0
PreviewTime: 83435
Countdown: 0
SampleSet: None
StackLeniency: 0.7
Mode: 1
LetterboxInBreaks: 0
WidescreenStoryboard: 0

[Editor]
DistanceSpacing: 2
BeatDivisor: 4
GridSize: 4
TimelineZoom: 2.4

[Metadata]
Title:Nothing Helps
TitleUnicode:Nothing Helps
Artist:ONE OK ROCK
ArtistUnicode:ONE OK ROCK
Creator:SKSalt
Version:Oni
Source:
Tags:
BeatmapID:1095133
BeatmapSetID:515707

[Difficulty]
HPDrainRate:6
CircleSize:5
OverallDifficulty:6
ApproachRate:5
SliderMultiplier:1.4
SliderTickRate:1

[Events]
//Background and Video events
0,0,"Bike.jpg",0,50
//Break Periods
2,188889,192763
//Storyboard Layer 0 (Background)
//Storyboard Layer 1 (Fail)
//Storyboard Layer 2 (Pass)
//Storyboard Layer 3 (Foreground)
//Storyboard Sound Samples

[TimingPoints]
2756.11956521739,659.340659340659,4,1,0,80,1,0
30942,-66.6666666666667,4,1,0,80,0,0
31602,329.67032967033,4,1,0,80,1,8
31766,329.67032967033,4,1,0,80,1,0
84348,-100,4,1,0,80,0,1
105612,-100,4,1,0,80,0,0
137095,-100,4,1,0,80,0,1
158359,-100,4,1,0,80,0,0
193963,659.340659340659,4,1,0,50,1,0
203441,-66.6666666666667,4,1,0,60,0,0
212424,329.67032967033,4,1,0,60,1,0
212753,-100,4,1,0,64,0,0
213083,-100,4,1,0,68,0,0
213413,-100,4,1,0,72,0,0
213742,-100,4,1,0,76,0,0
214072,-100,4,1,0,80,0,0
214896,-100,4,1,0,80,0,1
215061,329.67032967033,4,1,0,80,1,1
236159,-100,4,1,0,80,0,0
267808,329.67032967033,4,1,0,80,1,8
268055,329.67032967033,4,1,0,80,1,0

[HitObjects]
168,268,2756,5,0,0:0:0:0:
168,268,3415,1,8,0:0:0:0:
196,248,4074,1,0,0:0:0:0:
196,248,4734,1,8,0:0:0:0:
196,248,5393,1,0,0:0:0:0:
196,248,6052,1,8,0:0:0:0:
196,248,6712,1,0,0:0:0:0:
196,248,7206,1,0,0:0:0:0:
196,248,7371,1,8,0:0:0:0:
196,248,7701,1,8,0:0:0:0:
244,192,8030,1,0,0:0:0:0:
244,192,8690,1,8,0:0:0:0:
240,184,9349,1,0,0:0:0:0:
240,184,10008,1,8,0:0:0:0:
240,184,10668,1,0,0:0:0:0:
240,184,11327,1,8,0:0:0:0:
240,184,11986,1,0,0:0:0:0:
240,184,12481,1,0,0:0:0:0:
240,184,12646,1,8,0:0:0:0:
240,184,12975,1,8,0:0:0:0:
168,268,13305,1,0,0:0:0:0:
168,268,13964,1,8,0:0:0:0:
196,248,14624,1,0,0:0:0:0:
196,248,15283,1,8,0:0:0:0:
196,248,15942,1,0,0:0:0:0:
196,248,16602,1,8,0:0:0:0:
196,248,17261,1,0,0:0:0:0:
196,248,17756,1,0,0:0:0:0:
196,248,17920,1,8,0:0:0:0:
196,248,18250,1,8,0:0:0:0:
244,192,18580,1,0,0:0:0:0:
244,192,19239,1,8,0:0:0:0:
240,184,19898,1,0,0:0:0:0:
240,184,20558,1,8,0:0:0:0:
240,184,21217,1,0,0:0:0:0:
240,184,21876,1,8,0:0:0:0:
240,184,22536,1,0,0:0:0:0:
240,184,23030,1,0,0:0:0:0:
240,184,23195,1,8,0:0:0:0:
240,184,23525,1,8,0:0:0:0:
168,268,23855,1,0,0:0:0:0:
168,268,24514,1,8,0:0:0:0:
196,248,25173,1,0,0:0:0:0:
196,248,25833,1,8,0:0:0:0:
240,208,26162,1,0,0:0:0:0:
240,208,26327,1,0,0:0:0:0:
240,208,26492,1,8,0:0:0:0:
244,152,31107,1,4,0:0:0:0:
244,152,31272,1,6,0:0:0:0:
280,164,31602,1,4,0:0:0:0:
272,172,31930,1,0,0:0:0:0:
272,172,32095,1,8,0:0:0:0:
272,172,32260,1,0,0:0:0:0:
272,172,32425,1,0,0:0:0:0:
272,172,32590,1,8,0:0:0:0:
272,172,32755,1,0,0:0:0:0:
272,172,32919,1,0,0:0:0:0:
272,172,33084,1,8,0:0:0:0:
272,172,33249,1,0,0:0:0:0:
272,172,33414,1,0,0:0:0:0:
272,172,33496,1,8,0:0:0:0:
272,172,33579,1,0,0:0:0:0:
272,172,33661,1,0,0:0:0:0:
272,172,33744,1,8,0:0:0:0:
272,172,33826,1,8,0:0:0:0:
272,172,33908,1,8,0:0:0:0:
272,172,33991,1,8,0:0:0:0:
272,172,34073,1,0,0:0:0:0:
272,172,34156,1,8,0:0:0:0:
272,172,34238,1,0,0:0:0:0:
304,208,34568,1,0,0:0:0:0:
304,208,34733,1,8,0:0:0:0:
304,208,34897,1,0,0:0:0:0:
304,208,35062,1,0,0:0:0:0:
304,208,35227,1,8,0:0:0:0:
304,208,35392,1,0,0:0:0:0:
304,208,35557,1,0,0:0:0:0:
304,208,35722,1,8,0:0:0:0:
304,208,35886,1,0,0:0:0:0:
304,208,36051,1,0,0:0:0:0:
304,208,36216,1,0,0:0:0:0:
328,220,36298,1,0,0:0:0:0:
328,220,36381,1,8,0:0:0:0:
324,220,36546,1,0,0:0:0:0:
324,216,36711,1,8,0:0:0:0:
324,216,36875,1,4,0:0:0:0:
272,172,37205,1,0,0:0:0:0:
272,172,37370,1,8,0:0:0:0:
272,172,37535,1,0,0:0:0:0:
272,172,37700,1,0,0:0:0:0:
272,172,37864,1,8,0:0:0:0:
272,172,38029,1,0,0:0:0:0:
272,172,38194,1,0,0:0:0:0:
272,172,38359,1,8,0:0:0:0:
272,172,38524,1,0,0:0:0:0:
272,172,38689,1,0,0:0:0:0:
272,172,38771,1,8,0:0:0:0:
272,172,38853,1,0,0:0:0:0:
272,172,38936,1,0,0:0:0:0:
272,172,39018,1,0,0:0:0:0:
272,172,39101,1,8,0:0:0:0:
272,172,39183,1,8,0:0:0:0:
272,172,39266,1,8,0:0:0:0:
272,172,39348,1,0,0:0:0:0:
272,172,39430,1,8,0:0:0:0:
272,172,39513,1,0,0:0:0:0:
304,208,39842,1,0,0:0:0:0:
304,208,40007,1,8,0:0:0:0:
304,208,40172,1,0,0:0:0:0:
304,208,40337,1,0,0:0:0:0:
304,208,40502,1,8,0:0:0:0:
304,208,40667,1,0,0:0:0:0:
304,208,40831,1,0,0:0:0:0:
304,208,40996,1,8,0:0:0:0:
304,208,41161,1,0,0:0:0:0:
304,208,41326,1,8,0:0:0:0:
232,192,41491,1,0,0:0:0:0:
232,192,41573,1,0,0:0:0:0:
328,220,41656,1,2,0:0:0:0:
324,220,41820,1,2,0:0:0:0:
324,216,42150,1,4,0:0:0:0:
308,244,42480,1,0,0:0:0:0:
308,244,42645,1,8,0:0:0:0:
308,244,42809,1,0,0:0:0:0:
308,244,42974,1,0,0:0:0:0:
308,244,43139,1,8,0:0:0:0:
308,244,43304,1,0,0:0:0:0:
308,244,43469,1,0,0:0:0:0:
308,244,43634,1,8,0:0:0:0:
308,244,43798,1,0,0:0:0:0:
308,244,43963,1,0,0:0:0:0:
308,244,44046,1,8,0:0:0:0:
308,244,44128,1,0,0:0:0:0:
308,244,44211,1,0,0:0:0:0:
308,244,44293,1,0,0:0:0:0:
308,244,44375,1,8,0:0:0:0:
308,244,44458,1,8,0:0:0:0:
308,244,44540,1,8,0:0:0:0:
308,244,44623,1,8,0:0:0:0:
308,244,44705,1,8,0:0:0:0:
308,244,44787,1,0,0:0:0:0:
308,244,45117,1,0,0:0:0:0:
308,244,45282,1,8,0:0:0:0:
308,244,45447,1,0,0:0:0:0:
308,244,45612,1,0,0:0:0:0:
308,244,45776,1,8,0:0:0:0:
308,244,45941,1,0,0:0:0:0:
308,244,46106,1,0,0:0:0:0:
308,244,46271,1,8,0:0:0:0:
308,244,46436,1,0,0:0:0:0:
308,244,46601,1,8,0:0:0:0:
308,244,46766,1,0,0:0:0:0:
308,244,46848,1,0,0:0:0:0:
308,244,46930,1,0,0:0:0:0:
308,244,47013,1,8,0:0:0:0:
308,244,47095,1,8,0:0:0:0:
308,244,47178,1,8,0:0:0:0:
308,244,47260,1,8,0:0:0:0:
308,244,47342,1,8,0:0:0:0:
308,244,47425,1,0,0:0:0:0:
308,244,47755,1,0,0:0:0:0:
308,244,47919,1,8,0:0:0:0:
308,244,48084,1,0,0:0:0:0:
308,244,48249,1,0,0:0:0:0:
308,244,48414,1,8,0:0:0:0:
308,244,48579,1,0,0:0:0:0:
308,244,48744,1,0,0:0:0:0:
308,244,48908,1,8,0:0:0:0:
308,244,49073,1,0,0:0:0:0:
308,244,49238,1,0,0:0:0:0:
308,244,49320,1,8,0:0:0:0:
308,244,49403,1,0,0:0:0:0:
308,244,49485,1,0,0:0:0:0:
308,244,49568,1,0,0:0:0:0:
308,244,49650,1,8,0:0:0:0:
308,244,49733,1,8,0:0:0:0:
308,244,49815,1,8,0:0:0:0:
308,244,49897,1,8,0:0:0:0:
308,244,49980,1,8,0:0:0:0:
308,244,50062,1,0,0:0:0:0:
232,280,50392,1,0,0:0:0:0:
232,280,50557,1,8,0:0:0:0:
232,280,50722,1,0,0:0:0:0:
232,280,50886,1,0,0:0:0:0:
232,280,51051,1,8,0:0:0:0:
232,280,51216,1,0,0:0:0:0:
232,280,51381,1,0,0:0:0:0:
212,184,51546,1,8,0:0:0:0:
212,184,51875,1,0,0:0:0:0:
100,204,52040,1,8,0:0:0:0:
212,184,52205,1,0,0:0:0:0:
284,152,52535,1,8,0:0:0:0:
352,228,52700,1,0,0:0:0:0:
284,152,52864,1,12,0:0:0:0:
276,208,53029,1,0,0:0:0:0:
276,208,53359,1,0,0:0:0:0:
264,204,53524,1,8,0:0:0:0:
316,200,53689,1,0,0:0:0:0:
316,200,53853,1,0,0:0:0:0:
304,200,54018,1,8,0:0:0:0:
304,200,54101,1,8,0:0:0:0:
304,200,54183,1,0,0:0:0:0:
324,164,54348,1,8,0:0:0:0:
324,164,54513,1,0,0:0:0:0:
324,164,54678,1,0,0:0:0:0:
324,164,54842,1,8,0:0:0:0:
324,164,55172,1,8,0:0:0:0:
324,164,55337,1,0,0:0:0:0:
324,164,55502,1,8,0:0:0:0:
304,200,55667,1,0,0:0:0:0:
232,180,55749,1,0,0:0:0:0:
216,180,55831,1,0,0:0:0:0:
304,200,55996,1,0,0:0:0:0:
300,196,56161,1,8,0:0:0:0:
300,192,56491,1,0,0:0:0:0:
300,192,56656,1,0,0:0:0:0:
292,188,56738,1,8,0:0:0:0:
292,192,56820,1,0,0:0:0:0:
256,176,56985,1,8,0:0:0:0:
272,236,57150,1,0,0:0:0:0:
272,236,57315,1,0,0:0:0:0:
272,236,57480,1,8,0:0:0:0:
280,172,57809,1,8,0:0:0:0:
168,208,57974,1,0,0:0:0:0:
264,232,58139,1,8,0:0:0:0:
300,180,58304,1,0,0:0:0:0:
304,180,58634,1,0,0:0:0:0:
304,180,58798,1,8,0:0:0:0:
304,180,58963,1,0,0:0:0:0:
296,184,59128,1,0,0:0:0:0:
304,184,59293,1,0,0:0:0:0:
304,184,59375,1,0,0:0:0:0:
304,184,59458,1,0,0:0:0:0:
312,168,59623,1,8,0:0:0:0:
312,168,59787,1,0,0:0:0:0:
312,168,59952,1,0,0:0:0:0:
220,224,60117,1,8,0:0:0:0:
296,212,60447,1,0,0:0:0:0:
296,212,60612,1,8,0:0:0:0:
204,112,60776,1,0,0:0:0:0:
332,240,60941,1,8,0:0:0:0:
332,240,61271,1,0,0:0:0:0:
332,240,61436,1,8,0:0:0:0:
332,240,61601,1,0,0:0:0:0:
332,240,61766,1,0,0:0:0:0:
140,172,61930,1,8,0:0:0:0:
128,160,62013,1,0,0:0:0:0:
136,168,62095,1,8,0:0:0:0:
196,140,62260,1,0,0:0:0:0:
196,140,62425,1,8,0:0:0:0:
196,140,62590,1,0,0:0:0:0:
196,140,62672,1,8,0:0:0:0:
196,140,62755,1,8,0:0:0:0:
196,140,62919,1,0,0:0:0:0:
196,140,63084,1,8,0:0:0:0:
196,140,63249,1,4,0:0:0:0:
352,232,63579,1,0,0:0:0:0:
328,188,63744,1,8,0:0:0:0:
336,196,64073,1,0,0:0:0:0:
336,196,64238,1,0,0:0:0:0:
336,196,64403,1,8,0:0:0:0:
328,204,64568,1,8,0:0:0:0:
324,204,64650,1,0,0:0:0:0:
336,196,64733,1,0,0:0:0:0:
336,196,64897,1,0,0:0:0:0:
336,196,65062,1,8,0:0:0:0:
216,184,65227,1,0,0:0:0:0:
224,184,65309,1,8,0:0:0:0:
376,176,65392,1,0,0:0:0:0:
376,176,65557,1,0,0:0:0:0:
376,176,65722,1,8,0:0:0:0:
376,176,65886,1,8,0:0:0:0:
188,172,65969,1,8,0:0:0:0:
112,212,66051,1,0,0:0:0:0:
332,216,66216,1,0,0:0:0:0:
332,216,66381,1,8,0:0:0:0:
332,216,66711,1,0,0:0:0:0:
332,216,66875,1,0,0:0:0:0:
332,216,67040,1,8,0:0:0:0:
200,128,67205,1,0,0:0:0:0:
200,128,67287,1,0,0:0:0:0:
332,216,67370,1,0,0:0:0:0:
332,216,67535,1,0,0:0:0:0:
332,216,67700,1,8,0:0:0:0:
332,216,68029,1,0,0:0:0:0:
332,216,68194,1,0,0:0:0:0:
332,216,68359,1,8,0:0:0:0:
332,216,68524,1,0,0:0:0:0:
224,180,68606,1,8,0:0:0:0:
224,180,68689,1,0,0:0:0:0:
332,216,68853,1,0,0:0:0:0:
332,216,69018,1,8,0:0:0:0:
268,176,69348,1,0,0:0:0:0:
268,176,69513,1,0,0:0:0:0:
268,176,69678,1,8,0:0:0:0:
268,176,70007,1,0,0:0:0:0:
268,176,70172,1,0,0:0:0:0:
268,176,70337,1,8,0:0:0:0:
320,176,70502,1,0,0:0:0:0:
292,156,70584,1,0,0:0:0:0:
292,156,70667,1,8,0:0:0:0:
268,176,70831,1,0,0:0:0:0:
268,176,70996,1,8,0:0:0:0:
268,176,71161,1,8,0:0:0:0:
240,156,71244,1,8,0:0:0:0:
116,176,71326,1,0,0:0:0:0:
312,216,71491,1,0,0:0:0:0:
312,216,71656,1,8,0:0:0:0:
176,180,71820,1,8,0:0:0:0:
168,176,71903,1,0,0:0:0:0:
176,180,71985,1,8,0:0:0:0:
304,192,72150,1,0,0:0:0:0:
304,192,72315,1,8,0:0:0:0:
168,176,72480,1,0,0:0:0:0:
168,176,72562,1,0,0:0:0:0:
304,192,72645,1,0,0:0:0:0:
304,192,72809,1,0,0:0:0:0:
304,192,72974,1,8,0:0:0:0:
192,132,73139,1,0,0:0:0:0:
192,132,73222,1,8,0:0:0:0:
304,192,73304,1,0,0:0:0:0:
304,192,73469,1,8,0:0:0:0:
304,192,73634,1,8,0:0:0:0:
304,192,73798,1,4,0:0:0:0:
356,252,74128,1,0,0:0:0:0:
356,252,74293,1,8,0:0:0:0:
356,252,74623,1,0,0:0:0:0:
356,252,74787,1,8,0:0:0:0:
288,208,74870,1,0,0:0:0:0:
356,252,74952,1,8,0:0:0:0:
356,252,75117,1,8,0:0:0:0:
368,252,75282,1,0,0:0:0:0:
368,252,75447,1,0,0:0:0:0:
368,252,75612,1,8,0:0:0:0:
376,252,75941,1,0,0:0:0:0:
376,252,76106,1,0,0:0:0:0:
376,252,76271,1,8,0:0:0:0:
376,252,76436,1,4,0:0:0:0:
248,184,76766,1,0,0:0:0:0:
232,172,76930,1,8,0:0:0:0:
228,180,77260,1,0,0:0:0:0:
228,180,77425,1,8,0:0:0:0:
228,180,77590,1,8,0:0:0:0:
352,280,77672,1,0,0:0:0:0:
228,180,77755,1,8,0:0:0:0:
228,180,77919,1,0,0:0:0:0:
228,180,78084,1,0,0:0:0:0:
228,180,78249,1,8,0:0:0:0:
332,240,78579,1,0,0:0:0:0:
332,240,78744,1,0,0:0:0:0:
332,240,78908,1,8,0:0:0:0:
332,240,79073,1,4,0:0:0:0:
356,252,79403,1,0,0:0:0:0:
356,252,79568,1,8,0:0:0:0:
356,252,79897,1,0,0:0:0:0:
356,252,80062,1,8,0:0:0:0:
288,208,80145,1,0,0:0:0:0:
356,252,80227,1,8,0:0:0:0:
356,252,80392,1,8,0:0:0:0:
368,252,80557,1,0,0:0:0:0:
368,252,80722,1,0,0:0:0:0:
368,252,80886,1,8,0:0:0:0:
376,252,81216,1,0,0:0:0:0:
376,252,81381,1,0,0:0:0:0:
376,252,81546,1,8,0:0:0:0:
376,252,81711,1,4,0:0:0:0:
248,184,82040,1,0,0:0:0:0:
232,172,82205,1,8,0:0:0:0:
336,212,82370,1,0,0:0:0:0:
264,172,82535,1,8,0:0:0:0:
264,172,82617,1,8,0:0:0:0:
264,172,82700,1,0,0:0:0:0:
264,172,82782,1,0,0:0:0:0:
264,172,82864,1,8,0:0:0:0:
264,172,82947,1,0,0:0:0:0:
264,172,83029,1,0,0:0:0:0:
264,172,83112,1,0,0:0:0:0:
264,172,83194,1,8,0:0:0:0:
288,280,84348,1,4,0:0:0:0:
288,248,84678,1,0,0:0:0:0:
288,248,84842,1,8,0:0:0:0:
288,248,85172,1,0,0:0:0:0:
288,248,85337,1,0,0:0:0:0:
288,248,85502,1,8,0:0:0:0:
336,224,85667,1,8,0:0:0:0:
336,224,85749,1,8,0:0:0:0:
288,248,85831,1,0,0:0:0:0:
288,248,85996,1,0,0:0:0:0:
288,248,86161,1,8,0:0:0:0:
328,164,86326,1,0,0:0:0:0:
328,164,86408,1,8,0:0:0:0:
288,248,86491,1,0,0:0:0:0:
288,248,86656,1,0,0:0:0:0:
288,248,86820,1,8,0:0:0:0:
288,248,86985,1,0,0:0:0:0:
192,160,87068,1,0,0:0:0:0:
312,204,87150,1,0,0:0:0:0:
312,204,87315,1,0,0:0:0:0:
312,204,87480,1,8,0:0:0:0:
200,172,87645,1,8,0:0:0:0:
200,172,87727,1,8,0:0:0:0:
312,204,87809,1,0,0:0:0:0:
312,184,87974,1,0,0:0:0:0:
312,184,88139,1,8,0:0:0:0:
168,148,88222,1,0,0:0:0:0:
168,144,88304,1,0,0:0:0:0:
160,136,88386,1,0,0:0:0:0:
160,136,88469,1,8,0:0:0:0:
312,184,88634,1,0,0:0:0:0:
312,184,88798,1,8,0:0:0:0:
348,164,88963,1,0,0:0:0:0:
348,164,89046,1,0,0:0:0:0:
312,184,89128,1,8,0:0:0:0:
312,184,89293,1,0,0:0:0:0:
312,184,89458,1,8,0:0:0:0:
312,184,89623,1,4,0:0:0:0:
312,148,89952,1,0,0:0:0:0:
300,144,90117,1,8,0:0:0:0:
300,144,90447,1,0,0:0:0:0:
300,144,90612,1,0,0:0:0:0:
300,144,90776,1,8,0:0:0:0:
328,208,90941,1,0,0:0:0:0:
328,216,91024,1,0,0:0:0:0:
300,144,91106,1,0,0:0:0:0:
300,144,91271,1,0,0:0:0:0:
300,144,91436,1,8,0:0:0:0:
232,148,91601,1,0,0:0:0:0:
232,144,91683,1,8,0:0:0:0:
300,144,91766,1,0,0:0:0:0:
300,144,91930,1,0,0:0:0:0:
300,144,92095,1,8,0:0:0:0:
356,192,92260,1,0,0:0:0:0:
272,184,92342,1,0,0:0:0:0:
260,172,92425,1,8,0:0:0:0:
360,188,92590,1,0,0:0:0:0:
360,184,92755,1,8,0:0:0:0:
272,200,92919,1,8,0:0:0:0:
272,192,93002,1,8,0:0:0:0:
360,180,93084,1,0,0:0:0:0:
360,180,93249,1,0,0:0:0:0:
360,176,93414,1,8,0:0:0:0:
236,148,93579,1,8,0:0:0:0:
232,132,93661,1,0,0:0:0:0:
360,168,93744,1,0,0:0:0:0:
232,128,93826,1,0,0:0:0:0:
360,168,93908,1,8,0:0:0:0:
360,168,94073,1,8,0:0:0:0:
360,168,94238,1,8,0:0:0:0:
360,168,94320,1,0,0:0:0:0:
360,168,94403,1,8,0:0:0:0:
360,168,94568,1,0,0:0:0:0:
360,168,94733,1,8,0:0:0:0:
360,168,94897,1,4,0:0:0:0:
332,228,95227,1,0,0:0:0:0:
332,220,95392,1,8,0:0:0:0:
332,220,95722,1,0,0:0:0:0:
332,220,95886,1,0,0:0:0:0:
332,220,96051,1,8,0:0:0:0:
248,136,96216,1,0,0:0:0:0:
248,136,96298,1,8,0:0:0:0:
332,220,96381,1,0,0:0:0:0:
332,216,96546,1,0,0:0:0:0:
332,216,96711,1,8,0:0:0:0:
252,148,96875,1,0,0:0:0:0:
240,128,96958,1,0,0:0:0:0:
332,220,97040,1,0,0:0:0:0:
332,220,97205,1,0,0:0:0:0:
332,220,97370,1,8,0:0:0:0:
332,220,97535,1,0,0:0:0:0:
276,176,97617,1,8,0:0:0:0:
332,220,97700,1,8,0:0:0:0:
332,220,97864,1,0,0:0:0:0:
332,216,98029,1,8,0:0:0:0:
252,188,98112,1,0,0:0:0:0:
296,228,98194,1,8,0:0:0:0:
252,188,98276,1,8,0:0:0:0:
332,220,98359,1,0,0:0:0:0:
332,220,98524,1,0,0:0:0:0:
332,220,98689,1,8,0:0:0:0:
248,172,98771,1,8,0:0:0:0:
244,152,98853,1,0,0:0:0:0:
244,152,98936,1,0,0:0:0:0:
332,220,99018,1,8,0:0:0:0:
332,220,99183,1,0,0:0:0:0:
332,220,99348,1,8,0:0:0:0:
288,144,99513,1,0,0:0:0:0:
272,120,99595,1,0,0:0:0:0:
336,212,99678,1,8,0:0:0:0:
336,212,99842,1,0,0:0:0:0:
336,212,100007,1,8,0:0:0:0:
336,212,100172,1,4,0:0:0:0:
300,208,100502,1,0,0:0:0:0:
288,200,100667,1,8,0:0:0:0:
288,200,100996,1,0,0:0:0:0:
288,200,101161,1,0,0:0:0:0:
288,200,101326,1,8,0:0:0:0:
216,168,101491,1,8,0:0:0:0:
208,152,101573,1,8,0:0:0:0:
288,200,101656,1,0,0:0:0:0:
288,200,101820,1,0,0:0:0:0:
288,200,101985,1,8,0:0:0:0:
328,184,102150,1,0,0:0:0:0:
320,172,102233,1,0,0:0:0:0:
288,200,102315,1,0,0:0:0:0:
288,200,102480,1,0,0:0:0:0:
288,200,102645,1,8,0:0:0:0:
248,128,102809,1,0,0:0:0:0:
272,160,102892,1,0,0:0:0:0:
288,200,102974,1,8,0:0:0:0:
288,200,103139,1,0,0:0:0:0:
288,200,103304,1,8,0:0:0:0:
304,172,103469,1,8,0:0:0:0:
304,172,103551,1,8,0:0:0:0:
288,200,103634,1,0,0:0:0:0:
288,200,103798,1,0,0:0:0:0:
288,200,103963,1,8,0:0:0:0:
256,168,104128,1,0,0:0:0:0:
316,176,104211,1,0,0:0:0:0:
288,200,104293,1,8,0:0:0:0:
308,168,104375,1,8,0:0:0:0:
288,200,104458,1,0,0:0:0:0:
288,200,104623,1,8,0:0:0:0:
316,184,104787,1,8,0:0:0:0:
312,184,104870,1,0,0:0:0:0:
304,184,104952,1,8,0:0:0:0:
304,184,105117,1,0,0:0:0:0:
304,184,105282,1,0,0:0:0:0:
304,184,105447,1,8,0:0:0:0:
304,184,105612,1,0,0:0:0:0:
240,180,105941,1,0,0:0:0:0:
240,180,106024,1,0,0:0:0:0:
240,180,106106,1,8,0:0:0:0:
240,180,106189,1,0,0:0:0:0:
240,180,106271,1,8,0:0:0:0:
240,180,106436,1,0,0:0:0:0:
240,180,106518,1,0,0:0:0:0:
240,180,106601,1,8,0:0:0:0:
240,180,106683,1,0,0:0:0:0:
240,180,106766,1,0,0:0:0:0:
240,180,106848,1,8,0:0:0:0:
240,180,106930,1,0,0:0:0:0:
240,180,107095,1,0,0:0:0:0:
240,180,107178,1,0,0:0:0:0:
240,180,107260,1,8,0:0:0:0:
240,180,107425,1,0,0:0:0:0:
240,180,107590,1,8,0:0:0:0:
240,180,107755,1,0,0:0:0:0:
240,180,107837,1,0,0:0:0:0:
240,180,107919,1,8,0:0:0:0:
240,180,108084,1,0,0:0:0:0:
240,180,108249,1,8,0:0:0:0:
216,152,108414,1,0,0:0:0:0:
216,152,108496,1,8,0:0:0:0:
216,152,108579,1,0,0:0:0:0:
216,152,108661,1,0,0:0:0:0:
216,152,108744,1,8,0:0:0:0:
216,152,108826,1,0,0:0:0:0:
216,152,108908,1,8,0:0:0:0:
216,152,109073,1,0,0:0:0:0:
216,152,109156,1,0,0:0:0:0:
216,152,109238,1,0,0:0:0:0:
216,152,109320,1,0,0:0:0:0:
216,152,109403,1,8,0:0:0:0:
216,152,109485,1,8,0:0:0:0:
216,152,109568,1,0,0:0:0:0:
216,152,109733,1,0,0:0:0:0:
216,152,109815,1,0,0:0:0:0:
216,152,109897,1,8,0:0:0:0:
216,144,110062,1,0,0:0:0:0:
216,144,110227,1,8,0:0:0:0:
216,144,110392,1,0,0:0:0:0:
216,144,110474,1,0,0:0:0:0:
216,144,110557,1,8,0:0:0:0:
216,144,110722,1,8,0:0:0:0:
216,144,110804,1,8,0:0:0:0:
216,144,110886,1,0,0:0:0:0:
388,264,111051,1,0,0:0:0:0:
388,264,111134,1,0,0:0:0:0:
328,184,111216,1,8,0:0:0:0:
328,184,111298,1,0,0:0:0:0:
328,184,111381,1,8,0:0:0:0:
328,184,111463,1,0,0:0:0:0:
328,184,111546,1,8,0:0:0:0:
328,184,111711,1,0,0:0:0:0:
328,184,111793,1,0,0:0:0:0:
328,184,111875,1,8,0:0:0:0:
328,184,111958,1,0,0:0:0:0:
328,184,112040,1,0,0:0:0:0:
328,184,112123,1,8,0:0:0:0:
328,184,112205,1,0,0:0:0:0:
328,184,112370,1,0,0:0:0:0:
328,184,112452,1,0,0:0:0:0:
328,184,112535,1,8,0:0:0:0:
328,184,112700,1,0,0:0:0:0:
328,184,112864,1,8,0:0:0:0:
328,184,113029,1,0,0:0:0:0:
328,184,113112,1,0,0:0:0:0:
328,184,113194,1,0,0:0:0:0:
328,184,113359,1,8,0:0:0:0:
328,184,113441,1,8,0:0:0:0:
328,184,113524,1,0,0:0:0:0:
248,188,113689,1,0,0:0:0:0:
248,188,113771,1,0,0:0:0:0:
248,188,113853,1,8,0:0:0:0:
248,188,113936,1,8,0:0:0:0:
248,188,114018,1,0,0:0:0:0:
248,188,114101,1,0,0:0:0:0:
248,188,114183,1,8,0:0:0:0:
248,188,114348,1,0,0:0:0:0:
248,188,114430,1,0,0:0:0:0:
248,188,114513,1,0,0:0:0:0:
248,188,114595,1,0,0:0:0:0:
248,188,114678,1,8,0:0:0:0:
248,188,114760,1,8,0:0:0:0:
248,188,114842,1,0,0:0:0:0:
248,188,115007,1,0,0:0:0:0:
248,188,115090,1,0,0:0:0:0:
248,188,115172,1,8,0:0:0:0:
248,188,115337,1,0,0:0:0:0:
248,188,115419,1,8,0:0:0:0:
248,188,115502,1,8,0:0:0:0:
248,188,115667,1,0,0:0:0:0:
248,188,115831,1,8,0:0:0:0:
248,188,115996,1,8,0:0:0:0:
128,152,116079,1,8,0:0:0:0:
276,212,116161,1,0,0:0:0:0:
276,212,116326,1,0,0:0:0:0:
276,212,116491,1,8,0:0:0:0:
336,196,116820,1,0,0:0:0:0:
336,196,116985,1,0,0:0:0:0:
336,196,117150,1,8,0:0:0:0:
328,204,117315,1,8,0:0:0:0:
324,204,117397,1,0,0:0:0:0:
336,196,117480,1,0,0:0:0:0:
336,196,117645,1,0,0:0:0:0:
336,196,117809,1,8,0:0:0:0:
216,184,117974,1,0,0:0:0:0:
224,184,118057,1,8,0:0:0:0:
376,176,118139,1,0,0:0:0:0:
376,176,118304,1,0,0:0:0:0:
376,176,118469,1,8,0:0:0:0:
376,176,118634,1,8,0:0:0:0:
192,120,118716,1,8,0:0:0:0:
248,192,118798,1,0,0:0:0:0:
332,216,118963,1,0,0:0:0:0:
332,216,119128,1,8,0:0:0:0:
332,216,119458,1,0,0:0:0:0:
332,216,119623,1,0,0:0:0:0:
332,216,119787,1,8,0:0:0:0:
232,196,119952,1,0,0:0:0:0:
232,196,120035,1,0,0:0:0:0:
332,216,120117,1,0,0:0:0:0:
332,216,120282,1,0,0:0:0:0:
332,216,120447,1,8,0:0:0:0:
332,216,120776,1,0,0:0:0:0:
332,216,120941,1,0,0:0:0:0:
332,216,121106,1,8,0:0:0:0:
332,216,121271,1,8,0:0:0:0:
264,212,121353,1,8,0:0:0:0:
140,184,121436,1,0,0:0:0:0:
332,216,121601,1,0,0:0:0:0:
332,216,121766,1,8,0:0:0:0:
268,176,122095,1,0,0:0:0:0:
268,176,122260,1,0,0:0:0:0:
268,176,122425,1,8,0:0:0:0:
272,164,122590,1,8,0:0:0:0:
272,160,122672,1,0,0:0:0:0:
268,176,122755,1,0,0:0:0:0:
268,176,122919,1,0,0:0:0:0:
268,176,123084,1,8,0:0:0:0:
292,156,123414,1,0,0:0:0:0:
268,176,123579,1,8,0:0:0:0:
360,212,123661,1,0,0:0:0:0:
268,176,123744,1,8,0:0:0:0:
360,212,123908,1,8,0:0:0:0:
212,184,123991,1,8,0:0:0:0:
232,192,124073,1,0,0:0:0:0:
312,216,124238,1,0,0:0:0:0:
312,216,124403,1,8,0:0:0:0:
176,180,124568,1,0,0:0:0:0:
168,176,124650,1,0,0:0:0:0:
176,180,124733,1,8,0:0:0:0:
304,192,124897,1,0,0:0:0:0:
304,192,125062,1,8,0:0:0:0:
168,176,125227,1,0,0:0:0:0:
168,176,125309,1,0,0:0:0:0:
304,192,125392,1,0,0:0:0:0:
304,192,125557,1,0,0:0:0:0:
304,192,125722,1,8,0:0:0:0:
192,132,125886,1,0,0:0:0:0:
192,132,125969,1,8,0:0:0:0:
304,192,126051,1,0,0:0:0:0:
304,192,126216,1,8,0:0:0:0:
304,192,126381,1,0,0:0:0:0:
152,176,126546,1,4,0:0:0:0:
136,160,126875,1,8,0:0:0:0:
136,160,127040,1,0,0:0:0:0:
136,160,127205,1,0,0:0:0:0:
136,160,127370,1,8,0:0:0:0:
208,184,127535,1,0,0:0:0:0:
208,184,127700,1,0,0:0:0:0:
356,188,127782,1,0,0:0:0:0:
208,184,127947,1,0,0:0:0:0:
208,184,128029,1,8,0:0:0:0:
248,172,128359,1,0,0:0:0:0:
248,172,128524,1,0,0:0:0:0:
248,172,128689,1,8,0:0:0:0:
272,176,128853,1,0,0:0:0:0:
272,176,129018,1,8,0:0:0:0:
272,176,129183,1,8,0:0:0:0:
272,176,129348,1,0,0:0:0:0:
252,160,129513,1,8,0:0:0:0:
252,160,129678,1,0,0:0:0:0:
252,160,129842,1,0,0:0:0:0:
252,160,130007,1,8,0:0:0:0:
252,160,130172,1,0,0:0:0:0:
252,160,130337,1,0,0:0:0:0:
312,184,130419,1,0,0:0:0:0:
272,176,130584,1,0,0:0:0:0:
272,176,130667,1,8,0:0:0:0:
232,168,130996,1,0,0:0:0:0:
232,168,131161,1,0,0:0:0:0:
232,168,131326,1,8,0:0:0:0:
232,168,131491,1,0,0:0:0:0:
232,168,131656,1,0,0:0:0:0:
232,168,131820,1,8,0:0:0:0:
232,168,131985,1,0,0:0:0:0:
328,196,132150,1,8,0:0:0:0:
328,196,132315,1,0,0:0:0:0:
328,196,132480,1,0,0:0:0:0:
328,196,132645,1,8,0:0:0:0:
320,184,132809,1,0,0:0:0:0:
320,184,132974,1,0,0:0:0:0:
300,176,133057,1,0,0:0:0:0:
316,184,133222,1,0,0:0:0:0:
316,184,133304,1,8,0:0:0:0:
316,184,133634,1,0,0:0:0:0:
316,184,133798,1,0,0:0:0:0:
316,184,133963,1,8,0:0:0:0:
316,184,134128,1,0,0:0:0:0:
320,184,134293,1,0,0:0:0:0:
320,184,134458,1,8,0:0:0:0:
328,196,134623,1,0,0:0:0:0:
404,204,134787,1,0,0:0:0:0:
240,172,134952,1,8,0:0:0:0:
232,172,135035,1,8,0:0:0:0:
232,172,135117,1,0,0:0:0:0:
232,172,135200,1,0,0:0:0:0:
232,172,135282,1,8,0:0:0:0:
232,172,135447,1,0,0:0:0:0:
232,172,135529,1,0,0:0:0:0:
232,172,135612,1,8,0:0:0:0:
232,172,135776,1,0,0:0:0:0:
232,192,135859,1,0,0:0:0:0:
232,172,135941,1,8,0:0:0:0:
232,172,136024,1,0,0:0:0:0:
232,172,136106,1,0,0:0:0:0:
232,172,136189,1,0,0:0:0:0:
232,172,136271,1,8,0:0:0:0:
232,172,136353,1,8,0:0:0:0:
232,172,136436,1,0,0:0:0:0:
232,172,136518,1,0,0:0:0:0:
232,172,136601,1,8,0:0:0:0:
232,172,136683,1,8,0:0:0:0:
232,172,136766,1,8,0:0:0:0:
232,172,136848,1,8,0:0:0:0:
232,172,136930,1,8,0:0:0:0:
232,172,137013,1,8,0:0:0:0:
288,280,137095,1,0,0:0:0:0:
288,248,137425,1,0,0:0:0:0:
288,248,137590,1,8,0:0:0:0:
288,248,137919,1,0,0:0:0:0:
288,248,138084,1,0,0:0:0:0:
288,248,138249,1,8,0:0:0:0:
336,224,138414,1,8,0:0:0:0:
336,224,138496,1,8,0:0:0:0:
288,248,138579,1,0,0:0:0:0:
288,248,138744,1,0,0:0:0:0:
288,248,138908,1,8,0:0:0:0:
328,164,139073,1,0,0:0:0:0:
328,164,139156,1,8,0:0:0:0:
288,248,139238,1,0,0:0:0:0:
288,248,139403,1,0,0:0:0:0:
288,248,139568,1,8,0:0:0:0:
288,248,139733,1,0,0:0:0:0:
192,160,139815,1,0,0:0:0:0:
312,204,139897,1,0,0:0:0:0:
312,204,140062,1,0,0:0:0:0:
312,204,140227,1,8,0:0:0:0:
200,172,140392,1,8,0:0:0:0:
200,172,140474,1,8,0:0:0:0:
312,204,140557,1,0,0:0:0:0:
312,184,140722,1,0,0:0:0:0:
312,184,140886,1,8,0:0:0:0:
168,148,140969,1,0,0:0:0:0:
168,144,141051,1,0,0:0:0:0:
160,136,141134,1,0,0:0:0:0:
160,136,141216,1,8,0:0:0:0:
312,184,141381,1,0,0:0:0:0:
312,184,141546,1,8,0:0:0:0:
348,164,141711,1,0,0:0:0:0:
348,164,141793,1,0,0:0:0:0:
312,184,141875,1,8,0:0:0:0:
312,184,142040,1,0,0:0:0:0:
312,184,142205,1,8,0:0:0:0:
312,184,142370,1,4,0:0:0:0:
312,148,142700,1,0,0:0:0:0:
300,144,142864,1,8,0:0:0:0:
300,144,143194,1,0,0:0:0:0:
300,144,143359,1,0,0:0:0:0:
300,144,143524,1,8,0:0:0:0:
328,208,143689,1,0,0:0:0:0:
328,216,143771,1,0,0:0:0:0:
300,144,143853,1,0,0:0:0:0:
300,144,144018,1,0,0:0:0:0:
300,144,144183,1,8,0:0:0:0:
232,148,144348,1,0,0:0:0:0:
232,144,144430,1,8,0:0:0:0:
300,144,144513,1,0,0:0:0:0:
300,144,144678,1,0,0:0:0:0:
300,144,144842,1,8,0:0:0:0:
356,192,145007,1,0,0:0:0:0:
272,184,145090,1,0,0:0:0:0:
260,172,145172,1,8,0:0:0:0:
360,188,145337,1,0,0:0:0:0:
360,184,145502,1,8,0:0:0:0:
272,200,145667,1,8,0:0:0:0:
272,192,145749,1,8,0:0:0:0:
360,180,145831,1,0,0:0:0:0:
360,180,145996,1,0,0:0:0:0:
360,176,146161,1,8,0:0:0:0:
236,148,146326,1,8,0:0:0:0:
232,132,146408,1,0,0:0:0:0:
360,168,146491,1,0,0:0:0:0:
232,128,146573,1,0,0:0:0:0:
360,168,146656,1,8,0:0:0:0:
360,168,146820,1,8,0:0:0:0:
360,168,146985,1,8,0:0:0:0:
360,168,147068,1,0,0:0:0:0:
360,168,147150,1,8,0:0:0:0:
360,168,147315,1,0,0:0:0:0:
360,168,147480,1,8,0:0:0:0:
360,168,147645,1,4,0:0:0:0:
332,228,147974,1,0,0:0:0:0:
332,220,148139,1,8,0:0:0:0:
332,220,148469,1,0,0:0:0:0:
332,220,148634,1,0,0:0:0:0:
332,220,148798,1,8,0:0:0:0:
248,136,148963,1,0,0:0:0:0:
248,136,149046,1,8,0:0:0:0:
332,220,149128,1,0,0:0:0:0:
332,216,149293,1,0,0:0:0:0:
332,216,149458,1,8,0:0:0:0:
252,148,149623,1,0,0:0:0:0:
240,128,149705,1,0,0:0:0:0:
332,220,149787,1,0,0:0:0:0:
332,220,149952,1,0,0:0:0:0:
332,220,150117,1,8,0:0:0:0:
332,220,150282,1,0,0:0:0:0:
276,176,150364,1,8,0:0:0:0:
332,220,150447,1,8,0:0:0:0:
332,220,150612,1,0,0:0:0:0:
332,216,150776,1,8,0:0:0:0:
252,188,150859,1,0,0:0:0:0:
296,228,150941,1,8,0:0:0:0:
252,188,151024,1,8,0:0:0:0:
332,220,151106,1,0,0:0:0:0:
332,220,151271,1,0,0:0:0:0:
332,220,151436,1,8,0:0:0:0:
248,172,151518,1,8,0:0:0:0:
244,152,151601,1,0,0:0:0:0:
244,152,151683,1,0,0:0:0:0:
332,220,151766,1,8,0:0:0:0:
332,220,151930,1,0,0:0:0:0:
332,220,152095,1,8,0:0:0:0:
288,144,152260,1,0,0:0:0:0:
272,120,152342,1,0,0:0:0:0:
336,212,152425,1,8,0:0:0:0:
336,212,152590,1,0,0:0:0:0:
336,212,152755,1,8,0:0:0:0:
336,212,152919,1,4,0:0:0:0:
300,208,153249,1,0,0:0:0:0:
288,200,153414,1,8,0:0:0:0:
288,200,153744,1,0,0:0:0:0:
288,200,153908,1,0,0:0:0:0:
288,200,154073,1,8,0:0:0:0:
216,168,154238,1,8,0:0:0:0:
208,152,154320,1,8,0:0:0:0:
288,200,154403,1,0,0:0:0:0:
288,200,154568,1,0,0:0:0:0:
288,200,154733,1,8,0:0:0:0:
328,184,154897,1,0,0:0:0:0:
320,172,154980,1,0,0:0:0:0:
288,200,155062,1,0,0:0:0:0:
288,200,155227,1,0,0:0:0:0:
288,200,155392,1,8,0:0:0:0:
248,128,155557,1,0,0:0:0:0:
272,160,155639,1,0,0:0:0:0:
288,200,155722,1,8,0:0:0:0:
288,200,155886,1,0,0:0:0:0:
288,200,156051,1,8,0:0:0:0:
304,172,156216,1,8,0:0:0:0:
304,172,156298,1,8,0:0:0:0:
288,200,156381,1,0,0:0:0:0:
288,200,156546,1,0,0:0:0:0:
288,200,156711,1,8,0:0:0:0:
256,168,156875,1,0,0:0:0:0:
316,176,156958,1,8,0:0:0:0:
288,200,157040,1,0,0:0:0:0:
308,168,157123,1,0,0:0:0:0:
288,200,157205,1,8,0:0:0:0:
288,200,157370,1,8,0:0:0:0:
316,184,157535,1,8,0:0:0:0:
312,184,157617,1,0,0:0:0:0:
304,184,157700,1,8,0:0:0:0:
304,184,157864,1,0,0:0:0:0:
304,184,158029,1,0,0:0:0:0:
304,184,158194,1,8,0:0:0:0:
304,184,158359,1,4,0:0:0:0:
236,192,158689,1,8,0:0:0:0:
236,192,158853,1,0,0:0:0:0:
236,192,159018,1,0,0:0:0:0:
236,192,159183,1,8,0:0:0:0:
236,192,159348,1,0,0:0:0:0:
236,192,159513,1,0,0:0:0:0:
236,192,159678,1,8,0:0:0:0:
236,192,159842,1,0,0:0:0:0:
236,192,160007,1,0,0:0:0:0:
236,192,160172,1,8,0:0:0:0:
236,192,160337,1,0,0:0:0:0:
236,192,160502,1,0,0:0:0:0:
236,192,160667,1,8,0:0:0:0:
240,196,160831,1,4,0:0:0:0:
336,204,161161,1,0,0:0:0:0:
236,192,161326,1,8,0:0:0:0:
236,192,161491,1,0,0:0:0:0:
236,192,161656,1,0,0:0:0:0:
236,192,161820,1,8,0:0:0:0:
236,192,161985,1,0,0:0:0:0:
236,192,162150,1,0,0:0:0:0:
236,192,162315,1,8,0:0:0:0:
236,192,162480,1,0,0:0:0:0:
236,192,162645,1,0,0:0:0:0:
236,192,162809,1,8,0:0:0:0:
236,192,162974,1,0,0:0:0:0:
236,192,163139,1,0,0:0:0:0:
236,192,163304,1,8,0:0:0:0:
240,196,163469,1,4,0:0:0:0:
336,204,163798,1,0,0:0:0:0:
236,192,163963,1,8,0:0:0:0:
236,192,164128,1,0,0:0:0:0:
236,192,164293,1,0,0:0:0:0:
236,192,164458,1,8,0:0:0:0:
236,192,164623,1,0,0:0:0:0:
236,192,164787,1,0,0:0:0:0:
236,192,164952,1,8,0:0:0:0:
236,192,165117,1,0,0:0:0:0:
236,192,165282,1,0,0:0:0:0:
236,192,165447,1,8,0:0:0:0:
236,192,165612,1,0,0:0:0:0:
236,192,165776,1,0,0:0:0:0:
236,192,165941,1,8,0:0:0:0:
240,196,166106,1,4,0:0:0:0:
320,180,166436,1,0,0:0:0:0:
304,160,166518,1,0,0:0:0:0:
320,180,166601,1,8,0:0:0:0:
288,152,166766,1,0,0:0:0:0:
288,152,166848,1,0,0:0:0:0:
320,180,166930,1,0,0:0:0:0:
312,176,167095,1,8,0:0:0:0:
300,168,167260,1,8,0:0:0:0:
224,172,167507,1,0,0:0:0:0:
272,144,167590,1,8,0:0:0:0:
340,244,167755,1,0,0:0:0:0:
300,176,167837,1,0,0:0:0:0:
340,244,167919,1,0,0:0:0:0:
388,240,168084,1,8,0:0:0:0:
248,200,168249,1,8,0:0:0:0:
364,200,168331,1,0,0:0:0:0:
248,200,168414,1,0,0:0:0:0:
364,200,168496,1,0,0:0:0:0:
248,200,168579,1,8,0:0:0:0:
248,200,168744,1,4,0:0:0:0:
392,272,169073,1,0,0:0:0:0:
272,160,169156,1,0,0:0:0:0:
392,272,169238,1,8,0:0:0:0:
392,272,169403,1,0,0:0:0:0:
392,272,169568,1,0,0:0:0:0:
392,272,169733,1,8,0:0:0:0:
392,272,169897,1,0,0:0:0:0:
392,272,170062,1,0,0:0:0:0:
256,152,170145,1,0,0:0:0:0:
392,272,170227,1,8,0:0:0:0:
392,272,170392,1,0,0:0:0:0:
392,272,170557,1,0,0:0:0:0:
392,272,170639,1,8,0:0:0:0:
392,272,170722,1,0,0:0:0:0:
392,272,170804,1,0,0:0:0:0:
392,272,170886,1,0,0:0:0:0:
392,272,170969,1,8,0:0:0:0:
392,272,171051,1,8,0:0:0:0:
392,272,171134,1,8,0:0:0:0:
392,272,171216,1,8,0:0:0:0:
392,272,171298,1,8,0:0:0:0:
392,272,171381,1,0,0:0:0:0:
268,176,171711,1,0,0:0:0:0:
184,192,171793,1,0,0:0:0:0:
268,176,171875,1,8,0:0:0:0:
268,176,172040,1,0,0:0:0:0:
268,176,172205,1,0,0:0:0:0:
268,176,172370,1,8,0:0:0:0:
268,176,172535,1,0,0:0:0:0:
268,176,172700,1,0,0:0:0:0:
160,184,172782,1,0,0:0:0:0:
268,176,172864,1,8,0:0:0:0:
160,104,172947,1,8,0:0:0:0:
292,192,173029,1,0,0:0:0:0:
292,192,173194,1,8,0:0:0:0:
292,192,173359,1,0,0:0:0:0:
292,192,173441,1,0,0:0:0:0:
292,192,173524,1,8,0:0:0:0:
292,192,173689,1,0,0:0:0:0:
292,192,173853,1,8,0:0:0:0:
292,192,174018,1,4,0:0:0:0:
448,296,174348,1,0,0:0:0:0:
448,296,174513,1,8,0:0:0:0:
448,296,174678,1,0,0:0:0:0:
448,296,174842,1,0,0:0:0:0:
440,304,175007,1,8,0:0:0:0:
440,304,175172,1,0,0:0:0:0:
440,304,175337,1,0,0:0:0:0:
440,304,175502,1,8,0:0:0:0:
440,304,175667,1,0,0:0:0:0:
248,212,175749,1,8,0:0:0:0:
440,304,175914,1,8,0:0:0:0:
440,304,175996,1,0,0:0:0:0:
440,304,176161,1,0,0:0:0:0:
440,304,176244,1,8,0:0:0:0:
440,304,176326,1,8,0:0:0:0:
440,304,176408,1,8,0:0:0:0:
440,304,176491,1,8,0:0:0:0:
440,304,176573,1,8,0:0:0:0:
440,304,176656,1,0,0:0:0:0:
272,228,176985,1,0,0:0:0:0:
272,224,177150,1,8,0:0:0:0:
272,224,177315,1,0,0:0:0:0:
272,224,177480,1,0,0:0:0:0:
272,224,177645,1,8,0:0:0:0:
272,224,177809,1,0,0:0:0:0:
272,224,177974,1,0,0:0:0:0:
272,224,178139,1,8,0:0:0:0:
272,224,178222,1,8,0:0:0:0:
272,224,178304,1,0,0:0:0:0:
272,224,178386,1,0,0:0:0:0:
272,224,178469,1,8,0:0:0:0:
272,224,178551,1,0,0:0:0:0:
272,224,178634,1,8,0:0:0:0:
272,224,178716,1,8,0:0:0:0:
272,224,178798,1,0,0:0:0:0:
272,224,178881,1,0,0:0:0:0:
272,224,178963,1,8,0:0:0:0:
272,224,179046,1,0,0:0:0:0:
272,224,179128,1,0,0:0:0:0:
272,224,179211,1,0,0:0:0:0:
272,224,179293,1,8,0:0:0:0:
308,236,179623,1,0,0:0:0:0:
308,236,179787,1,8,0:0:0:0:
328,160,179952,1,0,0:0:0:0:
328,160,180035,1,0,0:0:0:0:
308,236,180117,1,8,0:0:0:0:
308,236,180282,1,0,0:0:0:0:
308,236,180447,1,8,0:0:0:0:
312,240,180612,1,8,0:0:0:0:
104,148,180694,1,8,0:0:0:0:
312,240,180776,1,0,0:0:0:0:
312,240,180941,1,0,0:0:0:0:
312,240,181106,1,8,0:0:0:0:
312,240,181271,1,8,0:0:0:0:
312,240,181436,1,0,0:0:0:0:
312,248,181601,1,0,0:0:0:0:
312,248,181766,1,8,0:0:0:0:
312,248,181930,1,4,0:0:0:0:
344,200,182260,1,0,0:0:0:0:
340,256,182425,1,8,0:0:0:0:
240,172,182590,1,0,0:0:0:0:
240,172,182672,1,8,0:0:0:0:
340,256,182755,1,0,0:0:0:0:
340,256,182919,1,0,0:0:0:0:
340,256,183084,1,8,0:0:0:0:
340,256,183249,1,8,0:0:0:0:
340,256,183414,1,0,0:0:0:0:
340,256,183579,1,8,0:0:0:0:
152,172,183661,1,0,0:0:0:0:
340,256,183744,1,8,0:0:0:0:
340,256,183908,1,8,0:0:0:0:
340,256,184073,1,0,0:0:0:0:
340,256,184238,1,8,0:0:0:0:
152,172,184320,1,0,0:0:0:0:
340,256,184403,1,8,0:0:0:0:
340,248,184568,1,4,0:0:0:0:
392,248,184897,1,0,0:0:0:0:
388,252,185062,1,8,0:0:0:0:
292,240,185227,1,0,0:0:0:0:
292,232,185309,1,0,0:0:0:0:
388,252,185392,1,0,0:0:0:0:
388,252,185557,1,0,0:0:0:0:
388,252,185722,1,8,0:0:0:0:
388,252,185886,1,8,0:0:0:0:
388,252,185969,1,0,0:0:0:0:
272,204,186051,1,8,0:0:0:0:
388,252,186216,1,0,0:0:0:0:
280,196,186298,1,0,0:0:0:0:
388,252,186381,1,8,0:0:0:0:
388,252,186546,1,8,0:0:0:0:
388,252,186711,1,0,0:0:0:0:
388,252,186875,1,0,0:0:0:0:
388,252,187040,1,8,0:0:0:0:
388,252,187205,1,4,0:0:0:0:
360,272,187535,1,0,0:0:0:0:
356,260,187617,1,0,0:0:0:0:
356,260,187700,1,8,0:0:0:0:
356,260,187864,1,0,0:0:0:0:
356,260,187947,1,0,0:0:0:0:
356,260,188029,1,8,0:0:0:0:
356,260,188194,1,0,0:0:0:0:
356,260,188276,1,0,0:0:0:0:
356,260,188359,1,0,0:0:0:0:
356,260,188524,1,0,0:0:0:0:
356,260,188689,1,12,0:0:0:0:
240,204,193963,5,0,0:0:0:0:
240,204,194622,1,0,0:0:0:0:
156,212,195281,1,0,0:0:0:0:
156,208,195941,1,0,0:0:0:0:
156,208,196600,1,0,0:0:0:0:
156,208,197259,1,0,0:0:0:0:
156,208,197919,1,0,0:0:0:0:
156,208,198578,1,0,0:0:0:0:
156,208,199237,1,0,0:0:0:0:
156,208,199897,1,0,0:0:0:0:
156,208,200556,1,0,0:0:0:0:
156,200,201215,1,0,0:0:0:0:
156,200,201875,1,0,0:0:0:0:
156,200,202534,1,0,0:0:0:0:
156,200,203193,1,0,0:0:0:0:
156,200,203688,1,0,0:0:0:0:
156,200,203853,1,8,0:0:0:0:
156,200,204182,1,8,0:0:0:0:
156,200,204347,1,8,0:0:0:0:
148,200,204512,1,0,0:0:0:0:
232,200,205171,1,8,0:0:0:0:
232,200,205831,1,0,0:0:0:0:
232,200,206490,1,8,0:0:0:0:
232,200,207149,1,0,0:0:0:0:
232,200,207809,1,8,0:0:0:0:
232,200,208468,1,0,0:0:0:0:
264,228,208963,1,0,0:0:0:0:
232,200,209127,1,8,0:0:0:0:
252,216,209457,1,8,0:0:0:0:
232,200,209787,1,0,0:0:0:0:
252,216,210446,1,8,0:0:0:0:
252,216,211105,1,0,0:0:0:0:
252,216,211765,1,8,0:0:0:0:
340,248,212424,1,0,0:0:0:0:
340,248,212506,1,0,0:0:0:0:
340,248,212588,1,0,0:0:0:0:
340,248,212671,1,0,0:0:0:0:
340,248,212753,1,8,0:0:0:0:
340,248,212836,1,0,0:0:0:0:
340,248,212918,1,0,0:0:0:0:
340,248,213000,1,0,0:0:0:0:
340,248,213083,1,8,0:0:0:0:
340,248,213165,1,0,0:0:0:0:
340,248,213248,1,8,0:0:0:0:
340,248,213330,1,8,0:0:0:0:
340,248,213413,1,0,0:0:0:0:
340,248,213495,1,0,0:0:0:0:
340,248,213577,1,8,0:0:0:0:
340,248,213660,1,8,0:0:0:0:
340,248,213742,1,0,0:0:0:0:
340,248,213825,1,8,0:0:0:0:
340,248,213907,1,8,0:0:0:0:
340,248,213989,1,8,0:0:0:0:
340,248,214072,1,0,0:0:0:0:
228,196,214237,1,0,0:0:0:0:
228,196,214319,1,0,0:0:0:0:
228,196,214402,1,8,0:0:0:0:
228,196,214566,1,0,0:0:0:0:
228,196,214731,1,8,0:0:0:0:
228,196,214896,1,4,0:0:0:0:
288,248,215225,1,0,0:0:0:0:
288,248,215390,1,8,0:0:0:0:
288,248,215720,1,0,0:0:0:0:
288,248,215885,1,0,0:0:0:0:
288,248,216050,1,8,0:0:0:0:
336,224,216214,1,8,0:0:0:0:
336,224,216297,1,8,0:0:0:0:
288,248,216379,1,0,0:0:0:0:
288,248,216544,1,0,0:0:0:0:
288,248,216709,1,8,0:0:0:0:
328,164,216874,1,0,0:0:0:0:
328,164,216956,1,8,0:0:0:0:
288,248,217039,1,0,0:0:0:0:
288,248,217203,1,0,0:0:0:0:
288,248,217368,1,8,0:0:0:0:
288,248,217533,1,0,0:0:0:0:
192,160,217615,1,0,0:0:0:0:
312,204,217698,1,0,0:0:0:0:
312,204,217863,1,0,0:0:0:0:
312,204,218028,1,8,0:0:0:0:
200,172,218192,1,8,0:0:0:0:
200,172,218275,1,8,0:0:0:0:
312,204,218357,1,0,0:0:0:0:
312,184,218522,1,0,0:0:0:0:
312,184,218687,1,8,0:0:0:0:
168,148,218769,1,0,0:0:0:0:
168,144,218852,1,0,0:0:0:0:
160,136,218934,1,0,0:0:0:0:
160,136,219017,1,8,0:0:0:0:
312,184,219181,1,0,0:0:0:0:
312,184,219346,1,8,0:0:0:0:
348,164,219511,1,0,0:0:0:0:
348,164,219593,1,0,0:0:0:0:
312,184,219676,1,8,0:0:0:0:
312,184,219841,1,0,0:0:0:0:
312,184,220006,1,8,0:0:0:0:
312,184,220170,1,4,0:0:0:0:
312,148,220500,1,0,0:0:0:0:
300,144,220665,1,8,0:0:0:0:
300,144,220995,1,0,0:0:0:0:
300,144,221159,1,0,0:0:0:0:
312,216,221242,1,0,0:0:0:0:
300,144,221324,1,8,0:0:0:0:
328,208,221489,1,0,0:0:0:0:
328,216,221571,1,8,0:0:0:0:
300,144,221654,1,0,0:0:0:0:
300,144,221819,1,0,0:0:0:0:
300,144,221984,1,8,0:0:0:0:
232,148,222148,1,8,0:0:0:0:
232,144,222231,1,8,0:0:0:0:
300,144,222313,1,0,0:0:0:0:
300,144,222478,1,0,0:0:0:0:
300,144,222643,1,8,0:0:0:0:
356,192,222808,1,0,0:0:0:0:
272,184,222890,1,8,0:0:0:0:
260,172,222973,1,8,0:0:0:0:
360,188,223137,1,0,0:0:0:0:
360,184,223302,1,8,0:0:0:0:
272,200,223467,1,0,0:0:0:0:
272,192,223550,1,8,0:0:0:0:
360,180,223632,1,0,0:0:0:0:
360,180,223797,1,0,0:0:0:0:
360,176,223962,1,8,0:0:0:0:
240,172,224044,1,0,0:0:0:0:
236,148,224126,1,8,0:0:0:0:
232,132,224209,1,8,0:0:0:0:
360,168,224291,1,0,0:0:0:0:
360,168,224456,1,0,0:0:0:0:
360,168,224621,1,8,0:0:0:0:
360,168,224786,1,8,0:0:0:0:
212,120,224868,1,0,0:0:0:0:
360,168,224951,1,8,0:0:0:0:
360,168,225115,1,0,0:0:0:0:
360,168,225280,1,8,0:0:0:0:
360,168,225445,1,4,0:0:0:0:
248,168,225775,1,0,0:0:0:0:
248,168,225940,1,8,0:0:0:0:
248,168,226269,1,0,0:0:0:0:
248,168,226434,1,0,0:0:0:0:
248,168,226599,1,8,0:0:0:0:
248,168,226764,1,8,0:0:0:0:
196,148,226846,1,8,0:0:0:0:
248,168,226929,1,0,0:0:0:0:
248,168,227093,1,0,0:0:0:0:
248,168,227258,1,8,0:0:0:0:
248,168,227423,1,0,0:0:0:0:
188,144,227506,1,8,0:0:0:0:
248,168,227588,1,0,0:0:0:0:
248,168,227753,1,0,0:0:0:0:
248,168,227918,1,8,0:0:0:0:
248,168,228082,1,8,0:0:0:0:
196,196,228165,1,0,0:0:0:0:
372,176,228247,1,0,0:0:0:0:
372,176,228412,1,0,0:0:0:0:
372,176,228577,1,8,0:0:0:0:
208,184,228742,1,8,0:0:0:0:
208,184,228824,1,8,0:0:0:0:
372,176,228907,1,0,0:0:0:0:
204,180,228989,1,0,0:0:0:0:
372,176,229071,1,8,0:0:0:0:
372,176,229236,1,8,0:0:0:0:
208,160,229401,1,0,0:0:0:0:
216,164,229484,1,8,0:0:0:0:
372,176,229566,1,0,0:0:0:0:
372,176,229731,1,0,0:0:0:0:
372,176,229896,1,8,0:0:0:0:
392,284,230061,1,0,0:0:0:0:
392,284,230143,1,0,0:0:0:0:
372,176,230225,1,8,0:0:0:0:
372,176,230390,1,0,0:0:0:0:
372,176,230555,1,8,0:0:0:0:
372,176,230720,1,4,0:0:0:0:
392,264,231050,1,0,0:0:0:0:
248,188,231214,1,8,0:0:0:0:
248,188,231544,1,0,0:0:0:0:
248,188,231709,1,0,0:0:0:0:
352,224,231791,1,0,0:0:0:0:
248,188,231874,1,8,0:0:0:0:
196,168,232039,1,8,0:0:0:0:
248,188,232121,1,8,0:0:0:0:
248,188,232203,1,0,0:0:0:0:
248,188,232368,1,0,0:0:0:0:
248,188,232533,1,8,0:0:0:0:
284,168,232698,1,0,0:0:0:0:
284,168,232780,1,0,0:0:0:0:
248,188,232863,1,0,0:0:0:0:
248,188,233028,1,0,0:0:0:0:
248,188,233192,1,8,0:0:0:0:
248,188,233357,1,4,0:0:0:0:
248,188,233687,1,0,0:0:0:0:
248,188,233852,1,8,0:0:0:0:
248,188,234017,1,0,0:0:0:0:
388,260,234181,1,0,0:0:0:0:
388,260,234264,1,0,0:0:0:0:
388,260,234346,1,8,0:0:0:0:
388,260,234429,1,8,0:0:0:0:
388,260,234511,1,0,0:0:0:0:
388,260,234593,1,0,0:0:0:0:
388,260,234676,1,0,0:0:0:0:
388,260,234758,1,0,0:0:0:0:
388,260,234841,1,8,0:0:0:0:
388,260,234923,1,8,0:0:0:0:
216,224,235006,1,0,0:0:0:0:
216,224,235088,1,0,0:0:0:0:
388,260,235170,1,8,0:0:0:0:
368,124,235280,1,8,0:0:0:0:
368,124,235390,1,0,0:0:0:0:
368,124,235500,1,8,0:0:0:0:
344,120,235610,1,8,0:0:0:0:
344,120,235720,1,0,0:0:0:0:
344,120,235830,1,8,0:0:0:0:
348,120,235940,1,0,0:0:0:0:
344,120,236050,1,8,0:0:0:0:
344,120,236159,1,0,0:0:0:0:
340,236,236654,1,0,0:0:0:0:
340,236,236819,1,8,0:0:0:0:
368,224,237148,1,0,0:0:0:0:
320,220,237478,1,0,0:0:0:0:
320,220,237643,1,8,0:0:0:0:
320,220,237973,1,0,0:0:0:0:
292,204,238137,1,8,0:0:0:0:
276,200,238302,1,0,0:0:0:0:
276,200,238632,1,8,0:0:0:0:
276,200,238797,1,0,0:0:0:0:
292,204,239126,1,8,0:0:0:0:
380,248,239291,1,0,0:0:0:0:
380,248,239456,1,8,0:0:0:0:
192,188,239621,1,0,0:0:0:0:
216,124,239951,1,0,0:0:0:0:
380,248,240115,1,0,0:0:0:0:
380,248,240280,1,8,0:0:0:0:
380,248,240610,1,0,0:0:0:0:
380,248,240775,1,8,0:0:0:0:
380,248,240940,1,0,0:0:0:0:
380,248,241269,1,8,0:0:0:0:
344,120,241434,1,0,0:0:0:0:
340,236,241929,1,0,0:0:0:0:
340,236,242094,1,8,0:0:0:0:
368,224,242423,1,0,0:0:0:0:
320,220,242753,1,0,0:0:0:0:
320,220,242918,1,8,0:0:0:0:
320,220,243248,1,0,0:0:0:0:
292,204,243412,1,8,0:0:0:0:
276,200,243577,1,0,0:0:0:0:
276,200,243907,1,8,0:0:0:0:
292,204,244072,1,8,0:0:0:0:
276,200,244236,1,0,0:0:0:0:
380,248,244566,1,0,0:0:0:0:
380,248,244731,1,8,0:0:0:0:
192,188,244896,1,0,0:0:0:0:
216,124,245226,1,0,0:0:0:0:
224,188,245390,1,8,0:0:0:0:
224,188,245473,1,8,0:0:0:0:
224,188,245555,1,8,0:0:0:0:
224,188,245637,1,8,0:0:0:0:
224,188,245720,1,0,0:0:0:0:
224,188,245802,1,0,0:0:0:0:
224,188,245885,1,0,0:0:0:0:
224,188,245967,1,0,0:0:0:0:
224,188,246050,1,8,0:0:0:0:
224,188,246132,1,8,0:0:0:0:
224,188,246214,1,8,0:0:0:0:
224,188,246297,1,8,0:0:0:0:
224,188,246379,1,0,0:0:0:0:
224,188,246462,1,0,0:0:0:0:
224,188,246544,1,0,0:0:0:0:
224,188,246626,1,0,0:0:0:0:
224,188,246709,1,8,0:0:0:0:
340,236,247203,1,0,0:0:0:0:
340,236,247368,1,8,0:0:0:0:
368,224,247697,1,0,0:0:0:0:
320,220,248027,1,0,0:0:0:0:
320,220,248192,1,8,0:0:0:0:
320,220,248522,1,0,0:0:0:0:
292,204,248686,1,8,0:0:0:0:
276,200,248851,1,0,0:0:0:0:
276,200,249181,1,8,0:0:0:0:
276,200,249346,1,0,0:0:0:0:
292,204,249675,1,8,0:0:0:0:
380,248,249840,1,0,0:0:0:0:
380,248,250005,1,8,0:0:0:0:
192,188,250170,1,0,0:0:0:0:
216,124,250500,1,0,0:0:0:0:
380,248,250664,1,0,0:0:0:0:
380,248,250829,1,8,0:0:0:0:
380,248,251159,1,0,0:0:0:0:
380,248,251324,1,8,0:0:0:0:
380,248,251489,1,0,0:0:0:0:
380,248,251818,1,8,0:0:0:0:
344,120,251983,1,0,0:0:0:0:
340,236,252478,1,0,0:0:0:0:
192,220,252561,1,0,0:0:0:0:
340,236,252643,1,8,0:0:0:0:
180,216,252808,1,8,0:0:0:0:
368,224,252972,1,0,0:0:0:0:
320,220,253302,1,0,0:0:0:0:
320,220,253467,1,8,0:0:0:0:
320,220,253797,1,0,0:0:0:0:
292,204,253961,1,8,0:0:0:0:
276,200,254126,1,0,0:0:0:0:
276,200,254456,1,8,0:0:0:0:
292,204,254621,1,8,0:0:0:0:
380,232,254703,1,8,0:0:0:0:
380,232,254786,1,0,0:0:0:0:
380,232,254868,1,0,0:0:0:0:
380,232,254951,1,8,0:0:0:0:
380,232,255033,1,8,0:0:0:0:
380,232,255115,1,0,0:0:0:0:
380,232,255198,1,8,0:0:0:0:
380,232,255280,1,0,0:0:0:0:
208,156,255363,1,0,0:0:0:0:
200,156,255445,1,0,0:0:0:0:
200,156,255528,1,8,0:0:0:0:
220,204,255610,1,0,0:0:0:0:
176,152,255692,1,0,0:0:0:0:
196,156,255775,1,8,0:0:0:0:
196,156,255857,1,8,0:0:0:0:
196,156,255940,1,0,0:0:0:0:
280,184,256104,1,8,0:0:0:0:
240,204,256187,1,0,0:0:0:0:
280,184,256269,1,0,0:0:0:0:
256,204,256434,1,0,0:0:0:0:
280,184,256599,1,8,0:0:0:0:
280,184,256764,1,8,0:0:0:0:
296,212,256846,1,0,0:0:0:0:
280,184,256929,1,8,0:0:0:0:
280,184,257093,1,0,0:0:0:0:
320,220,257423,1,8,0:0:0:0:
320,220,257588,1,0,0:0:0:0:
320,220,257753,1,0,0:0:0:0:
320,220,257918,1,12,0:0:0:0:
252,168,258412,1,0,0:0:0:0:
340,240,258742,1,8,0:0:0:0:
340,240,258907,1,0,0:0:0:0:
340,240,259071,1,0,0:0:0:0:
340,240,259236,1,12,0:0:0:0:
212,176,259731,1,0,0:0:0:0:
312,196,260061,1,8,0:0:0:0:
312,196,260225,1,0,0:0:0:0:
312,196,260390,1,0,0:0:0:0:
272,248,260555,1,12,0:0:0:0:
256,184,260885,1,4,0:0:0:0:
216,208,261050,1,12,0:0:0:0:
300,184,261379,1,0,0:0:0:0:
248,208,261462,1,0,0:0:0:0:
216,176,261544,1,0,0:0:0:0:
300,184,261709,1,0,0:0:0:0:
240,172,261874,1,12,0:0:0:0:
328,208,262368,1,0,0:0:0:0:
364,272,262698,1,8,0:0:0:0:
364,272,262863,1,0,0:0:0:0:
364,272,263028,1,0,0:0:0:0:
364,272,263192,1,12,0:0:0:0:
164,196,263687,1,0,0:0:0:0:
296,204,264017,1,8,0:0:0:0:
296,204,264181,1,0,0:0:0:0:
296,204,264346,1,0,0:0:0:0:
296,204,264511,1,12,0:0:0:0:
156,192,265006,1,0,0:0:0:0:
336,224,265335,1,8,0:0:0:0:
336,224,265500,1,0,0:0:0:0:
336,224,265665,1,0,0:0:0:0:
336,224,265830,1,12,0:0:0:0:
208,188,265995,1,12,0:0:0:0:
208,188,266159,1,12,0:0:0:0:
208,188,266324,1,4,0:0:0:0:
356,232,266984,1,0,0:0:0:0:
356,232,267039,1,0,0:0:0:0:
356,232,267093,1,8,0:0:0:0:
356,232,267148,1,8,0:0:0:0:
356,232,267203,1,0,0:0:0:0:
256,192,268055,12,0,277759,0:0:0:0:
