osu file format v12

[General]
AudioFilename: oor no scared.mp3
AudioLeadIn: 2000
PreviewTime: 46914
Countdown: 0
SampleSet: Soft
StackLeniency: 0.7
Mode: 0
LetterboxInBreaks: 0
SkinPreference:BRS - Black Rock Shooter 151b
WidescreenStoryboard: 0

[Editor]
Bookmarks: 39782
DistanceSpacing: 1.1
BeatDivisor: 4
GridSize: 4

[Metadata]
Title:NO SCARED
TitleUnicode:NO SCARED
Artist:ONE OK ROCK
ArtistUnicode:ONE OK ROCK
Creator:Kuria
Version:Insane
Source:Black Rock Shooter: THE GAME
Tags:envi moway mad amv huke supercell ryo
BeatmapID:265791
BeatmapSetID:69779

[Difficulty]
HPDrainRate:8
CircleSize:4
OverallDifficulty:8
ApproachRate:9
SliderMultiplier:1.82
SliderTickRate:2

[Events]
//Background and Video events
0,0,"black-rock-shooter11.jpg",0,0
Video,-480,"[MAD][AMV] BLACK ROCK SHOOTER (Modified version).avi"
//Break Periods
2,70469,74858
2,122360,123993
2,125117,126588
2,150901,159831
//Storyboard Layer 0 (Background)
//Storyboard Layer 1 (Fail)
//Storyboard Layer 2 (Pass)
//Storyboard Layer 3 (Foreground)
//Storyboard Sound Samples
//Background Colour Transformations
3,100,163,162,255

[TimingPoints]
215,324.324324324324,4,2,1,50,1,0
215,-133.333333333333,4,2,1,50,0,0
5404,-100,4,1,1,80,0,0
26323,-100,4,1,1,80,0,0
46106,-100,4,1,1,50,0,0
46917,-100,4,1,1,100,0,1
67674,-100,4,1,1,80,0,0
70269,-100,4,1,1,15,0,0
75458,-100,4,1,1,90,0,0
76755,-100,4,1,1,80,0,0
96377,-100,4,1,1,60,0,0
96782,-100,4,1,1,70,0,0
97512,-100,4,1,1,80,0,0
98809,-100,4,1,1,90,0,1
119566,-100,4,1,1,90,0,0
129944,-100,4,1,1,90,0,1
140160,-100,4,1,1,90,0,0
145512,-100,4,1,1,90,0,0
150701,-100,4,2,1,40,0,0
161079,-125,4,1,1,60,0,0
168863,-125,4,1,1,30,0,0
169187,-125,4,1,1,40,0,0
169512,-125,4,1,1,50,0,0
169836,-125,4,1,1,60,0,0
170160,-100,4,1,1,70,0,0
170809,-100,4,1,1,80,0,0
171458,-100,4,1,1,90,0,1
192214,-100,4,1,1,90,0,0
194809,-100,4,1,1,15,0,0

[Colours]
Combo1 : 128,255,255
Combo2 : 128,128,255
Combo3 : 28,141,255
Combo4 : 0,89,179

[HitObjects]
256,164,215,2,0,P|288:156|328:152,1,68.250002603531
408,176,539,1,0,0:0:0:0:
364,276,701,2,0,P|332:268|292:264,1,68.250002603531,2|2,0:0|0:0,0:0:0:0:
212,288,1025,1,2,0:0:0:0:
112,332,1187,6,0,P|104:300|100:260,1,68.250002603531
124,180,1511,1,0,0:0:0:0:
224,136,1674,2,0,P|232:168|236:208,1,68.250002603531,2|2,0:0|0:0,0:0:0:0:
212,288,1998,1,2,0:0:0:0:
284,372,2160,6,0,B|321:369|353:361,1,68.250002603531,0|0,0:0|0:0,0:0:0:0:
432,264,2485,2,0,B|394:266|362:274,1,68.250002603531,2|2,0:0|0:0,0:0:0:0:
240,204,2809,6,0,L|220:124,2,68.250002603531
212,288,3296,2,0,L|232:368,2,68.250002603531,2|2|2,0:0|0:0|0:0,0:0:0:0:
128,216,3782,6,0,L|48:236,2,68.250002603531
328,264,4269,2,0,L|408:244,2,68.250002603531,2|2|2,0:0|0:0|0:0,0:0:0:0:
84,140,4755,6,0,P|72:100|72:68,1,68.250002603531
212,288,5079,2,0,P|224:328|224:360,1,68.250002603531,2|2,0:0|0:0,0:0:0:0:
56,256,5404,6,0,P|136:212|232:208,1,182,6|8,0:0|0:0,0:0:0:0:
328,264,5890,1,0,0:0:0:0:
444,272,6052,2,0,P|457:221|464:176,1,91,2|2,0:0|0:0,0:0:0:0:
324,64,6377,2,0,P|310:114|304:160,1,91,8|0,0:0|0:0,0:0:0:0:
220,236,6701,6,0,P|169:222|126:205,1,91,2|0,0:0|0:0,0:0:0:0:
304,152,7025,2,0,P|354:165|397:182,1,91,8|0,0:0|0:0,0:0:0:0:
444,272,7350,1,2,0:0:0:0:
368,364,7512,1,2,0:0:0:0:
260,320,7674,2,0,P|258:267|263:222,1,91,8|0,0:0|0:0,0:0:0:0:
441,93,7998,6,0,P|456:182|443:271,1,182,2|8,0:0|0:0,0:0:0:0:
368,364,8485,1,0,0:0:0:0:
368,364,8566,1,0,0:0:0:0:
368,364,8647,2,0,P|319:344|274:334,1,91,2|2,0:0|0:0,0:0:0:0:
216,236,8971,2,0,P|264:216|309:206,1,91,8|0,0:0|0:0,0:0:0:0:
328,92,9296,5,2,0:0:0:0:
216,56,9458,1,0,0:0:0:0:
140,144,9620,2,0,P|91:163|46:173,1,91,8|0,0:0|0:0,0:0:0:0:
216,56,9944,2,0,P|232:98|244:142,1,91,2|2,0:0|0:0,0:0:0:0:
244,324,10269,2,0,P|227:281|215:237,1,91,8|0,0:0|0:0,0:0:0:0:
328,92,10593,6,0,P|353:179|348:269,1,182,2|8,0:0|0:0,0:0:0:0:
244,324,11079,1,0,0:0:0:0:
244,324,11160,1,0,0:0:0:0:
244,324,11242,2,0,P|201:307|157:295,1,91,2|2,0:0|0:0,0:0:0:0:
40,156,11566,2,0,P|82:172|126:184,1,91,8|0,0:0|0:0,0:0:0:0:
244,184,11890,6,0,P|260:141|272:97,1,91,2|0,0:0|0:0,0:0:0:0:
180,28,12214,1,8,0:0:0:0:
104,120,12377,1,0,0:0:0:0:
156,228,12539,6,0,P|198:244|242:256,1,91,2|2,0:0|0:0,0:0:0:0:
412,196,12863,2,0,P|369:179|325:167,1,91,8|0,0:0|0:0,0:0:0:0:
127,314,13187,6,0,P|143:271|155:227,1,91,8|2,0:0|0:0,0:0:0:0:
76,207,13512,2,0,P|87:163|103:121,1,91,8|2,0:0|0:0,0:0:0:0:
228,296,13836,2,0,P|244:253|256:209,1,91,8|2,0:0|0:0,0:0:0:0:
16,120,14160,2,0,P|27:76|44:33,1,91,8|2,0:0|0:0,0:0:0:0:
164,24,14485,5,2,0:0:0:0:
208,24,14566,1,0,0:0:0:0:
241,54,14647,1,0,0:0:0:0:
244,98,14728,1,0,0:0:0:0:
216,133,14809,1,8,0:0:0:0:
144,228,14971,5,2,0:0:0:0:
116,263,15052,1,0,0:0:0:0:
119,307,15133,1,0,0:0:0:0:
152,337,15214,1,0,0:0:0:0:
197,338,15295,1,0,0:0:0:0:
304,288,15458,2,0,P|347:276|392:269,1,91,8|0,0:0|0:0,0:0:0:0:
436,380,15782,6,0,P|345:375|261:341,1,182,6|8,0:0|0:0,0:0:0:0:
224,228,16269,1,0,0:0:0:0:
268,120,16431,2,0,P|286:79|310:40,1,91,2|2,0:0|0:0,0:0:0:0:
348,208,16755,2,0,P|329:248|305:287,1,91,8|0,0:0|0:0,0:0:0:0:
200,340,17079,5,2,0:0:0:0:
88,296,17242,1,0,0:0:0:0:
80,176,17404,2,0,P|116:150|156:128,1,91,8|0,0:0|0:0,0:0:0:0:
304,272,17728,2,0,P|263:253|224:229,1,91,2|2,0:0|0:0,0:0:0:0:
264,28,18052,2,0,P|268:72|267:117,1,91,8|0,0:0|0:0,0:0:0:0:
224,232,18377,6,0,P|152:268|128:188,1,182,2|8,0:0|0:0,0:0:0:0:
200,100,18863,1,0,0:0:0:0:
200,100,18944,1,0,0:0:0:0:
200,100,19025,2,0,P|242:88|287:81,1,91,2|2,0:0|0:0,0:0:0:0:
452,164,19350,2,0,P|409:176|364:182,1,91,8|0,0:0|0:0,0:0:0:0:
304,272,19674,5,2,0:0:0:0:
368,372,19836,1,0,0:0:0:0:
476,324,19998,2,0,P|476:279|471:234,1,91,8|0,0:0|0:0,0:0:0:0:
360,92,20323,2,0,P|359:136|364:181,1,91,2|2,0:0|0:0,0:0:0:0:
308,364,20647,2,0,P|308:319|303:274,1,91,8|0,0:0|0:0,0:0:0:0:
220,160,20971,6,0,P|142:137|133:220,1,182,2|8,0:0|0:0,0:0:0:0:
216,300,21458,1,0,0:0:0:0:
216,300,21539,1,0,0:0:0:0:
216,300,21620,2,0,P|257:284|302:273,1,91,2|2,0:0|0:0,0:0:0:0:
468,352,21944,2,0,P|423:344|380:332,1,91,8|0,0:0|0:0,0:0:0:0:
304,164,22269,6,0,P|318:121|338:81,1,91,2|0,0:0|0:0,0:0:0:0:
448,40,22593,1,8,0:0:0:0:
508,140,22755,1,0,0:0:0:0:
464,252,22917,2,0,P|420:260|374:263,1,91,2|2,0:0|0:0,0:0:0:0:
212,176,23242,2,0,P|255:167|301:164,1,91,8|0,0:0|0:0,0:0:0:0:
376,264,23566,5,2,0:0:0:0:
300,356,23728,1,0,0:0:0:0:
188,316,23890,2,0,P|144:307|98:304,1,91,8|0,0:0|0:0,0:0:0:0:
120,188,24214,2,0,P|163:179|209:176,1,91,2|2,0:0|0:0,0:0:0:0:
252,64,24539,2,0,P|208:55|162:52,1,91,8|0,0:0|0:0,0:0:0:0:
56,104,24863,5,8,0:0:0:0:
30,139,24944,1,0,0:0:0:0:
39,182,25025,1,0,0:0:0:0:
78,203,25106,1,0,0:0:0:0:
120,188,25187,1,2,0:0:0:0:
236,156,25350,5,8,0:0:0:0:
356,160,25512,1,8,0:0:0:0:
404,268,25674,1,2,0:0:0:0:
292,352,25836,2,0,P|276:310|265:265,1,91,8|0,0:0|0:0,0:0:0:0:
329,73,26160,6,0,P|345:115|356:160,1,91,4|0,0:0|0:0,0:0:0:0:
236,156,26485,2,0,P|228:200|215:244,1,91,8|0,0:0|0:0,0:0:0:0:
27,271,26809,6,0,P|11:228|0:184,1,91,8|2,0:0|0:0,0:0:0:0:
120,188,27134,2,0,P|127:143|140:99,1,91,8|2,0:0|0:0,0:0:0:0:
164,60,27377,1,2,0:0:0:0:
208,48,27458,6,0,P|252:55|296:68,1,91,8|0,0:0|0:0,0:0:0:0:
264,244,27782,2,0,P|248:201|237:157,1,91,8|0,0:0|0:0,0:0:0:0:
404,88,28106,2,0,P|383:129|354:164,1,91,8|0,0:0|0:0,0:0:0:0:
33,214,28431,2,0,P|75:196|120:188,1,91,8|2,0:0|0:0,0:0:0:0:
164,184,28674,1,2,0:0:0:0:
208,200,28755,6,0,P|252:210|297:211,1,91,8|0,0:0|0:0,0:0:0:0:
316,96,29079,1,8,0:0:0:0:
208,48,29242,1,0,0:0:0:0:
108,112,29404,2,0,P|97:156|96:201,1,91,8|2,0:0|0:0,0:0:0:0:
172,292,29728,1,8,0:0:0:0:
284,256,29890,5,2,0:0:0:0:
284,256,29971,1,2,0:0:0:0:
284,256,30052,2,0,P|328:245|373:244,1,91,8|0,0:0|0:0,0:0:0:0:
500,100,30377,2,0,P|455:110|410:111,1,91,8|0,0:0|0:0,0:0:0:0:
428,316,30701,2,0,P|396:283|373:244,1,91,8|0,0:0|0:0,0:0:0:0:
172,292,31025,2,0,P|184:248|206:208,1,91,8|2,0:0|0:0,0:0:0:0:
232,172,31269,1,2,0:0:0:0:
272,148,31350,6,0,P|274:67|191:79,1,182,8|8,0:0|0:0,0:0:0:0:
76,88,31836,1,0,0:0:0:0:
32,200,31998,2,0,P|32:245|43:289,1,91,8|2,0:0|0:0,0:0:0:0:
62,328,32242,1,2,0:0:0:0:
105,341,32323,2,0,P|150:340|194:329,1,91,8|0,0:0|0:0,0:0:0:0:
400,232,32647,6,0,P|309:221|220:240,1,182,10|8,0:0|0:0,0:0:0:0:
124,172,33133,1,0,0:0:0:0:
192,72,33296,1,8,0:0:0:0:
308,100,33458,2,0,P|353:99|397:88,1,91,0|8,0:0|0:0,0:0:0:0:
484,268,33782,5,2,0:0:0:0:
484,268,33863,1,2,0:0:0:0:
484,268,33944,2,0,P|444:245|400:233,1,91,8|0,0:0|0:0,0:0:0:0:
290,277,34269,2,0,P|284:187|308:100,1,182,8|8,0:0|0:0,0:0:0:0:
408,36,34755,1,2,0:0:0:0:
468,136,34917,1,8,0:0:0:0:
368,196,35079,5,2,0:0:0:0:
368,196,35160,1,2,0:0:0:0:
368,196,35242,2,0,P|328:173|284:161,1,91,8|0,0:0|0:0,0:0:0:0:
160,292,35566,5,8,0:0:0:0:
126,320,35647,1,0,0:0:0:0:
82,314,35728,1,2,0:0:0:0:
58,278,35809,1,0,0:0:0:0:
70,235,35890,1,8,0:0:0:0:
120,60,36052,2,0,L|104:16,2,45.5,2|0|0,0:0|0:0|0:0,0:0:0:0:
256,252,36539,6,0,P|338:290|435:295,1,182,6|8,0:0|0:0,0:0:0:0:
500,200,37025,1,2,0:0:0:0:
412,120,37187,2,0,P|367:128|324:143,1,91,0|0,0:0|0:0,0:0:0:0:
212,176,37512,2,0,P|196:132|188:88,1,91,8|0,0:0|0:0,0:0:0:0:
284,20,37836,5,2,0:0:0:0:
384,88,37998,1,0,0:0:0:0:
368,204,38160,2,0,P|351:247|329:286,1,91,8|2,0:0|0:0,0:0:0:0:
148,316,38485,1,0,0:0:0:0:
37,139,38647,1,2,0:0:0:0:
37,139,38728,1,0,0:0:0:0:
37,138,38809,2,0,P|127:142|212:176,1,182,8|2,0:0|0:0,0:0:0:0:
276,276,39296,5,0,0:0:0:0:
392,300,39458,2,0,P|435:286|478:270,1,91,8|2,0:0|0:0,0:0:0:0:
380,114,39782,2,0,P|372:158|368:204,1,91,0|2,0:0|0:0,0:0:0:0:
263,365,40106,2,0,P|271:321|275:276,1,91,8|0,0:0|0:0,0:0:0:0:
268,156,40431,5,2,0:0:0:0:
156,116,40593,1,0,0:0:0:0:
116,228,40755,2,0,P|131:270|149:312,1,91,8|2,0:0|0:0,0:0:0:0:
364,260,41079,2,0,P|319:267|275:278,1,91,0|2,0:0|0:0,0:0:0:0:
236,300,41323,1,0,0:0:0:0:
196,320,41404,2,0,P|112:285|44:225,1,182,8|2,0:0|0:0,0:0:0:0:
44,108,41890,5,0,0:0:0:0:
148,48,42052,2,0,P|192:36|236:29,1,91,8|2,0:0|0:0,0:0:0:0:
268,208,42377,2,0,P|236:175|207:140,1,91,0|2,0:0|0:0,0:0:0:0:
364,24,42701,2,0,P|351:67|335:110,1,91,8|0,0:0|0:0,0:0:0:0:
268,208,43025,5,2,0:0:0:0:
160,160,43187,1,0,0:0:0:0:
248,80,43350,2,0,P|291:92|334:108,1,91,8|2,0:0|0:0,0:0:0:0:
396,208,43674,2,0,P|383:251|367:294,1,91,0|2,0:0|0:0,0:0:0:0:
336,328,43917,1,0,0:0:0:0:
292,344,43998,2,0,P|208:309|140:249,1,182,8|2,0:0|0:0,0:0:0:0:
116,132,44485,5,8,0:0:0:0:
116,132,44566,1,0,0:0:0:0:
116,132,44647,2,0,P|128:88|144:45,1,91,2|2,0:0|0:0,0:0:0:0:
268,208,44971,2,0,P|279:252|286:296,1,91,8|2,0:0|0:0,0:0:0:0:
72,312,45296,2,0,P|104:280|139:251,1,91,8|2,0:0|0:0,0:0:0:0:
268,208,45620,5,2,0:0:0:0:
280,216,45782,1,2,0:0:0:0:
292,225,45944,1,2,0:0:0:0:
304,234,46106,1,2,0:0:0:0:
428,80,46917,5,6,0:0:0:0:
320,32,47079,1,0,0:0:0:0:
240,120,47242,2,0,P|251:163|267:206,1,91,8|2,0:0|0:0,0:0:0:0:
340,300,47566,2,0,P|415:328|433:250,1,182,2|8,0:0|0:0,0:0:0:0:
360,160,48052,6,0,P|316:171|273:187,1,91,0|2,0:0|0:0,0:0:0:0:
166,349,48377,2,0,P|256:334|340:300,1,182,0|0,0:0|0:0,0:0:0:0:
428,220,48863,1,2,0:0:0:0:
420,104,49025,2,0,P|394:66|364:32,1,91,2|8,0:0|0:0,0:0:0:0:
176,32,49350,6,0,P|213:114|269:186,1,182,0|0,0:0|0:0,0:0:0:0:
244,300,49836,2,0,P|206:326|167:348,1,91,8|0,0:0|0:0,0:0:0:0:
64,292,50160,2,0,P|35:216|113:198,1,182,2|8,0:0|0:0,0:0:0:0:
232,208,50647,5,0,0:0:0:0:
304,112,50809,1,2,0:0:0:0:
208,44,50971,2,0,P|166:63|127:86,1,91,0|8,0:0|0:0,0:0:0:0:
56,184,51296,1,0,0:0:0:0:
152,252,51458,6,0,P|193:232|232:209,1,91,2|2,0:0|0:0,0:0:0:0:
208,44,51782,1,8,0:0:0:0:
96,80,51944,2,0,P|114:168|151:251,1,182,0|0,0:0|0:0,0:0:0:0:
268,284,52431,6,0,P|309:264|348:241,1,91,8|0,0:0|0:0,0:0:0:0:
400,136,52755,2,0,P|387:56|309:79,1,182,2|8,0:0|0:0,0:0:0:0:
232,168,53242,5,0,0:0:0:0:
132,104,53404,1,2,0:0:0:0:
228,36,53566,2,0,P|269:55|308:78,1,91,0|8,0:0|0:0,0:0:0:0:
404,232,53890,6,0,P|362:212|323:189,1,91,0|2,0:0|0:0,0:0:0:0:
224,252,54214,1,2,0:0:0:0:
296,348,54377,1,8,0:0:0:0:
412,324,54539,2,0,P|440:237|449:147,1,182,0|0,0:0|0:0,0:0:0:0:
384,48,55025,5,8,0:0:0:0:
272,88,55187,1,0,0:0:0:0:
284,208,55350,2,0,P|306:247|332:284,1,91,2|2,0:0|0:0,0:0:0:0:
456,104,55674,2,0,P|421:74|384:48,1,91,8|0,0:0|0:0,0:0:0:0:
272,88,55998,6,0,P|232:110|195:136,1,91,2|0,0:0|0:0,0:0:0:0:
208,256,56323,1,8,0:0:0:0:
308,320,56485,2,0,P|347:297|384:271,1,91,0|10,0:0|0:0,0:0:0:0:
456,104,56809,2,0,P|411:111|367:123,1,91,2|8,0:0|0:0,0:0:0:0:
284,208,57133,2,0,P|199:174|124:123,1,182,4|0,0:0|0:0,0:0:0:0:
224,56,57620,6,0,P|220:101|211:146,1,91,8|0,0:0|0:0,0:0:0:0:
164,256,57944,2,0,P|94:297|62:223,1,182,2|8,0:0|0:0,0:0:0:0:
124,124,58431,6,0,P|167:112|212:104,1,91,0|2,0:0|0:0,0:0:0:0:
344,264,58755,2,0,P|253:271|163:257,1,182,0|0,0:0|0:0,0:0:0:0:
56,212,59242,1,2,0:0:0:0:
124,124,59404,2,0,P|167:112|212:104,1,91,2|8,0:0|0:0,0:0:0:0:
312,168,59728,6,0,P|398:196|488:205,1,182,0|0,0:0|0:0,0:0:0:0:
500,88,60214,1,8,0:0:0:0:
400,24,60377,1,0,0:0:0:0:
300,88,60539,2,0,P|213:116|123:125,1,182,2|8,0:0|0:0,0:0:0:0:
56,212,61025,6,0,P|63:256|75:300,1,91,0|2,0:0|0:0,0:0:0:0:
256,328,61350,1,0,0:0:0:0:
256,328,61512,2,0,P|226:292|194:260,1,91,8|0,0:0|0:0,0:0:0:0:
120,168,61836,2,0,P|149:132|181:100,1,91,2|2,0:0|0:0,0:0:0:0:
300,88,62160,1,8,0:0:0:0:
300,208,62323,6,0,P|213:236|123:245,1,182,0|0,0:0|0:0,0:0:0:0:
28,176,62809,2,0,P|19:131|15:85,1,91,8|0,0:0|0:0,0:0:0:0:
120,28,63133,2,0,P|196:54|160:126,1,182,0|8,0:0|0:0,0:0:0:0:
124,240,63620,6,0,P|135:283|151:326,1,91,0|2,0:0|0:0,0:0:0:0:
260,280,63944,1,0,0:0:0:0:
260,280,64106,2,0,P|303:291|348:299,1,91,8|0,0:0|0:0,0:0:0:0:
500,196,64431,2,0,P|456:184|411:176,1,91,2|2,0:0|0:0,0:0:0:0:
260,280,64755,1,8,0:0:0:0:
428,356,64917,6,0,P|430:265|412:176,1,182,0|0,0:0|0:0,0:0:0:0:
312,112,65404,1,8,0:0:0:0:
212,172,65566,1,0,0:0:0:0:
260,280,65728,2,0,P|297:306|336:328,1,91,2|2,0:0|0:0,0:0:0:0:
452,276,66052,2,0,P|478:238|500:199,1,91,8|0,0:0|0:0,0:0:0:0:
408,44,66377,5,2,0:0:0:0:
312,112,66539,1,0,0:0:0:0:
108,112,66701,5,8,0:0:0:0:
212,172,66863,1,0,0:0:0:0:
184,288,67025,5,0,0:0:0:0:
173,314,67106,1,0,0:0:0:0:
153,333,67187,1,0,0:0:0:0:
126,342,67268,1,0,0:0:0:0:
98,339,67349,1,0,0:0:0:0:
74,324,67430,1,0,0:0:0:0:
59,301,67511,1,0,0:0:0:0:
55,273,67592,1,0,0:0:0:0:
64,246,67673,1,4,0:0:0:0:
256,192,67836,12,0,70269,0:0:0:0:
200,220,75458,6,0,P|192:264|188:310,1,91,8|2,0:0|0:0,0:0:0:0:
308,172,75782,2,0,P|316:216|320:262,1,91,8|2,0:0|0:0,0:0:0:0:
116,112,76106,2,0,P|108:156|104:202,1,91,8|2,0:0|0:0,0:0:0:0:
384,44,76431,2,0,P|392:88|396:134,1,91,8|2,0:0|0:0,0:0:0:0:
392,172,76674,5,0,0:0:0:0:
386,207,76755,1,0,0:0:0:0:
364,235,76836,1,0,0:0:0:0:
330,247,76917,1,0,0:0:0:0:
295,240,76998,1,0,0:0:0:0:
268,216,77079,1,2,0:0:0:0:
116,112,77241,5,8,0:0:0:0:
116,112,77323,1,0,0:0:0:0:
116,112,77404,2,0,P|153:85|192:63,1,91,0|2,0:0|0:0,0:0:0:0:
384,44,77728,2,0,P|395:87|403:132,1,91,8|2,0:0|0:0,0:0:0:0:
368,236,78052,5,2,0:0:0:0:
368,236,78214,1,2,0:0:0:0:
260,188,78377,2,0,P|216:176|171:168,1,91,8|2,0:0|0:0,0:0:0:0:
60,128,78701,2,0,P|24:204|88:272,1,182,8|8,0:0|0:0,0:0:0:0:
200,292,79187,5,0,0:0:0:0:
260,188,79350,1,10,0:0:0:0:
176,104,79512,1,2,0:0:0:0:
60,128,79674,2,0,P|48:171|40:216,1,91,8|0,0:0|0:0,0:0:0:0:
64,332,79998,2,0,P|144:357|202:284,1,182,8|8,0:0|0:0,0:0:0:0:
260,188,80485,5,0,0:0:0:0:
372,224,80647,2,0,P|383:267|391:312,1,91,10|2,0:0|0:0,0:0:0:0:
260,188,80971,2,0,P|271:144|287:101,1,91,8|2,0:0|0:0,0:0:0:0:
404,84,81296,2,0,P|434:162|366:225,1,182,8|8,0:0|0:0,0:0:0:0:
260,188,81782,5,0,0:0:0:0:
208,84,81944,1,10,0:0:0:0:
308,16,82106,1,2,0:0:0:0:
404,84,82269,2,0,P|447:95|492:103,1,91,8|2,0:0|0:0,0:0:0:0:
504,220,82593,2,0,P|451:285|362:257,1,182,8|8,0:0|0:0,0:0:0:0:
260,188,83079,5,0,0:0:0:0:
260,188,83160,1,0,0:0:0:0:
260,188,83242,2,0,P|227:220|198:254,1,91,10|2,0:0|0:0,0:0:0:0:
356,348,83566,2,0,P|367:256|348:168,1,182,8|8,0:0|0:0,0:0:0:0:
256,96,84052,6,0,P|212:84|167:76,1,91,2|8,0:0|0:0,0:0:0:0:
56,220,84377,2,0,P|99:208|142:192,1,91,0|10,0:0|0:0,0:0:0:0:
168,76,84701,1,2,0:0:0:0:
56,116,84863,2,0,P|53:206|79:293,1,182,8|8,0:0|0:0,0:0:0:0:
184,352,85350,1,2,0:0:0:0:
280,280,85512,1,8,0:0:0:0:
228,172,85674,5,0,0:0:0:0:
228,172,85755,1,0,0:0:0:0:
228,172,85837,2,0,P|186:153|143:138,1,91,10|0,0:0|0:0,0:0:0:0:
56,220,86160,2,0,P|54:304|140:340,1,182,8|8,0:0|0:0,0:0:0:0:
244,292,86647,6,0,P|252:336|257:381,1,91,2|10,0:0|0:0,0:0:0:0:
124,264,86971,2,0,P|128:218|137:174,1,91,0|10,0:0|0:0,0:0:0:0:
316,160,87296,2,0,P|271:168|226:173,1,91,2|8,0:0|0:0,0:0:0:0:
168,76,87620,5,2,0:0:0:0:
272,16,87782,1,8,0:0:0:0:
392,136,87944,1,0,0:0:0:0:
392,136,88025,1,0,0:0:0:0:
392,136,88106,2,0,P|379:219|288:239,1,182,8|4,0:0|0:0,0:0:0:0:
188,192,88593,5,0,0:0:0:0:
80,236,88755,2,0,P|70:280|67:325,1,91,8|0,0:0|0:0,0:0:0:0:
188,192,89079,2,0,P|184:146|175:102,1,91,2|2,0:0|0:0,0:0:0:0:
162,283,89404,2,0,P|206:292|252:296,1,91,8|0,0:0|0:0,0:0:0:0:
348,224,89728,5,2,0:0:0:0:
284,124,89890,1,0,0:0:0:0:
188,192,90052,1,8,0:0:0:0:
252,296,90214,1,0,0:0:0:0:
348,224,90377,2,0,P|359:180|366:135,1,91,2|2,0:0|0:0,0:0:0:0:
360,92,90620,1,0,0:0:0:0:
328,60,90701,2,0,P|243:26|153:22,1,182,8|2,0:0|0:0,0:0:0:0:
44,68,91187,5,0,0:0:0:0:
100,172,91350,2,0,P|143:183|188:190,1,91,8|0,0:0|0:0,0:0:0:0:
304,36,91674,2,0,P|292:79|285:124,1,91,2|2,0:0|0:0,0:0:0:0:
436,242,91998,2,0,P|392:230|348:224,1,91,8|0,0:0|0:0,0:0:0:0:
252,296,92323,5,2,0:0:0:0:
336,376,92485,1,0,0:0:0:0:
432,308,92647,1,8,0:0:0:0:
348,224,92809,1,0,0:0:0:0:
252,296,92971,1,2,0:0:0:0:
184,200,93133,1,2,0:0:0:0:
184,200,93214,1,0,0:0:0:0:
184,200,93296,2,0,P|196:110|238:29,1,182,8|2,0:0|0:0,0:0:0:0:
352,68,93782,5,0,0:0:0:0:
280,160,93944,2,0,P|235:153|191:141,1,91,8|0,0:0|0:0,0:0:0:0:
44,32,94269,2,0,P|88:38|132:50,1,91,2|2,0:0|0:0,0:0:0:0:
80,224,94593,2,0,P|86:179|98:135,1,91,8|0,0:0|0:0,0:0:0:0:
224,60,94917,5,2,0:0:0:0:
224,60,95079,1,0,0:0:0:0:
280,160,95242,1,8,0:0:0:0:
280,160,95404,1,0,0:0:0:0:
352,68,95566,1,2,0:0:0:0:
400,176,95728,1,2,0:0:0:0:
400,176,95809,1,0,0:0:0:0:
400,176,95890,2,0,P|373:255|280:260,1,182,8|0,0:0|0:0,0:0:0:0:
196,184,96377,6,0,L|176:132,5,45.5
160,92,96863,6,0,L|108:72,1,45.5,0|0,0:0|0:0,0:0:0:0:
32,136,97025,2,0,L|74:152,1,45.5,0|0,0:0|0:0,0:0:0:0:
144,248,97187,2,0,L|92:228,1,45.5,0|0,0:0|0:0,0:0:0:0:
16,292,97349,2,0,L|58:308,1,45.5,0|0,0:0|0:0,0:0:0:0:
100,324,97512,5,0,0:0:0:0:
144,333,97593,1,0,0:0:0:0:
189,328,97674,1,2,0:0:0:0:
230,310,97755,1,0,0:0:0:0:
264,280,97836,1,0,0:0:0:0:
300,168,97998,2,0,P|301:122|297:77,1,91,2|0,0:0|0:0,0:0:0:0:
160,92,98323,2,0,P|138:52|112:14,1,91,2|0,0:0|0:0,0:0:0:0:
32,136,98647,1,2,0:0:0:0:
76,244,98809,6,0,P|158:267|213:201,1,182,4|8,0:0|0:0,0:0:0:0:
160,92,99296,1,0,0:0:0:0:
256,24,99458,2,0,P|338:61|410:117,1,182,2|8,0:0|0:0,0:0:0:0:
404,236,99944,6,0,P|377:273|347:307,1,91,0|2,0:0|0:0,0:0:0:0:
228,312,100269,2,0,P|154:276|199:209,1,182,0|0,0:0|0:0,0:0:0:0:
316,196,100755,1,2,0:0:0:0:
408,124,100917,2,0,P|393:80|374:39,1,91,2|8,0:0|0:0,0:0:0:0:
256,24,101242,2,0,P|174:63|85:82,1,182,0|0,0:0|0:0,0:0:0:0:
32,188,101728,6,0,P|66:218|103:244,1,91,10|0,0:0|0:0,0:0:0:0:
216,284,102052,2,0,P|289:248|244:181,1,182,2|8,0:0|0:0,0:0:0:0:
164,96,102539,5,0,0:0:0:0:
256,24,102701,1,2,0:0:0:0:
360,84,102863,2,0,P|368:128|372:173,1,91,2|8,0:0|0:0,0:0:0:0:
216,284,103187,1,0,0:0:0:0:
160,180,103350,2,0,P|204:171|249:167,1,91,2|2,0:0|0:0,0:0:0:0:
340,244,103674,1,8,0:0:0:0:
292,352,103836,2,0,P|204:371|113:370,1,182,0|0,0:0|0:0,0:0:0:0:
28,288,104323,6,0,P|19:243|15:198,1,91,10|0,0:0|0:0,0:0:0:0:
86,103,104647,2,0,P|166:99|160:180,1,182,2|8,0:0|0:0,0:0:0:0:
140,296,105133,6,0,P|166:333|196:367,1,91,0|2,0:0|0:0,0:0:0:0:
272,276,105458,1,0,0:0:0:0:
272,276,105620,2,0,P|313:295|356:309,1,91,8|0,0:0|0:0,0:0:0:0:
380,128,105944,2,0,P|360:169|346:212,1,91,2|2,0:0|0:0,0:0:0:0:
488,96,106269,5,8,0:0:0:0:
488,96,106431,2,0,P|408:54|319:31,1,182,0|0,0:0|0:0,0:0:0:0:
204,64,106917,2,0,P|166:90|132:120,1,91,10|0,0:0|0:0,0:0:0:0:
272,276,107242,2,0,P|252:234|229:195,1,91,2|2,0:0|0:0,0:0:0:0:
48,296,107566,2,0,P|91:284|134:267,1,91,10|0,0:0|0:0,0:0:0:0:
228,196,107890,5,2,0:0:0:0:
132,120,108052,1,0,0:0:0:0:
64,216,108214,1,8,0:0:0:0:
180,360,108377,2,0,P|223:348|266:331,1,91,2|8,0:0|0:0,0:0:0:0:
336,120,108701,2,0,P|324:163|318:208,1,91,2|8,0:0|0:0,0:0:0:0:
344,324,109025,6,0,P|404:377|450:310,1,182,4|0,0:0|0:0,0:0:0:0:
436,192,109512,1,8,0:0:0:0:
320,208,109674,1,0,0:0:0:0:
232,288,109836,2,0,P|145:312|53:316,1,182,2|8,0:0|0:0,0:0:0:0:
8,208,110323,6,0,P|48:189|92:174,1,91,0|2,0:0|0:0,0:0:0:0:
208,196,110647,2,0,P|298:207|388:198,1,182,0|0,0:0|0:0,0:0:0:0:
452,100,111133,1,2,0:0:0:0:
344,52,111296,2,0,P|325:92|310:136,1,91,2|8,0:0|0:0,0:0:0:0:
352,312,111620,6,0,P|412:365|458:298,1,182,0|0,0:0|0:0,0:0:0:0:
424,184,112106,2,0,P|387:158|346:136,1,91,8|0,0:0|0:0,0:0:0:0:
232,108,112431,2,0,P|148:142|74:195,1,182,2|8,0:0|0:0,0:0:0:0:
76,312,112917,5,0,0:0:0:0:
188,356,113079,1,2,0:0:0:0:
272,272,113242,2,0,P|267:227|258:182,1,91,0|8,0:0|0:0,0:0:0:0:
136,48,113566,1,0,0:0:0:0:
52,128,113728,2,0,P|56:172|65:217,1,91,2|2,0:0|0:0,0:0:0:0:
188,356,114052,1,8,0:0:0:0:
272,272,114214,2,0,P|268:181|243:93,1,182,0|0,0:0|0:0,0:0:0:0:
136,48,114701,6,0,P|140:92|149:137,1,91,8|0,0:0|0:0,0:0:0:0:
188,248,115025,2,0,P|263:277|283:199,1,182,2|8,0:0|0:0,0:0:0:0:
344,96,115512,5,0,0:0:0:0:
444,160,115674,1,2,0:0:0:0:
392,264,115836,2,0,P|360:295|323:323,1,91,0|8,0:0|0:0,0:0:0:0:
108,204,116160,2,0,P|148:223|187:247,1,91,0|2,0:0|0:0,0:0:0:0:
344,96,116485,2,0,P|303:115|264:139,1,91,2|8,0:0|0:0,0:0:0:0:
224,336,116809,2,0,P|311:310|389:265,1,182,0|0,0:0|0:0,0:0:0:0:
444,160,117296,5,8,0:0:0:0:
344,96,117458,1,0,0:0:0:0:
252,168,117620,2,0,P|211:186|167:201,1,91,2|2,0:0|0:0,0:0:0:0:
28,84,117944,2,0,P|46:124|61:168,1,91,8|0,0:0|0:0,0:0:0:0:
92,304,118269,5,2,0:0:0:0:
224,336,118431,1,2,0:0:0:0:
344,268,118593,1,0,0:0:0:0:
344,96,118755,5,0,0:0:0:0:
212,64,118917,1,2,0:0:0:0:
92,132,119079,1,0,0:0:0:0:
184,236,119242,6,0,P|227:252|271:265,1,91,0|0,0:0|0:0,0:0:0:0:
376,180,119566,1,4,0:0:0:0:
256,192,119728,12,0,122160,0:0:0:0:
212,139,124593,5,2,0:0:0:0:
323,180,124755,1,2,0:0:0:0:
232,256,124917,1,2,0:0:0:0:
256,100,127188,5,2,0:0:0:0:
256,100,127269,1,0,0:0:0:0:
256,100,127350,2,0,L|256:204,1,91,2|2,0:0|0:0,0:0:0:0:
92,272,127836,2,0,P|96:316|105:361,2,91,8|8|8,0:0|0:0|0:0,0:0:0:0:
420,112,128485,2,0,P|416:68|407:23,2,91,8|8|8,0:0|0:0|0:0,0:0:0:0:
416,212,128971,5,0,0:0:0:0:
328,260,129133,1,0,0:0:0:0:
256,192,129296,1,2,0:0:0:0:
288,96,129458,1,0,0:0:0:0:
291,66,129539,1,0,0:0:0:0:
278,39,129620,1,0,0:0:0:0:
253,23,129701,1,0,0:0:0:0:
223,22,129782,1,0,0:0:0:0:
197,38,129863,1,0,0:0:0:0:
180,64,129944,6,0,P|160:152|100:236,1,182,4|0,0:0|0:0,0:0:0:0:
24,144,130431,1,2,0:0:0:0:
80,40,130593,2,0,P|168:60|248:120,1,182,8|0,0:0|0:0,0:0:0:0:
236,232,131079,1,2,0:0:0:0:
132,288,131242,6,0,P|100:256|71:220,1,91,2|8,0:0|0:0,0:0:0:0:
80,40,131566,2,0,P|76:84|67:129,1,91,2|2,0:0|0:0,0:0:0:0:
132,288,131890,2,0,P|215:323|305:338,1,182,8|0,0:0|0:0,0:0:0:0:
404,272,132377,1,0,0:0:0:0:
368,160,132539,6,0,P|284:124|194:109,1,182,4|0,0:0|0:0,0:0:0:0:
104,184,133025,1,2,0:0:0:0:
216,224,133187,2,0,P|271:152|309:69,1,182,8|0,0:0|0:0,0:0:0:0:
428,56,133674,5,2,0:0:0:0:
464,168,133836,1,2,0:0:0:0:
404,272,133998,1,8,0:0:0:0:
292,312,134160,1,2,0:0:0:0:
216,224,134323,2,0,P|180:200|120:176,1,91,2|8,0:0|0:0,0:0:0:0:
28,356,134647,2,0,P|59:324|88:288,1,91,0|0,0:0|0:0,0:0:0:0:
136,180,134971,5,0,0:0:0:0:
136,180,135133,2,0,P|114:102|40:133,1,182,6|0,0:0|0:0,0:0:0:0:
60,252,135620,1,2,0:0:0:0:
172,288,135782,2,0,P|259:263|350:260,1,182,8|0,0:0|0:0,0:0:0:0:
440,180,136269,5,2,0:0:0:0:
352,100,136431,1,2,0:0:0:0:
256,172,136593,2,0,P|259:216|268:261,1,91,10|2,0:0|0:0,0:0:0:0:
460,360,136917,2,0,P|460:269|440:180,1,182,2|0,0:0|0:0,0:0:0:0:
352,100,137404,2,0,P|307:103|262:112,1,91,8|0,0:0|0:0,0:0:0:0:
192,208,137728,6,0,P|117:238|96:161,1,182,4|0,0:0|0:0,0:0:0:0:
172,72,138214,2,0,P|256:39|346:27,1,182,8|8,0:0|0:0,0:0:0:0:
444,96,138701,2,0,P|460:138|472:182,1,91,2|0,0:0|0:0,0:0:0:0:
468,228,138944,1,0,0:0:0:0:
456,272,139025,6,0,P|417:294|375:313,1,91,10|0,0:0|0:0,0:0:0:0:
232,292,139350,1,0,0:0:0:0:
165,162,139512,2,0,P|164:116|172:72,1,91,10|8,0:0|0:0,0:0:0:0:
312,36,139836,1,0,0:0:0:0:
344,176,139998,2,0,P|297:202|254:217,1,91,10|0,0:0|0:0,0:0:0:0:
166,162,140323,5,0,0:0:0:0:
144,140,140485,1,0,0:0:0:0:
124,116,140647,1,0,0:0:0:0:
104,92,140809,1,0,0:0:0:0:
312,36,140971,5,8,0:0:0:0:
288,56,141133,1,0,0:0:0:0:
264,76,141295,1,0,0:0:0:0:
242,98,141457,1,0,0:0:0:0:
408,240,141620,5,0,0:0:0:0:
388,216,141782,1,0,0:0:0:0:
368,192,141944,1,0,0:0:0:0:
346,170,142106,1,0,0:0:0:0:
180,312,142269,5,8,0:0:0:0:
204,292,142431,1,0,0:0:0:0:
228,272,142593,1,0,0:0:0:0:
250,250,142755,1,0,0:0:0:0:
208,140,142917,5,0,0:0:0:0:
96,176,143079,1,0,0:0:0:0:
96,296,143242,1,0,0:0:0:0:
208,332,143404,1,0,0:0:0:0:
280,236,143566,1,8,0:0:0:0:
208,140,143728,5,0,0:0:0:0:
208,140,143809,1,0,0:0:0:0:
208,140,143890,2,0,P|214:95|230:52,1,91,2|2,0:0|0:0,0:0:0:0:
280,236,144214,2,0,P|273:280|257:323,1,91,2|2,0:0|0:0,0:0:0:0:
100,232,144539,2,0,P|144:238|187:254,1,91,2|2,0:0|0:0,0:0:0:0:
352,332,144863,5,8,0:0:0:0:
352,332,145025,1,8,0:0:0:0:
468,192,145187,1,8,0:0:0:0:
468,192,145350,1,8,0:0:0:0:
356,48,145512,1,4,0:0:0:0:
256,192,145674,12,4,150701,0:0:0:0:
348,276,160431,6,0,L|364:232,7,45.5,2|0|0|0|0|0|0|0,0:0|0:0|0:0|0:0|0:0|0:0|0:0|0:0,0:0:0:0:
352,188,161079,2,0,P|292:148|212:124,1,145.6,2|0,0:0|0:0,0:0:0:0:
128,136,161566,1,0,0:0:0:0:
68,208,161728,2,0,P|50:278|55:361,1,145.6,8|0,0:0|0:0,0:0:0:0:
144,376,162214,1,0,0:0:0:0:
220,320,162377,6,0,P|217:283|210:244,1,72.8,2|0,0:0|0:0,0:0:0:0:
304,228,162701,2,0,P|289:194|269:160,1,72.8,2|0,0:0|0:0,0:0:0:0:
212,88,163025,2,0,P|148:72|128:136,1,145.6,8|0,0:0|0:0,0:0:0:0:
144,228,163512,1,0,0:0:0:0:
232,260,163674,6,0,B|278:281|330:237|378:253,1,145.6,2|0,0:0|0:0,0:0:0:0:
432,328,164160,1,0,0:0:0:0:
340,348,164323,2,0,P|337:275|354:204,1,145.6,8|0,0:0|0:0,0:0:0:0:
444,172,164809,1,0,0:0:0:0:
496,248,164971,6,0,P|461:260|426:268,1,72.8,2|0,0:0|0:0,0:0:0:0:
356,204,165296,2,0,P|320:197|283:195,1,72.8,2|0,0:0|0:0,0:0:0:0:
200,240,165620,2,0,P|135:206|83:156,1,145.6,8|0,0:0|0:0,0:0:0:0:
76,60,166106,1,0,0:0:0:0:
164,20,166269,6,0,P|228:53|280:103,1,145.6,2|0,0:0|0:0,0:0:0:0:
284,196,166755,1,0,0:0:0:0:
200,240,166917,2,0,P|182:310|187:393,1,145.6,8|0,0:0|0:0,0:0:0:0:
280,372,167404,1,0,0:0:0:0:
264,280,167566,6,0,P|228:273|191:271,1,72.8,2|0,0:0|0:0,0:0:0:0:
160,184,167890,2,0,P|195:177|232:175,1,72.8,2|0,0:0|0:0,0:0:0:0:
316,224,168214,2,0,P|377:262|447:283,1,145.6,8|0,0:0|0:0,0:0:0:0:
508,212,168701,1,0,0:0:0:0:
484,120,168863,6,0,L|448:88,3,36.4,2|0|0|0,0:0|0:0|0:0|0:0,0:0:0:0:
404,44,169187,2,0,L|358:59,3,36.4,2|0|0|0,0:0|0:0|0:0|0:0,0:0:0:0:
312,100,169512,2,0,L|276:68,3,36.4,2|0|0|0,0:0|0:0|0:0|0:0,0:0:0:0:
220,40,169836,2,0,L|174:55,3,36.4,2|0|0|0,0:0|0:0|0:0|0:0,0:0:0:0:
100,76,170160,6,0,L|116:120,1,45.5,2|0,0:0|0:0,0:0:0:0:
180,184,170323,2,0,L|149:219,1,45.5
100,296,170485,2,0,L|135:326,1,45.5,2|0,0:0|0:0,0:0:0:0:
212,372,170648,2,0,L|255:355,1,45.5
364,376,170809,5,8,0:0:0:0:
472,324,170971,1,8,0:0:0:0:
488,208,171133,1,8,0:0:0:0:
416,112,171296,1,8,0:0:0:0:
308,160,171458,6,0,P|289:200|274:244,1,91,4|0,0:0|0:0,0:0:0:0:
364,376,171782,2,0,P|383:336|398:292,1,91,8|0,0:0|0:0,0:0:0:0:
416,112,172106,2,0,P|336:65|250:39,1,182,2|8,0:0|0:0,0:0:0:0:
120,168,172593,6,0,P|145:204|175:239,1,91,0|2,0:0|0:0,0:0:0:0:
292,268,172917,2,0,P|358:222|306:161,1,182,2|0,0:0|0:0,0:0:0:0:
176,240,173404,1,2,0:0:0:0:
257,352,173566,2,0,P|277:311|292:268,1,91,2|8,0:0|0:0,0:0:0:0:
156,60,173890,2,0,P|155:152|175:240,1,182,0|0,0:0|0:0,0:0:0:0:
292,268,174377,6,0,P|335:256|378:239,1,91,8|0,0:0|0:0,0:0:0:0:
452,72,174701,2,0,P|360:87|277:122,1,182,2|8,0:0|0:0,0:0:0:0:
228,228,175187,5,0,0:0:0:0:
120,176,175350,1,2,0:0:0:0:
156,60,175512,2,0,P|198:43|242:31,1,91,0|8,0:0|0:0,0:0:0:0:
388,116,175836,1,0,0:0:0:0:
388,116,175998,2,0,P|343:122|299:134,1,91,0|2,0:0|0:0,0:0:0:0:
228,228,176323,1,8,0:0:0:0:
284,332,176485,2,0,P|357:365|381:288,1,182,0|0,0:0|0:0,0:0:0:0:
308,200,176971,6,0,P|309:154|315:109,1,91,8|0,0:0|0:0,0:0:0:0:
476,24,177296,2,0,P|480:114|463:203,1,182,2|8,0:0|0:0,0:0:0:0:
381,288,177782,6,0,P|342:264|306:235,1,91,0|2,0:0|0:0,0:0:0:0:
124,220,178106,2,0,P|162:196|198:167,1,91,0|8,0:0|0:0,0:0:0:0:
380,136,178431,1,0,0:0:0:0:
380,136,178593,2,0,P|341:112|305:83,1,91,2|2,0:0|0:0,0:0:0:0:
196,40,178917,5,8,0:0:0:0:
92,92,179079,2,0,P|80:184|88:272,1,182,0|0,0:0|0:0,0:0:0:0:
196,320,179566,1,8,0:0:0:0:
300,268,179728,1,0,0:0:0:0:
272,152,179890,2,0,P|228:137|184:128,1,91,2|2,0:0|0:0,0:0:0:0:
32,228,180214,2,0,P|77:226|122:220,1,91,8|0,0:0|0:0,0:0:0:0:
128,40,180539,5,2,0:0:0:0:
20,108,180701,1,0,0:0:0:0:
32,228,180863,1,8,0:0:0:0:
144,260,181025,2,0,P|189:254|233:244,1,91,2|8,0:0|0:0,0:0:0:0:
256,64,181350,2,0,P|261:109|271:153,1,91,2|8,0:0|0:0,0:0:0:0:
400,284,181674,2,8,P|394:191|369:106,1,182,4|0,0:0|0:0,0:0:0:0:
256,64,182160,6,0,P|211:72|168:86,1,91,8|0,0:0|0:0,0:0:0:0:
84,172,182485,2,0,P|64:249|144:259,1,182,2|8,0:0|0:0,0:0:0:0:
264,248,182971,6,0,P|291:283|315:322,1,91,0|2,0:0|0:0,0:0:0:0:
144,260,183296,2,0,P|153:215|168:172,1,91,0|8,0:0|0:0,0:0:0:0:
336,108,183620,1,0,0:0:0:0:
336,108,183782,2,0,P|295:87|257:63,1,91,2|2,0:0|0:0,0:0:0:0:
140,68,184106,1,8,0:0:0:0:
84,172,184269,2,0,P|95:261|135:349,1,182,0|0,0:0|0:0,0:0:0:0:
248,360,184755,6,0,P|292:350|335:335,1,91,8|0,0:0|0:0,0:0:0:0:
408,244,185079,2,0,P|386:166|311:197,1,182,2|8,0:0|0:0,0:0:0:0:
200,160,185566,5,0,0:0:0:0:
236,48,185728,1,2,0:0:0:0:
356,52,185890,2,0,P|396:72|434:96,1,91,0|8,0:0|0:0,0:0:0:0:
252,236,186214,2,0,P|223:200|199:161,1,91,0|2,0:0|0:0,0:0:0:0:
408,244,186539,2,0,P|391:286|370:326,1,91,2|8,0:0|0:0,0:0:0:0:
256,356,186863,2,0,P|174:316|107:255,1,182,0|0,0:0|0:0,0:0:0:0:
84,140,187350,6,0,P|100:97|121:57,1,91,8|0,0:0|0:0,0:0:0:0:
240,48,187674,2,0,P|304:96|248:154,1,182,2|8,0:0|0:0,0:0:0:0:
188,256,188160,5,0,0:0:0:0:
256,356,188323,1,2,0:0:0:0:
372,336,188485,1,0,0:0:0:0:
412,224,188647,2,0,P|395:181|374:141,1,91,8|0,0:0|0:0,0:0:0:0:
188,256,188971,1,2,0:0:0:0:
188,256,189133,2,0,P|232:247|275:233,1,91,2|8,0:0|0:0,0:0:0:0:
364,72,189458,6,0,P|275:51|185:58,1,182,0|0,0:0|0:0,0:0:0:0:
120,160,189944,1,8,0:0:0:0:
188,256,190106,1,0,0:0:0:0:
304,232,190269,2,0,P|318:188|328:144,1,91,2|2,0:0|0:0,0:0:0:0:
144,72,190593,2,0,P|174:106|207:136,1,91,8|0,0:0|0:0,0:0:0:0:
451,49,190917,6,0,P|407:58|364:72,1,91,8|2,0:0|0:0,0:0:0:0:
341,314,191242,2,0,P|325:272|304:232,1,91,2|8,0:0|0:0,0:0:0:0:
208,136,191566,5,0,0:0:0:0:
190,121,191647,1,0,0:0:0:0:
169,115,191728,1,0,0:0:0:0:
146,118,191809,1,0,0:0:0:0:
127,130,191890,1,8,0:0:0:0:
115,149,191971,1,0,0:0:0:0:
111,171,192052,1,0,0:0:0:0:
117,193,192133,1,0,0:0:0:0:
132,210,192214,1,4,0:0:0:0:
256,192,192377,12,4,194809,0:0:0:0:
