osu file format v14

[General]
AudioFilename: song.mp3
AudioLeadIn: 0
PreviewTime: 101943
Countdown: 0
SampleSet: Normal
StackLeniency: 0.7
Mode: 0
LetterboxInBreaks: 0
WidescreenStoryboard: 0

[Editor]
Bookmarks: 27097,49866,94174
DistanceSpacing: 1
BeatDivisor: 2
GridSize: 4
TimelineZoom: 0.3999987

[Metadata]
Title:Mikansei Koukyoukyoku
TitleUnicode:未完成交響曲
Artist:ONE OK ROCK
ArtistUnicode:ONE OK ROCK
Creator:Saut
Version:Normal
Source:
Tags:milan- pkhg Nicheシンドローム niche syndrome unfinished symphony taka toru ryota tomoya
BeatmapID:792947
BeatmapSetID:348604

[Difficulty]
HPDrainRate:3
CircleSize:3.2
OverallDifficulty:3
ApproachRate:4
SliderMultiplier:0.9
SliderTickRate:1

[Events]
//Background and Video events
0,0,"bg.jpg",0,0
//Break Periods
2,40219,44854
2,68527,75623
2,96835,101469
2,144835,153162
//Storyboard Layer 0 (Background)
//Storyboard Layer 1 (Fail)
//Storyboard Layer 2 (Pass)
//Storyboard Layer 3 (Foreground)
//Storyboard Sound Samples

[TimingPoints]
636,307.692307692308,4,1,1,60,1,0
2636,-100,4,1,1,35,0,0
3097,-100,4,1,1,60,0,0
20328,-100,4,1,1,50,0,0
46174,-100,4,1,1,60,0,0
47251,-100,4,1,1,70,0,1
62174,-100,4,1,1,50,0,1
67097,-100,4,1,1,60,0,0
76943,-100,4,1,1,50,0,0
102789,-100,4,1,1,60,0,0
103866,-100,4,1,1,70,0,1
118789,-100,4,1,1,50,0,1
123712,-100,4,1,1,50,0,0
126174,-100,4,1,1,60,0,0
128636,-100,4,1,1,50,0,0
131097,-100,4,1,1,60,0,0
154482,-100,4,1,1,70,0,1
154559,-100,4,1,1,70,0,0
161712,-100,4,1,1,75,0,1
171559,-100,4,1,1,70,0,1
176636,-100,4,1,1,50,0,1
180636,-100,4,1,1,50,0,0
182789,-100,4,1,1,60,0,1
182866,-100,4,1,1,60,0,0
192636,-100,4,1,1,75,0,0
192943,-100,4,1,1,60,0,0
193251,-100,4,1,1,55,0,0
193866,-100,4,1,1,50,0,0
194482,-100,4,1,1,45,0,0
195097,-100,4,1,1,40,0,0
195712,-100,4,1,1,35,0,0
196328,-100,4,1,1,30,0,0
196636,-100,4,1,1,25,0,0
196943,-100,4,1,1,20,0,0
197251,-100,4,1,1,15,0,0
197559,-100,4,1,1,10,0,0

[Colours]
Combo1 : 253,236,191
Combo2 : 253,155,150
Combo3 : 227,220,255
Combo4 : 214,241,230

[HitObjects]
95,66,636,6,0,L|101:131,1,45,10|10,0:0|0:0,0:0:0:0:
299,185,2636,2,0,L|296:243,1,45,2|10,0:0|0:0,0:0:0:0:
240,300,3097,6,0,L|246:365,1,45,10|10,0:0|0:0,0:0:0:0:
273,87,4943,2,0,P|322:88|377:118,1,90,8|4,3:0|3:0,0:0:0:0:
419,171,5559,6,0,L|511:168,2,90,6|8|8,0:0|0:0|0:0,0:0:0:0:
353,233,6482,1,2,0:0:0:0:
421,290,6789,2,0,L|513:287,2,90,6|8|8,0:0|0:0|0:0,0:0:0:0:
365,361,7712,1,2,0:0:0:0:
295,303,8020,6,0,L|203:306,2,90,6|8|8,0:0|0:0|0:0,0:0:0:0:
353,233,8943,1,2,0:0:0:0:
404,158,9251,2,0,B|369:130|307:139|280:178|280:178|253:139|199:129|147:153,1,270,6|10,0:0|0:0,0:0:0:0:
95,206,10482,6,0,L|98:315,1,90,6|8,0:0|0:0,0:0:0:0:
167,352,11097,2,0,P|205:336|273:334,1,90,2|8,0:0|0:0,0:0:0:0:
340,351,11712,1,2,0:0:0:0:
394,279,12020,2,0,L|488:283,2,90,8|2|8,0:0|0:0|0:0,0:0:0:0:
326,218,12943,6,0,P|324:167|339:132,1,90,2|8,0:0|0:0,0:0:0:0:
373,48,13559,2,0,L|267:57,1,90,2|8,0:0|0:0,0:0:0:0:
256,92,14020,2,0,P|198:104|125:85,1,135,2|8,0:0|0:0,0:0:0:0:
56,28,14789,2,0,P|25:69|16:113,1,90,2|10,0:0|0:0,0:0:0:0:
50,191,15405,6,0,P|47:245|37:297,1,90,2|8,0:0|0:0,0:0:0:0:
112,334,16020,2,0,P|125:290|131:242,1,90,2|8,0:0|0:0,0:0:0:0:
128,156,16635,1,2,0:0:0:0:
198,99,16943,2,0,L|298:101,2,90,8|2|8,0:0|0:0|0:0,0:0:0:0:
212,187,17866,6,0,L|312:189,1,90,2|8,0:0|0:0,0:0:0:0:
372,131,18482,2,0,P|420:145|456:172,1,90,2|8,0:0|0:0,0:0:0:0:
435,256,19097,2,0,L|440:355,1,90,8|8,0:0|0:0,0:0:0:0:
353,372,19712,2,0,L|352:317,1,45,8|6,0:0|0:0,0:0:0:0:
240,251,20328,6,0,P|232:204|246:146,2,90,12|0|0,0:0|0:0|0:0,0:0:0:0:
217,338,21251,2,0,L|158:340,1,45,8|2,0:0|0:0,0:0:0:0:
86,310,21712,2,0,P|98:265|83:168,1,135,2|8,0:0|0:0,0:0:0:0:
47,97,22482,1,8,0:0:0:0:
114,38,22789,6,0,L|225:29,2,90,8|0|0,0:0|0:0|0:0,0:0:0:0:
152,119,23712,2,0,L|198:122,1,45,8|2,0:0|0:0,0:0:0:0:
286,128,24174,2,0,P|298:194|274:277,1,135,2|8,0:0|0:0,0:0:0:0:
222,326,24943,1,8,0:0:0:0:
291,382,25251,6,0,L|398:372,1,90,8|0,0:0|0:0,0:0:0:0:
444,310,25866,1,0,0:0:0:0:
491,233,26174,2,0,P|498:178|488:129,1,90,8|0,0:0|0:0,0:0:0:0:
402,144,26789,2,0,P|395:199|405:248,1,90,0|8,0:0|0:0,0:0:0:0:
444,310,27405,1,8,0:0:0:0:
367,357,27712,6,0,L|268:347,1,90,8|0,0:0|0:0,0:0:0:0:
190,322,28328,2,0,P|191:271|230:222,1,90,0|8,0:0|0:0,0:0:0:0:
288,192,28943,2,0,P|294:143|279:95,1,90,0|0,0:0|0:0,0:0:0:0:
230,31,29559,2,0,L|132:67,1,90,8|8,0:0|0:0,0:0:0:0:
62,98,30174,6,0,L|70:258,2,135,6|2|8,0:0|0:0|0:0,0:0:0:0:
145,62,31405,2,0,L|150:165,1,90,0|8,0:0|0:0,0:0:0:0:
219,207,32020,2,0,P|217:256|180:308,1,90,2|8,0:0|0:0,0:0:0:0:
143,363,32636,6,0,L|52:366,2,90,2|8|0,0:0|0:0|0:0,0:0:0:0:
231,379,33559,2,0,B|262:341|306:335|306:335|347:355|401:344,1,180,8|8,0:0|0:0,0:0:0:0:
471,298,34482,2,0,L|464:190,1,90,2|8,0:0|0:0,0:0:0:0:
477,118,35097,6,0,P|432:169|354:178,2,135,2|2|8,0:0|0:0|0:0,0:0:0:0:
430,40,36328,2,0,B|365:35|365:35|331:47,1,90,0|8,0:0|0:0,0:0:0:0:
304,125,36943,2,0,B|205:117,1,90,2|8,0:0|0:0,0:0:0:0:
125,135,37559,5,2,0:0:0:0:
90,219,37866,2,0,L|-39:226,2,90,8|0|8,0:0|0:0|0:0,0:0:0:0:
160,274,38789,1,0,0:0:0:0:
234,323,39097,2,0,P|276:321|326:281,1,90,8|2,0:0|0:0,0:0:0:0:
400,265,39712,2,0,P|437:289|481:292,1,90,8|4,0:0|0:0,0:0:0:0:
407,69,46174,5,8,0:0:0:0:
464,138,46482,2,0,L|461:201,1,45,10|10,0:0|0:0,0:0:0:0:
389,348,47251,6,0,B|345:329|316:330|316:330|267:352|238:338,1,135,6|8,0:0|0:0,0:0:0:0:
173,315,48020,1,8,0:0:0:0:
116,245,48328,2,0,L|1:256,2,90,8|8|8,0:0|0:0|0:0,0:0:0:0:
180,181,49251,2,0,P|187:129|175:84,1,90,8|8,0:3|0:3,0:0:0:0:
131,15,49866,6,0,B|175:5|175:5|243:21,1,90,12|10,0:0|0:0,0:0:0:0:
302,49,50482,1,10,0:0:0:0:
359,118,50789,2,0,L|474:107,2,90,8|8|8,0:0|0:0|0:0,0:0:0:0:
290,176,51712,2,0,P|283:228|295:273,1,90,8|8,0:3|0:3,0:0:0:0:
338,341,52328,5,12,0:0:0:0:
420,305,52636,2,0,L|531:315,2,90,8|8|8,0:0|0:0|0:0,0:0:0:0:
430,215,53559,2,0,L|425:118,1,90,14|8,0:0|0:0,0:0:0:0:
338,100,54174,2,0,L|342:189,1,90,8|8,0:0|0:0,0:0:0:0:
292,264,54789,6,0,P|244:274|184:263,1,90,14|8,0:0|0:0,0:0:0:0:
114,252,55405,2,0,L|128:372,1,90,14|12,0:0|0:0,0:0:0:0:
34,332,56020,2,0,L|23:242,1,90,14|12,0:0|0:0,0:0:0:0:
66,162,56636,2,0,P|74:117|57:49,1,90,14|8,0:0|0:0,0:0:0:0:
46,33,57097,6,0,P|98:61|180:49,1,135,6|8,0:0|0:0,0:0:0:0:
249,7,57866,1,2,0:0:0:0:
319,63,58174,2,0,L|417:56,2,90,8|2|8,0:0|0:0|0:0,0:0:0:0:
293,149,59097,2,0,L|391:142,1,90,2|8,0:0|0:0,0:0:0:0:
470,124,59712,6,0,P|486:168|474:227,1,90,2|8,0:0|0:0,0:0:0:0:
398,246,60328,1,2,0:0:0:0:
318,289,60636,2,0,P|313:333|329:375,2,90,8|2|8,0:0|0:0|0:0,0:0:0:0:
248,231,61559,2,0,P|229:269|225:343,1,90,2|8,0:0|0:0,0:0:0:0:
146,365,62174,5,6,0:0:0:0:
90,294,62482,2,0,L|0:298,2,90,8|2|8,0:0|0:0|0:0,0:0:0:0:
161,239,63405,1,2,0:0:0:0:
105,168,63713,2,0,L|15:172,2,90,8|2|8,0:0|0:0|0:0,0:0:0:0:
179,117,64636,5,2,0:0:0:0:
236,47,64944,2,0,L|326:43,1,90,12|2,0:0|0:0,0:0:0:0:
359,126,65559,2,0,L|449:122,1,90,12|2,0:0|0:0,0:0:0:0:
491,201,66174,1,12,0:0:0:0:
448,280,66482,2,0,P|401:272|358:284,1,90,10|10,0:0|0:0,0:0:0:0:
287,338,67097,6,0,B|230:270|118:305|118:305|32:240|66:143,1,360,6|2,0:0|0:0,0:0:0:0:
377,319,76943,6,0,L|480:315,2,90,8|0|0,0:0|0:0|0:0,0:0:0:0:
297,276,77866,2,0,P|252:279|209:292,1,90,12|0,2:0|0:0,0:0:0:0:
134,343,78482,2,0,P|109:294|103:230,1,90,0|8,0:0|0:0,0:0:0:0:
140,178,79097,1,8,0:0:0:0:
113,91,79405,6,0,L|5:93,2,90,8|0|0,0:0|0:0|0:0,0:0:0:0:
190,44,80328,2,0,P|233:49|292:83,1,90,8|0,0:0|0:0,0:0:0:0:
330,139,80944,2,0,P|380:130|414:81,1,90,0|8,0:0|0:0,0:0:0:0:
451,25,81559,1,8,0:0:0:0:
509,93,81866,6,0,B|504:141|504:141|483:186,1,90,8|0,0:0|0:0,0:0:0:0:
421,241,82482,1,0,0:0:0:0:
432,330,82789,2,0,P|384:343|319:338,1,90,8|0,0:0|0:0,0:0:0:0:
268,293,83405,2,0,P|223:293|179:305,1,90,0|8,0:0|0:0,0:0:0:0:
106,358,84020,1,8,0:0:0:0:
29,309,84328,6,0,L|18:210,1,90,8|0,0:0|0:0,0:0:0:0:
106,198,84943,2,0,L|96:108,1,90,0|8,0:0|0:0,0:0:0:0:
106,64,85405,2,0,P|145:56|211:75,1,90,8|8,3:0|3:0,0:0:0:0:
247,137,86020,2,0,L|265:285,1,135,4|8,0:3|0:0,0:0:0:0:
329,332,86789,6,0,P|368:346|434:324,2,90,6|8|0,0:0|0:0|0:0,0:0:0:0:
377,256,87712,2,0,B|365:154|365:154|387:118|373:63,1,180,8|8,0:0|0:0,0:0:0:0:
288,103,88636,2,0,P|240:102|186:85,1,90,2|8,0:0|0:0,0:0:0:0:
114,61,89251,6,0,P|65:61|18:97,2,90,2|8|0,0:0|0:0|0:0,0:0:0:0:
90,147,90174,2,0,B|103:209|79:274|79:274|103:325,1,180,8|8,0:0|0:0,0:0:0:0:
172,265,91098,2,0,P|225:270|276:286,1,90,2|8,0:0|0:0,0:0:0:0:
330,335,91712,6,0,L|433:318,1,90,2|8,0:0|0:0,0:0:0:0:
503,289,92328,2,0,P|507:244|493:202,1,90,0|8,0:0|0:0,0:0:0:0:
412,160,92943,1,0,0:0:0:0:
333,115,93251,2,0,P|318:72|323:28,2,90,8|2|8,0:0|0:0|0:0,0:0:0:0:
412,160,94174,5,2,0:0:0:0:
372,240,94481,2,0,L|243:247,2,90,8|0|8,0:0|0:0|0:0,0:0:0:0:
445,291,95404,1,0,0:0:0:0:
378,351,95712,2,0,L|249:358,1,90,8|2,0:0|0:0,0:0:0:0:
212,307,96328,2,0,P|165:321|125:358,1,90,8|4,0:0|0:0,0:0:0:0:
68,68,102789,5,8,0:0:0:0:
142,119,103097,2,0,L|205:116,1,45,10|10,0:0|0:0,0:0:0:0:
347,35,103866,6,0,B|339:124|339:124|359:168,1,135,6|8,0:0|0:0,0:0:0:0:
409,239,104635,1,8,0:0:0:0:
496,219,104943,2,0,L|504:129,2,90,8|8|8,0:0|0:0|0:0,0:0:0:0:
472,305,105866,2,0,P|434:328|374:321,1,90,8|8,0:3|0:3,0:0:0:0:
308,287,106481,6,0,L|199:300,1,90,12|8,0:0|0:0,0:0:0:0:
132,271,107097,1,8,0:0:0:0:
43,255,107405,2,0,L|35:165,2,90,8|8|8,0:0|0:0|0:0,0:0:0:0:
67,341,108328,2,0,P|105:364|165:357,1,90,8|8,0:3|0:3,0:0:0:0:
229,321,108943,5,12,0:0:0:0:
288,253,109251,2,0,L|399:263,2,90,8|8|8,0:0|0:0|0:0,0:0:0:0:
229,184,110174,2,0,P|219:136|224:87,1,90,12|8,0:0|0:0,0:0:0:0:
150,40,110789,2,0,P|136:85|132:130,1,90,8|8,0:0|0:0,0:0:0:0:
138,217,111404,6,0,L|30:208,1,90,12|8,0:0|0:0,0:0:0:0:
73,296,112020,2,0,L|162:303,1,90,12|12,0:0|0:0,0:0:0:0:
248,276,112635,2,0,P|296:293|337:322,1,90,12|12,0:0|0:0,0:0:0:0:
410,353,113251,2,0,P|434:316|430:248,1,90,14|8,0:0|0:0,0:0:0:0:
416,231,113712,6,0,L|432:97,1,135,6|8,0:0|0:0,0:0:0:0:
365,35,114481,1,2,0:0:0:0:
313,108,114789,2,0,P|262:120|215:100,2,90,8|2|8,0:0|0:0|0:0,0:0:0:0:
269,29,115712,2,0,P|226:17|183:29,1,90,2|8,0:0|0:0,0:0:0:0:
122,96,116328,6,0,L|126:199,1,90,2|8,0:0|0:0,0:0:0:0:
164,267,116943,1,2,0:0:0:0:
216,339,117251,2,0,P|267:351|314:331,2,90,8|2|8,0:0|0:0|0:0,0:0:0:0:
260,260,118174,2,0,P|302:248|345:260,1,90,2|8,0:0|0:0,0:0:0:0:
396,186,118789,6,0,L|389:83,1,90,6|8,0:0|0:0,0:0:0:0:
302,74,119405,2,0,L|308:163,1,90,2|8,0:0|0:0,0:0:0:0:
220,140,120020,2,0,L|214:51,1,90,2|8,0:0|0:0,0:0:0:0:
126,28,120636,2,0,L|132:117,1,90,2|8,0:0|0:0,0:0:0:0:
75,187,121251,5,2,0:0:0:0:
94,274,121559,2,0,P|138:290|183:283,1,90,12|2,0:0|0:0,0:0:0:0:
256,236,122174,1,12,0:0:0:0:
344,251,122482,2,0,L|374:359,1,90,8|8,0:0|0:0,0:0:0:0:
458,340,123097,2,0,L|433:253,1,90,8|8,0:0|0:0,0:0:0:0:
472,171,123712,5,12,0:0:0:0:
227,285,124636,1,8,0:0:0:0:
320,31,125559,2,0,L|327:138,1,90,8|8,0:0|0:0,0:0:0:0:
266,188,126174,6,0,P|217:175|166:181,2,90,2|8|2,0:0|0:0|0:0,0:0:0:0:
313,264,127097,1,8,0:0:0:0:
360,188,127405,2,0,P|409:175|460:181,2,90,2|8|0,0:0|0:0|0:0,0:0:0:0:
313,264,128328,1,8,0:0:0:0:
316,354,128636,5,8,0:0:0:0:
56,277,129559,1,8,0:0:0:0:
227,68,130482,2,0,L|334:75,1,90,8|8,0:0|0:0,0:0:0:0:
404,93,131097,6,0,P|419:130|434:201,1,90,2|8,0:0|0:0,0:0:0:0:
341,170,131712,2,0,P|345:209|342:282,1,90,2|8,0:0|0:0,0:0:0:0:
261,228,132328,2,0,P|255:267|232:336,1,90,2|8,0:0|0:0,0:0:0:0:
168,263,132943,2,0,P|152:299|112:360,1,90,2|8,0:0|0:0,0:0:0:0:
87,364,133405,6,0,P|47:307|51:209,1,135,6|8,0:0|0:0,0:0:0:0:
62,156,134174,2,0,P|110:157|177:131,1,90,2|8,0:0|0:0,0:0:0:0:
230,106,134789,2,0,P|268:120|342:125,2,90,2|8|2,0:0|0:0|0:0,0:0:0:0:
197,21,135712,1,8,0:0:0:0:
287,23,136020,6,0,B|322:37|384:40|384:40|426:72|425:132,1,180,2|2,0:0|0:0,0:0:0:0:
398,286,137251,2,0,B|341:294|298:271|298:271|263:268|223:295,1,180,2|2,0:0|0:0,0:0:0:0:
63,362,138482,6,0,P|50:304|56:247,1,90,2|8,0:0|0:0,0:0:0:0:
73,186,139097,2,0,L|173:207,1,90,2|8,0:0|0:0,0:0:0:0:
250,214,139712,2,0,P|249:169|237:125,2,90,2|8|2,0:0|0:0|0:0,0:0:0:0:
196,286,140635,1,8,0:0:0:0:
274,330,140943,6,0,P|350:326|442:252,1,180,0|0,0:0|0:0,0:0:0:0:
452,88,142174,2,0,P|375:91|284:166,1,180,0|0,0:0|0:0,0:0:0:0:
193,300,143405,6,2,P|146:348|153:204,1,360,2|6,2:0|0:0,0:0:0:0:
100,328,154482,6,0,P|55:339|2:329,2,90,6|8|2,0:0|0:0|0:0,0:0:0:0:
181,288,155405,1,8,0:0:0:0:
270,281,155712,2,0,P|313:282|387:304,1,90,6|8,0:0|0:0,0:0:0:0:
440,330,156328,2,0,P|455:271|455:213,1,90,2|8,0:0|0:0,0:0:0:0:
410,164,156943,6,0,P|455:153|508:163,2,90,6|8|2,0:0|0:0|0:0,0:0:0:0:
337,216,157866,1,8,0:0:0:0:
249,196,158174,2,0,P|230:139|230:77,1,90,6|8,0:0|0:0,0:0:0:0:
245,20,158789,2,0,L|124:30,1,90,2|8,0:0|0:0,0:0:0:0:
94,94,159405,6,0,L|4:86,2,90,6|8|2,0:0|0:0|0:0,0:0:0:0:
153,161,160328,1,8,0:0:0:0:
136,249,160636,2,0,P|145:295|180:349,1,90,8|8,0:0|0:0,0:0:0:0:
254,315,161251,2,0,P|314:318|360:338,1,90,8|8,0:0|0:0,0:0:0:0:
376,356,161712,6,0,L|386:205,1,135,6|8,0:0|0:0,0:0:0:0:
428,142,162481,1,8,0:0:0:0:
476,217,162789,2,0,L|470:327,2,90,8|8|8,0:0|0:0|0:0,0:0:0:0:
384,221,163712,2,0,P|345:221|291:199,1,90,8|8,0:3|0:3,0:0:0:0:
233,140,164328,6,0,L|120:163,1,90,12|8,0:0|0:0,0:0:0:0:
54,153,164943,1,8,0:0:0:0:
105,79,165251,2,0,L|193:61,2,90,8|8|8,0:0|0:0|0:0,0:0:0:0:
144,157,166174,2,0,P|142:210|125:254,1,90,8|8,0:3|0:3,0:0:0:0:
71,313,166789,5,12,0:0:0:0:
147,361,167097,2,0,P|184:375|257:354,2,90,8|8|8,0:0|0:0|0:0,0:0:0:0:
198,287,168020,2,0,P|242:280|284:294,1,90,12|8,0:0|0:0,0:0:0:0:
365,332,168635,2,0,P|382:283|387:242,1,90,8|8,0:0|0:0,0:0:0:0:
360,159,169251,6,0,P|413:133|469:129,1,90,12|8,0:0|0:0,0:0:0:0:
462,39,169866,2,0,P|415:41|363:59,1,90,12|12,0:0|0:0,0:0:0:0:
292,91,170481,2,0,L|200:80,1,90,12|12,0:0|0:0,0:0:0:0:
112,69,171097,2,0,P|120:114|103:182,1,90,14|8,0:0|0:0,0:0:0:0:
92,197,171558,6,0,P|141:223|219:217,1,135,6|8,0:0|0:0,0:0:0:0:
299,177,172327,1,2,0:0:0:0:
364,238,172635,2,0,L|464:246,2,90,8|2|8,0:0|0:0|0:0,0:0:0:0:
281,275,173558,2,0,L|288:373,1,90,2|8,0:0|0:0,0:0:0:0:
199,344,174174,6,0,L|109:336,1,90,2|8,0:0|0:0,0:0:0:0:
47,271,174789,1,2,0:0:0:0:
85,189,175097,2,0,L|70:83,2,90,8|2|8,0:0|0:0|0:0,0:0:0:0:
170,216,176020,2,0,P|214:209|254:189,1,90,2|8,0:0|0:0,0:0:0:0:
310,119,176635,5,6,0:0:0:0:
399,126,176943,2,0,L|499:130,2,90,8|2|8,0:0|0:0|0:0,0:0:0:0:
358,45,177866,1,2,0:0:0:0:
269,38,178174,2,0,L|169:34,2,90,8|2|8,0:0|0:0|0:0,0:0:0:0:
310,119,179097,6,0,P|315:163|298:222,1,90,12|0,0:0|0:0,0:0:0:0:
241,271,179712,2,0,P|231:314|236:359,1,90,12|0,0:0|0:0,0:0:0:0:
323,336,180328,1,8,0:0:0:0:
409,309,180636,2,0,L|468:328,1,45,10|10,0:0|0:0,0:0:0:0:
479,99,181559,6,0,B|394:41|308:99|308:99|221:162|124:83,1,360,8|6,0:0|0:0,0:0:0:0:
70,45,183097,5,8,0:0:0:0:
21,120,183405,2,0,L|29:224,1,90,2|8,0:0|0:0,0:0:0:0:
83,280,184020,1,2,0:0:0:0:
159,327,184328,2,0,P|202:337|256:336,2,90,8|2|8,0:0|0:0|0:0,0:0:0:0:
208,251,185251,6,0,P|252:252|296:242,1,90,2|8,0:0|0:0,0:0:0:0:
371,192,185867,2,0,L|363:85,1,90,2|8,0:0|0:0,0:0:0:0:
342,63,186328,2,0,P|406:51|473:70,1,135,2|8,0:0|0:0,0:0:0:0:
479,159,187097,2,0,L|485:248,1,90,2|10,0:0|0:0,0:0:0:0:
473,338,187713,6,0,P|426:342|372:322,1,90,2|8,0:0|0:0,0:0:0:0:
300,299,188328,2,0,P|256:286|212:290,1,90,2|8,0:0|0:0,0:0:0:0:
131,331,188943,1,2,0:0:0:0:
87,251,189251,2,0,P|42:246|0:259,2,90,8|2|8,0:0|0:0|0:0,0:0:0:0:
170,216,190174,6,0,L|163:119,1,90,2|8,0:0|0:0,0:0:0:0:
252,143,190789,2,0,L|245:53,1,90,2|8,0:0|0:0,0:0:0:0:
335,40,191405,2,0,P|379:55|433:46,1,90,8|8,0:0|0:0,0:0:0:0:
491,107,192020,2,0,L|486:165,1,45,8|6,0:0|0:0,0:0:0:0:
426,218,192482,2,0,L|421:276,1,45,2|4,0:0|0:0,0:0:0:0:
256,192,192943,12,0,197559,2:0:0:0:
