osu file format v14

[General]
AudioFilename: song.mp3
AudioLeadIn: 0
PreviewTime: 101943
Countdown: 0
SampleSet: Soft
StackLeniency: 0.7
Mode: 0
LetterboxInBreaks: 0
WidescreenStoryboard: 0

[Editor]
DistanceSpacing: 1.1
BeatDivisor: 4
GridSize: 4
TimelineZoom: 0.9999992

[Metadata]
Title:Mikansei Koukyoukyoku
TitleUnicode:未完成交響曲
Artist:ONE OK ROCK
ArtistUnicode:ONE OK ROCK
Creator:Saut
Version:Extreme
Source:
Tags:milan- pkhg Nicheシンドローム niche syndrome unfinished symphony taka toru ryota tomoya
BeatmapID:768986
BeatmapSetID:348604

[Difficulty]
HPDrainRate:6.6
CircleSize:4.2
OverallDifficulty:9
ApproachRate:9.4
SliderMultiplier:1.9
SliderTickRate:1

[Events]
//Background and Video events
0,0,"bg.jpg",0,0
//Break Periods
2,40220,45634
2,96836,102249
2,144835,153634
//Storyboard Layer 0 (Background)
//Storyboard Layer 1 (Fail)
//Storyboard Layer 2 (Pass)
//Storyboard Layer 3 (Foreground)
//Storyboard Sound Samples

[TimingPoints]
636,307.692307692308,4,1,1,60,1,0
712,-100,4,1,0,60,0,0
789,-100,4,1,1,60,0,0
866,-100,4,1,0,60,0,0
943,-153.846153846154,4,2,1,35,0,0
1328,-153.846153846154,4,2,0,15,0,0
1405,-153.846153846154,4,2,1,35,0,0
2559,-153.846153846154,4,2,0,15,0,0
2636,-100,4,1,1,35,0,0
3097,-100,4,1,1,60,0,0
3174,-100,4,1,0,60,0,0
3251,-100,4,1,1,60,0,0
3328,-100,4,1,0,60,0,0
3405,-153.846153846154,4,2,1,35,0,0
3789,-153.846153846154,4,2,0,15,0,0
3866,-153.846153846154,4,2,1,35,0,0
4943,-153.846153846154,4,1,1,60,0,0
5251,-83.3333333333333,4,1,1,60,0,0
5482,-83.3333333333333,4,1,0,60,0,0
5559,-125,4,1,1,60,0,0
10482,-111.111111111111,4,1,1,60,0,0
15097,-83.3333333333333,4,1,1,60,0,0
15328,-83.3333333333333,4,1,0,60,0,0
15405,-111.111111111111,4,1,1,60,0,0
20328,-125,4,1,1,50,0,0
30174,-142.857142857143,4,1,1,50,0,0
34789,-117.647058823529,4,1,1,50,0,0
35020,-117.647058823529,4,1,0,50,0,0
35097,-142.857142857143,4,1,1,50,0,0
37251,-117.647058823529,4,1,1,50,0,0
37482,-117.647058823529,4,1,0,50,0,0
37559,-142.857142857143,4,1,1,50,0,0
39328,-142.857142857143,4,1,0,50,0,0
39405,-142.857142857143,4,1,1,50,0,0
39943,-142.857142857143,4,1,0,50,0,0
40020,-142.857142857143,4,1,1,50,0,0
46174,-100,4,1,1,60,0,0
46482,-83.3333333333333,4,1,1,60,0,0
46559,-83.3333333333333,4,1,0,60,0,0
46636,-83.3333333333333,4,1,1,60,0,0
46712,-83.3333333333333,4,1,0,60,0,0
46943,-200,4,1,1,60,0,0
47174,-83.3333333333333,4,1,0,15,0,0
47251,-90.9090909090909,4,1,1,70,0,1
57097,-100,4,1,1,70,0,1
62174,-117.647058823529,4,1,1,50,0,1
67097,-100,4,1,1,60,0,0
71712,-83.3333333333333,4,1,1,60,0,0
71943,-83.3333333333333,4,1,0,60,0,0
72020,-100,4,1,1,60,0,0
76943,-125,4,1,1,50,0,0
85636,-125,4,1,0,35,0,0
85712,-125,4,1,1,50,0,0
85943,-125,4,1,0,35,0,0
86020,-125,4,1,1,50,0,0
86789,-142.857142857143,4,1,1,50,0,0
96559,-142.857142857143,4,1,0,50,0,0
96636,-142.857142857143,4,1,1,50,0,0
102789,-100,4,1,1,60,0,0
103097,-83.3333333333333,4,1,1,60,0,0
103174,-83.3333333333333,4,1,0,60,0,0
103251,-83.3333333333333,4,1,1,60,0,0
103328,-83.3333333333333,4,1,0,60,0,0
103559,-200,4,1,1,60,0,0
103789,-83.3333333333333,4,1,0,15,0,0
103866,-90.9090909090909,4,1,1,70,0,1
113712,-100,4,1,1,70,0,1
118789,-117.647058823529,4,1,1,50,0,1
123712,-153.846153846154,4,1,1,50,0,0
126174,-117.647058823529,4,1,1,60,0,0
128636,-153.846153846154,4,1,1,50,0,0
131097,-117.647058823529,4,1,1,60,0,0
133405,-111.111111111111,4,1,1,60,0,0
135943,-111.111111111111,4,1,0,60,0,0
136020,-111.111111111111,4,1,1,60,0,0
140866,-111.111111111111,4,1,0,60,0,0
140943,-111.111111111111,4,1,1,60,0,0
143405,-280.846153846154,4,1,1,60,0,0
143482,-280.846153846154,4,1,1,60,0,0
144636,-280.846153846154,4,1,1,60,0,0
154174,-280.846153846154,4,1,1,50,0,0
154405,-280.846153846154,4,1,0,15,0,0
154482,-80,4,1,1,70,0,1
154559,-80,4,1,1,70,0,0
155636,-80,4,1,0,70,0,0
155712,-80,4,1,1,70,0,0
156866,-80,4,1,0,70,0,0
156943,-80,4,1,1,70,0,0
161712,-86.9565217391304,4,1,1,75,0,1
171559,-100,4,1,1,70,0,1
176636,-117.647058823529,4,1,1,50,0,1
179097,-80,4,1,1,50,0,1
179405,-117.647058823529,4,1,1,50,0,1
179712,-80,4,1,1,50,0,1
180020,-117.647058823529,4,1,1,50,0,1
180636,-100,4,1,1,50,0,0
180712,-100,4,1,0,50,0,0
180789,-100,4,1,1,50,0,0
180866,-100,4,1,0,50,0,0
180943,-100,4,1,1,50,0,0
182789,-100,4,1,1,60,0,1
182866,-100,4,1,1,60,0,0
187405,-83.3333333333333,4,1,1,60,0,0
187636,-83.3333333333333,4,1,0,60,0,0
187712,-100,4,1,1,60,0,0
191251,-100,4,1,0,60,0,0
191328,-100,4,1,1,60,0,0
192174,-142.857142857143,4,1,1,60,0,0
192636,-80,4,1,1,75,0,0
192789,-80,4,1,1,60,0,0
193251,-80,4,1,1,55,0,0
193866,-80,4,1,1,50,0,0
194482,-80,4,1,1,45,0,0
195097,-80,4,1,1,40,0,0
195712,-80,4,1,1,35,0,0
196328,-80,4,1,1,30,0,0
196636,-80,4,1,1,25,0,0
196943,-80,4,1,1,20,0,0
197251,-80,4,1,1,15,0,0
197559,-80,4,1,1,10,0,0

[Colours]
Combo1 : 253,236,191
Combo2 : 253,155,150
Combo3 : 227,220,255
Combo4 : 214,241,230

[HitObjects]
29,98,636,6,0,L|98:93,1,47.5,10|0,0:0|2:0,0:0:0:0:
194,120,789,2,0,L|125:125,1,47.5,10|0,0:0|2:0,0:0:0:0:
81,175,943,1,0,2:0:0:0:
81,175,1097,6,0,P|89:225|70:283,1,92.6249957599642,0|0,0:0|2:0,0:0:0:0:
58,294,1405,2,0,L|118:283,1,61.7499971733095
51,305,1712,2,0,L|111:294,1,61.7499971733095
46,315,2020,2,0,L|106:304,1,61.7499971733095
209,329,2328,6,0,P|217:279|198:221,1,92.6249957599642,0|0,0:0|2:0,0:0:0:0:
189,212,2636,1,2,0:0:0:0:
234,95,2789,6,0,L|337:88,1,95,10|2,0:0|0:0,0:0:0:0:
489,96,3097,6,0,L|420:101,1,47.5,10|0,0:0|2:0,0:0:0:0:
298,128,3251,2,0,L|367:123,1,47.5,10|0,0:0|2:0,0:0:0:0:
413,179,3405,1,0,2:0:0:0:
413,179,3559,6,0,P|405:229|424:287,1,92.6249957599642,0|0,0:0|2:0,0:0:0:0:
436,295,3866,2,0,L|376:284,1,61.7499971733095
443,306,4174,2,0,L|383:295,1,61.7499971733095
448,316,4482,2,0,L|388:305,1,61.7499971733095
263,318,4789,1,0,0:0:0:0:
247,174,4943,5,8,3:0:0:0:
250,210,5020,1,8,3:0:0:0:
254,246,5097,1,2,0:0:0:0:
258,282,5174,1,2,0:0:0:0:
263,318,5251,6,0,B|212:338|150:314|150:314|112:308|89:331,1,170.999994781494,4|0,3:0|2:0,0:0:0:0:
75,343,5559,5,6,0:0:0:0:
222,234,5712,1,8,0:0:0:0:
222,234,5866,1,8,0:0:0:0:
60,175,6020,1,2,0:0:0:0:
243,92,6174,1,8,0:0:0:0:
243,92,6328,1,8,0:0:0:0:
91,165,6482,1,2,0:0:0:0:
255,219,6636,1,8,0:0:0:0:
289,203,6712,1,8,0:0:0:0:
322,184,6789,5,6,0:0:0:0:
137,57,6943,1,8,0:0:0:0:
137,57,7097,1,8,0:0:0:0:
342,79,7251,1,2,0:0:0:0:
184,165,7405,1,8,0:0:0:0:
184,165,7559,1,8,0:0:0:0:
312,100,7712,1,2,0:0:0:0:
224,251,7866,1,8,0:0:0:0:
186,246,7942,1,8,0:0:0:0:
149,239,8020,5,6,0:0:0:0:
322,261,8174,1,8,0:0:0:0:
322,261,8328,1,8,0:0:0:0:
163,324,8482,1,2,0:0:0:0:
338,371,8636,1,8,0:0:0:0:
338,371,8789,1,8,0:0:0:0:
198,334,8943,1,2,0:0:0:0:
407,302,9097,2,0,L|460:309,2,38,8|8|6,0:0|0:0|0:0,0:0:0:0:
237,253,9405,5,8,0:0:0:0:
247,216,9482,1,8,0:0:0:0:
273,188,9559,1,10,0:0:0:0:
308,174,9636,1,8,0:0:0:0:
345,176,9712,1,8,0:0:0:0:
378,193,9789,1,8,0:0:0:0:
401,222,9866,6,0,L|409:171,1,38,10|8,0:0|0:0,0:0:0:0:
491,104,10020,2,0,L|485:141,1,38,8|8,0:0|0:0,0:0:0:0:
308,174,10174,6,0,L|313:136,1,38,10|8,0:0|0:0,0:0:0:0:
398,56,10328,2,0,L|392:93,1,38,8|8,0:0|0:0,0:0:0:0:
191,40,10482,6,0,L|277:42,1,85.4999973907472,6|2,0:0|0:0,0:0:0:0:
137,163,10789,2,0,L|51:161,1,85.4999973907472,8|0,0:0|0:0,0:0:0:0:
196,56,11097,1,2,0:0:0:0:
153,243,11251,1,2,0:0:0:0:
321,149,11405,2,0,L|434:151,1,85.4999973907472,8|0,0:0|0:0,0:0:0:0:
233,174,11712,5,2,0:0:0:0:
295,330,11866,1,2,0:0:0:0:
136,256,12020,2,0,L|50:254,1,85.4999973907472,8|0,0:0|0:0,0:0:0:0:
241,163,12328,1,2,0:0:0:0:
178,327,12482,1,2,0:0:0:0:
334,231,12636,2,0,L|419:232,1,85.4999973907472,8|0,0:0|0:0,0:0:0:0:
263,88,12943,5,2,0:0:0:0:
220,238,13097,1,2,0:0:0:0:
126,148,13251,2,0,L|41:149,1,85.4999973907472,8|0,0:0|0:0,0:0:0:0:
177,49,13559,1,2,0:0:0:0:
241,163,13712,1,2,0:0:0:0:
293,5,13866,1,8,0:0:0:0:
338,199,14020,6,0,B|469:200|469:200|425:171,1,170.999994781494,2|2,0:0|0:0,0:0:0:0:
241,163,14482,2,0,P|234:211|255:260,1,85.4999973907472,8|0,0:0|0:0,0:0:0:0:
343,355,14789,1,2,0:0:0:0:
199,308,14943,1,2,0:0:0:0:
472,278,15097,6,2,B|407:308|367:253|297:285,1,170.999994781494,10|0,0:0|2:0,0:0:0:0:
263,357,15405,5,2,0:0:0:0:
263,357,15559,1,2,0:0:0:0:
134,262,15712,2,0,L|137:176,1,85.4999973907472,8|0,0:0|0:0,0:0:0:0:
199,308,16020,1,2,0:0:0:0:
199,308,16174,1,2,0:0:0:0:
64,211,16328,2,0,L|68:126,1,85.4999973907472,8|0,0:0|0:0,0:0:0:0:
209,46,16636,5,2,0:0:0:0:
299,73,16790,1,2,0:0:0:0:
231,215,16943,2,0,L|235:130,1,85.4999973907472,8|0,0:0|0:0,0:0:0:0:
369,26,17251,5,2,0:0:0:0:
459,53,17405,1,2,0:0:0:0:
391,195,17558,2,0,L|395:110,1,85.4999973907472,8|0,0:0|0:0,0:0:0:0:
474,239,17866,5,2,0:0:0:0:
474,239,18020,1,2,0:0:0:0:
305,154,18174,1,8,0:0:0:0:
305,154,18328,1,0,0:0:0:0:
391,195,18482,5,2,0:0:0:0:
397,288,18636,1,2,0:0:0:0:
385,102,18789,1,8,0:0:0:0:
222,202,18943,1,8,0:0:0:0:
193,194,19020,1,8,0:0:0:0:
167,178,19097,5,8,0:0:0:0:
221,312,19251,1,8,0:0:0:0:
227,118,19405,1,8,0:0:0:0:
136,334,19559,1,8,0:0:0:0:
294,65,19712,1,8,0:0:0:0:
297,349,19866,5,6,0:0:0:0:
297,349,20174,1,0,0:0:0:0:
469,189,20328,6,0,P|435:204|404:239,1,76,12|2,0:0|0:0,0:0:0:0:
366,90,20636,2,0,P|343:118|329:163,1,76,0|2,0:0|0:0,0:0:0:0:
231,43,20943,2,0,P|222:78|228:124,1,76,0|2,0:0|0:0,0:0:0:0:
322,268,21251,1,8,0:0:0:0:
223,351,21405,2,0,P|190:366|128:359,1,76,2|0,0:0|0:0,0:0:0:0:
16,267,21712,6,0,L|167:273,1,152,2|2,0:0|0:0,0:0:0:0:
334,236,22174,1,8,0:0:0:0:
219,180,22328,1,2,0:0:0:0:
423,130,22482,1,8,0:0:0:0:
419,164,22559,1,8,0:0:0:0:
416,198,22636,1,8,0:0:0:0:
413,231,22712,1,8,0:0:0:0:
410,265,22789,6,0,L|417:357,1,76,8|2,0:0|0:0,0:0:0:0:
328,160,23097,2,0,L|334:243,1,76,0|2,0:0|0:0,0:0:0:0:
246,55,23405,2,0,L|252:138,1,76,0|2,0:0|0:0,0:0:0:0:
280,302,23712,1,8,0:0:0:0:
147,244,23866,2,0,P|128:212|128:151,1,76,2|0,0:0|0:0,0:0:0:0:
209,28,24174,6,0,L|218:179,1,152,2|2,0:0|0:0,0:0:0:0:
365,251,24636,1,8,0:0:0:0:
250,195,24790,1,2,0:0:0:0:
454,145,24944,1,8,0:0:0:0:
450,179,25021,1,8,0:0:0:0:
447,213,25098,1,8,0:0:0:0:
444,246,25174,1,8,0:0:0:0:
440,280,25251,5,8,0:0:0:0:
331,169,25405,1,2,0:0:0:0:
293,336,25559,2,0,L|192:324,2,76,0|2|0,0:0|0:0|0:0,0:0:0:0:
412,317,26020,1,2,0:0:0:0:
282,245,26174,5,8,0:0:0:0:
450,179,26328,1,2,0:0:0:0:
327,123,26482,1,0,0:0:0:0:
393,291,26636,1,2,0:0:0:0:
246,257,26789,1,0,0:0:0:0:
417,191,26943,1,2,0:0:0:0:
203,148,27097,5,8,0:0:0:0:
282,353,27251,1,2,0:0:0:0:
126,341,27405,1,8,0:0:0:0:
127,305,27482,1,8,0:0:0:0:
129,270,27559,1,8,0:0:0:0:
131,235,27636,1,8,0:0:0:0:
133,205,27712,6,0,P|96:196|49:219,1,76,8|2,0:0|0:0,0:0:0:0:
219,316,28020,2,0,P|256:325|303:302,1,76,0|2,0:0|0:0,0:0:0:0:
244,162,28328,2,0,L|251:238,1,76,0|2,0:0|0:0,0:0:0:0:
402,377,28636,2,0,L|395:291,1,76,8|2,0:0|0:0,0:0:0:0:
322,78,28943,5,0,0:0:0:0:
336,243,29097,1,2,0:0:0:0:
405,149,29251,1,0,0:0:0:0:
244,162,29405,1,2,0:0:0:0:
465,245,29559,2,0,P|479:212|484:163,1,76,8|2,0:0|0:0,0:0:0:0:
204,64,29866,2,0,P|208:101|223:136,1,76,8|2,0:0|0:0,0:0:0:0:
329,335,30174,6,0,L|247:341,1,66.4999979705811,6|0,0:0|0:0,0:0:0:0:
178,370,30482,1,8,0:0:0:0:
44,249,30636,2,0,L|126:255,1,66.4999979705811,2|0,0:0|0:0,0:0:0:0:
195,284,30943,1,2,0:0:0:0:
356,191,31097,6,0,L|350:109,1,66.4999979705811,8|2,0:0|0:0,0:0:0:0:
340,37,31405,1,0,0:0:0:0:
479,167,31559,2,0,L|473:249,1,66.4999979705811,2|8,0:0|0:0,0:0:0:0:
460,326,31866,1,0,0:0:0:0:
279,240,32020,5,2,0:0:0:0:
279,240,32174,1,2,0:0:0:0:
479,167,32328,1,8,0:0:0:0:
479,167,32636,5,2,0:0:0:0:
375,270,32789,1,0,0:0:0:0:
336,93,32943,1,8,0:0:0:0:
368,236,33097,1,2,0:0:0:0:
410,126,33251,5,0,0:0:0:0:
266,151,33405,1,2,0:0:0:0:
433,96,33559,1,8,0:0:0:0:
236,43,33712,6,0,L|251:177,1,132.999995941162,2|2,0:0|0:0,0:0:0:0:
375,270,34174,1,8,0:0:0:0:
256,211,34328,1,0,0:0:0:0:
216,339,34482,2,0,L|285:338,1,66.4999979705811,2|2,0:0|0:0,0:0:0:0:
487,259,34789,2,0,P|428:246|374:270,1,121.125002310276,8|0,0:0|2:0,0:0:0:0:
374,270,35097,6,0,L|307:270,1,66.4999979705811,2|0,0:0|0:0,0:0:0:0:
135,284,35405,1,8,0:0:0:0:
256,211,35559,2,0,P|275:274|262:339,1,132.999995941162,2|2,0:0|0:0,0:0:0:0:
44,305,36020,5,8,0:0:0:0:
51,209,36174,1,2,0:0:0:0:
188,132,36328,2,0,L|182:65,1,66.4999979705811,0|2,0:0|0:0,0:0:0:0:
57,322,36636,5,8,0:0:0:0:
66,224,36789,1,0,0:0:0:0:
202,147,36943,2,0,L|196:80,1,66.4999979705811,2|2,0:0|0:0,0:0:0:0:
69,340,37251,2,0,P|127:326|181:350,1,121.125002310276,8|0,0:0|2:0,0:0:0:0:
182,351,37559,6,0,L|249:351,1,66.4999979705811,2|0,0:0|0:0,0:0:0:0:
306,199,37866,1,8,0:0:0:0:
352,299,38020,1,2,0:0:0:0:
456,207,38174,2,0,P|419:206|386:213,1,66.4999979705811,0|2,0:0|0:0,0:0:0:0:
194,120,38482,2,0,P|231:119|264:126,1,66.4999979705811,8|0,0:0|0:0,0:0:0:0:
358,76,38789,1,0,0:0:0:0:
358,76,38943,1,2,0:0:0:0:
216,249,39097,6,0,L|88:239,1,99.7499969558717,8|0,0:0|2:0,0:0:0:0:
103,255,39405,1,2,0:0:0:0:
277,159,39559,1,2,0:0:0:0:
67,84,39712,2,0,L|195:74,1,99.7499969558717,8|0,0:0|2:0,0:0:0:0:
181,88,40020,5,4,0:0:0:0:
208,311,46174,6,0,L|198:246,1,47.5,8|8,0:0|0:0,0:0:0:0:
40,187,46328,2,0,L|50:252,1,47.5,2|2,0:0|0:0,0:0:0:0:
122,355,46482,6,0,L|126:299,1,56.9999982604981,10|0,0:0|2:0,0:0:0:0:
124,130,46636,2,0,L|121:187,1,56.9999982604981,10|0,0:0|2:0,0:0:0:0:
206,216,46789,5,0,2:0:0:0:
206,216,46943,2,0,L|210:143,1,71.25,2|0,2:0|2:0,0:0:0:0:
246,42,47251,6,0,L|238:250,1,209.000006378174,6|2,0:0|0:0,0:0:0:0:
69,78,47712,2,0,P|121:72|184:102,1,104.500003189087,8|2,0:0|0:0,0:0:0:0:
377,190,48020,2,0,P|325:196|262:166,1,104.500003189087,8|2,0:0|0:0,0:0:0:0:
344,44,48328,1,8,0:0:0:0:
460,213,48482,1,2,0:0:0:0:
461,181,48559,1,2,0:0:0:0:
464,149,48636,5,12,0:0:0:0:
255,120,48789,1,2,0:0:0:0:
482,235,48943,2,0,L|490:130,1,104.500003189087,8|2,0:0|0:0,0:0:0:0:
193,48,49251,5,8,0:3:0:0:
336,126,49405,1,2,3:0:0:0:
138,170,49559,1,8,0:3:0:0:
344,139,49712,2,0,L|338:208,1,52.2500015945435,2|2,0:3|0:0,0:0:0:0:
279,348,49866,6,4,L|267:238,1,104.500003189087,12|2,0:0|0:0,0:0:0:0:
59,315,50174,2,0,P|112:311|162:297,1,104.500003189087,10|2,0:0|0:0,0:0:0:0:
355,153,50482,2,0,P|304:139|252:135,1,104.500003189087,10|2,0:0|0:0,0:0:0:0:
257,270,50790,1,8,0:0:0:0:
119,135,50943,1,2,0:0:0:0:
118,166,51020,1,2,0:0:0:0:
115,197,51097,5,12,0:0:0:0:
269,255,51251,1,2,0:0:0:0:
98,110,51405,2,0,L|90:215,1,104.500003189087,8|2,0:0|0:0,0:0:0:0:
327,72,51712,5,8,0:3:0:0:
287,235,51867,1,2,0:3:0:0:
240,29,52021,1,8,0:3:0:0:
349,165,52174,2,0,L|401:161,1,52.2500015945435,2|2,0:3|0:0,0:0:0:0:
508,67,52328,6,0,P|456:66|409:87,1,104.500003189087,12|2,0:0|0:0,0:0:0:0:
370,251,52636,5,8,0:0:0:0:
267,153,52789,1,2,0:0:0:0:
371,149,52943,5,8,0:0:0:0:
273,252,53096,1,2,0:0:0:0:
319,72,53251,5,8,0:0:0:0:
323,325,53404,1,2,0:0:0:0:
323,325,53482,1,2,0:0:0:0:
323,325,53559,6,0,L|195:340,1,104.500003189087,14|2,0:0|0:0,0:0:0:0:
54,231,53866,2,0,L|182:246,1,104.500003189087,8|2,0:0|0:0,0:0:0:0:
333,142,54174,2,0,L|205:157,1,104.500003189087,8|2,0:0|0:0,0:0:0:0:
64,48,54482,2,0,L|192:63,1,104.500003189087,8|2,0:0|0:0,0:0:0:0:
183,71,54712,1,2,0:0:0:0:
183,71,54789,5,14,0:0:0:0:
252,259,54943,1,2,0:0:0:0:
283,16,55097,1,8,0:0:0:0:
169,182,55251,1,2,0:0:0:0:
440,67,55405,5,14,0:0:0:0:
277,142,55559,1,2,0:0:0:0:
469,210,55712,1,12,0:0:0:0:
173,284,55866,1,2,0:0:0:0:
184,313,55943,1,2,0:0:0:0:
193,342,56020,6,0,L|309:336,1,104.500003189087,14|2,0:0|0:0,0:0:0:0:
351,79,56328,1,12,0:0:0:0:
84,168,56482,1,8,0:0:0:0:
86,199,56559,1,8,0:0:0:0:
87,230,56636,5,14,0:0:0:0:
246,167,56789,1,2,0:0:0:0:
82,137,56943,1,8,0:0:0:0:
75,340,57097,6,0,L|64:150,1,190,6|2,0:0|0:0,0:0:0:0:
251,280,57559,2,0,P|205:289|161:273,1,95,8|0,0:0|0:0,0:0:0:0:
208,105,57866,2,0,L|213:199,1,95,2|2,0:0|0:0,0:0:0:0:
64,352,58174,2,0,L|58:257,1,95,8|0,0:0|0:0,0:0:0:0:
214,237,58482,5,2,0:0:0:0:
71,185,58636,1,2,0:0:0:0:
294,111,58789,2,0,L|299:205,1,95,8|0,0:0|0:0,0:0:0:0:
420,288,59097,1,2,0:0:0:0:
302,233,59251,1,2,0:0:0:0:
468,197,59405,1,8,0:0:0:0:
335,312,59559,2,0,P|344:339|366:370,1,47.5
477,184,59712,6,0,L|471:75,1,95,2|2,0:0|0:0,0:0:0:0:
212,128,60020,2,0,P|257:140|308:132,1,95,8|0,0:0|0:0,0:0:0:0:
458,71,60328,2,0,P|422:100|372:115,1,95,2|2,0:0|0:0,0:0:0:0:
119,52,60636,2,0,L|124:146,1,95,8|0,0:0|0:0,0:0:0:0:
209,212,60943,5,2,0:0:0:0:
75,270,61097,1,2,0:0:0:0:
269,366,61251,2,0,L|263:271,1,95,8|0,0:0|0:0,0:0:0:0:
297,120,61559,1,2,0:0:0:0:
334,238,61713,1,2,0:0:0:0:
374,53,61867,1,8,0:0:0:0:
374,53,62020,1,0,0:0:0:0:
430,271,62174,5,6,0:0:0:0:
407,176,62328,1,2,0:0:0:0:
188,303,62482,2,0,L|269:309,1,80.750001540184,8|2,0:0|0:0,0:0:0:0:
414,257,62789,5,2,0:0:0:0:
382,164,62943,1,2,0:0:0:0:
174,293,63097,2,0,L|255:293,1,80.750001540184,8|2,0:0|0:0,0:0:0:0:
388,243,63405,5,2,0:0:0:0:
348,153,63559,1,2,0:0:0:0:
157,284,63712,2,0,L|238:276,1,80.750001540184,8|2,0:0|0:0,0:0:0:0:
369,232,64020,5,2,0:0:0:0:
321,145,64174,1,2,0:0:0:0:
144,272,64328,2,0,L|224:257,1,80.750001540184,8|2,0:0|0:0,0:0:0:0:
60,105,64636,5,2,0:0:0:0:
77,198,64789,1,2,0:0:0:0:
169,37,64943,1,12,0:0:0:0:
153,130,65096,1,0,0:0:0:0:
38,96,65251,5,2,0:0:0:0:
63,187,65404,1,2,0:0:0:0:
196,21,65558,1,12,0:0:0:0:
171,112,65711,1,0,0:0:0:0:
343,77,65866,6,0,P|302:77|263:85,1,80.750001540184,2|2,0:0|0:0,0:0:0:0:
164,244,66174,2,0,L|175:348,1,80.750001540184,12|2,0:0|0:0,0:0:0:0:
414,303,66482,5,10,0:0:0:0:
377,276,66559,1,8,0:0:0:0:
334,262,66636,1,8,0:0:0:0:
290,267,66712,1,8,0:0:0:0:
256,296,66789,5,10,0:0:0:0:
259,243,66866,1,8,0:0:0:0:
261,190,66943,1,8,0:0:0:0:
264,137,67020,1,8,0:0:0:0:
245,90,67097,6,0,L|131:96,1,95,6|2,0:0|0:0,0:0:0:0:
354,176,67405,2,0,L|468:182,1,95,8|0,0:0|0:0,0:0:0:0:
200,277,67712,1,2,0:0:0:0:
333,193,67866,1,2,0:0:0:0:
155,165,68020,2,0,L|161:286,1,95,8|0,0:0|0:0,0:0:0:0:
362,225,68328,5,2,0:0:0:0:
229,141,68482,1,2,0:0:0:0:
407,113,68636,2,0,L|401:234,1,95,8|0,0:0|0:0,0:0:0:0:
192,154,68943,1,2,0:0:0:0:
325,70,69097,1,2,0:0:0:0:
147,42,69251,2,0,L|153:163,1,95,8|0,0:0|0:0,0:0:0:0:
206,297,69559,5,2,0:0:0:0:
155,165,69712,1,2,0:0:0:0:
85,328,69866,2,0,L|206:322,1,95,8|0,0:0|0:0,0:0:0:0:
342,254,70175,1,2,0:0:0:0:
282,376,70329,1,2,0:0:0:0:
227,223,70482,1,10,0:0:0:0:
416,231,70636,6,0,L|197:221,1,190,2|2,0:0|0:0,0:0:0:0:
49,167,71097,2,0,L|170:161,1,95,8|0,0:0|0:0,0:0:0:0:
338,140,71405,1,2,0:0:0:0:
185,161,71559,1,2,0:0:0:0:
376,239,71713,6,2,B|399:171|353:139|370:60,1,170.999994781494,10|0,0:0|2:0,0:0:0:0:
398,0,72021,5,2,0:0:0:0:
398,0,72175,1,2,0:0:0:0:
263,95,72328,2,0,P|214:104|155:87,1,95,8|0,0:0|0:0,0:0:0:0:
89,41,72635,1,2,0:0:0:0:
89,41,72789,1,2,0:0:0:0:
219,186,72943,2,0,P|268:182|321:150,1,95,8|0,0:0|0:0,0:0:0:0:
350,74,73251,5,2,0:0:0:0:
350,74,73405,1,2,0:0:0:0:
476,209,73559,2,0,L|471:303,1,95,8|0,0:0|0:0,0:0:0:0:
419,138,73866,1,2,0:0:0:0:
419,138,74020,1,2,0:0:0:0:
453,322,74174,2,0,L|458:227,1,95,8|0,0:0|0:0,0:0:0:0:
337,159,74481,5,2,0:0:0:0:
337,159,74635,1,2,0:0:0:0:
363,311,74789,1,8,0:0:0:0:
363,311,74943,1,0,0:0:0:0:
326,200,75097,5,2,0:0:0:0:
352,353,75251,1,2,0:0:0:0:
452,226,75404,1,8,0:0:0:0:
271,283,75559,1,0,0:0:0:0:
466,183,75712,6,0,L|459:88,1,95,2|2,0:0|0:0,0:0:0:0:
235,59,76020,1,8,0:0:0:0:
367,188,76174,1,8,0:0:0:0:
367,188,76251,1,8,0:0:0:0:
367,188,76328,5,8,0:0:0:0:
157,212,76482,1,8,0:0:0:0:
342,70,76636,1,8,0:0:0:0:
396,315,76789,1,8,0:0:0:0:
118,218,76943,6,0,P|109:180|110:112,1,76,8|2,0:0|0:0,0:0:0:0:
224,293,77251,2,0,P|233:255|232:187,1,76,0|2,0:0|0:0,0:0:0:0:
107,335,77559,1,0,0:0:0:0:
257,302,77712,1,2,0:0:0:0:
290,306,77789,1,2,0:0:0:0:
323,310,77866,1,12,2:0:0:0:
425,217,78020,6,0,L|349:227,1,76,4|0,3:0|0:0,0:0:0:0:
270,178,78328,1,2,0:0:0:0:
462,127,78482,2,0,L|386:137,1,76,0|2,0:0|0:0,0:0:0:0:
195,122,78789,1,8,0:0:0:0:
357,141,78943,1,2,0:0:0:0:
134,194,79097,1,8,0:0:0:0:
168,212,79174,1,8,0:0:0:0:
206,216,79251,1,8,0:0:0:0:
242,203,79328,1,8,0:0:0:0:
270,178,79405,5,8,0:0:0:0:
245,42,79559,1,2,0:0:0:0:
279,219,79712,2,0,L|272:307,1,76,0|2,0:0|0:0,0:0:0:0:
365,377,80020,1,0,0:0:0:0:
258,324,80174,1,2,0:0:0:0:
406,271,80327,1,8,0:0:0:0:
224,345,80482,6,0,L|148:335,1,76,4|0,3:0|0:0,0:0:0:0:
64,279,80789,1,2,0:0:0:0:
270,268,80943,2,0,L|194:258,1,76,0|2,0:0|0:0,0:0:0:0:
110,96,81251,1,8,0:0:0:0:
74,245,81405,1,2,0:0:0:0:
247,112,81559,1,8,0:0:0:0:
217,86,81636,1,8,0:0:0:0:
181,74,81713,1,8,0:0:0:0:
143,78,81790,1,8,0:0:0:0:
110,96,81867,5,8,0:0:0:0:
74,245,82020,1,2,0:0:0:0:
119,54,82174,2,0,P|158:41|202:48,1,76,0|2,0:0|0:0,0:0:0:0:
345,127,82482,2,0,P|309:140|272:138,1,76,0|2,0:0|0:0,0:0:0:0:
445,50,82789,5,8,0:0:0:0:
419,214,82943,1,2,0:0:0:0:
402,42,83097,1,0,0:0:0:0:
416,232,83251,1,2,0:0:0:0:
360,54,83405,1,0,0:0:0:0:
413,249,83559,1,2,0:0:0:0:
480,70,83712,5,8,0:0:0:0:
322,252,83866,1,2,0:0:0:0:
474,307,84020,1,8,0:0:0:0:
492,274,84097,1,8,0:0:0:0:
493,236,84174,1,8,0:0:0:0:
478,201,84251,1,8,0:0:0:0:
448,174,84328,6,0,L|365:176,1,76,8|2,0:0|0:0,0:0:0:0:
258,345,84636,2,0,L|341:343,1,76,0|2,0:0|0:0,0:0:0:0:
226,148,84943,1,0,0:0:0:0:
293,255,85097,1,2,0:0:0:0:
114,250,85251,1,8,0:0:0:0:
226,148,85405,6,0,P|260:179|214:185,1,114,8|0,3:0|2:0,0:0:0:0:
114,250,85712,6,0,P|80:281|126:287,1,114,8|0,3:0|2:0,0:0:0:0:
258,345,86020,5,4,0:3:0:0:
141,364,86174,1,4,0:3:0:0:
213,268,86328,1,2,0:0:0:0:
348,365,86482,2,0,L|445:357,1,76,8|2,0:0|0:0,0:0:0:0:
406,79,86789,5,6,0:0:0:0:
428,169,86943,1,0,0:0:0:0:
338,144,87097,1,8,0:0:0:0:
398,65,87251,5,2,0:0:0:0:
443,168,87405,1,0,0:0:0:0:
330,157,87559,1,2,0:0:0:0:
509,74,87712,1,8,0:0:0:0:
492,258,87866,6,0,P|438:267|355:238,1,132.999995941162,2|2,0:0|0:0,0:0:0:0:
228,147,88328,1,8,0:0:0:0:
228,147,88482,1,0,0:0:0:0:
61,243,88636,2,0,L|156:236,1,66.4999979705811,2|2,0:0|0:0,0:0:0:0:
259,340,88943,1,8,0:0:0:0:
162,84,89251,5,2,0:0:0:0:
137,184,89405,1,0,0:0:0:0:
238,157,89559,1,8,0:0:0:0:
171,68,89713,5,2,0:0:0:0:
120,183,89867,1,0,0:0:0:0:
247,171,90020,1,2,0:0:0:0:
45,81,90174,1,8,0:0:0:0:
51,299,90328,6,0,P|131:300|193:270,1,132.999995941162,2|2,0:0|0:0,0:0:0:0:
257,156,90790,1,8,0:0:0:0:
257,156,90944,1,0,0:0:0:0:
347,295,91097,2,0,L|340:200,1,66.4999979705811,2|2,0:0|0:0,0:0:0:0:
462,94,91405,2,0,L|455:189,1,66.4999979705811,8|0,0:0|0:0,0:0:0:0:
439,318,91712,5,2,0:0:0:0:
316,284,91866,1,0,0:0:0:0:
416,338,92020,1,8,0:0:0:0:
293,304,92174,1,2,0:0:0:0:
409,233,92328,2,0,L|416:138,1,66.4999979705811,0|2,0:0|0:0,0:0:0:0:
231,81,92636,5,8,0:0:0:0:
354,47,92789,1,2,0:0:0:0:
254,101,92943,1,0,0:0:0:0:
377,67,93098,1,2,0:0:0:0:
212,192,93251,5,8,0:0:0:0:
335,158,93405,1,0,0:0:0:0:
235,212,93559,1,2,0:0:0:0:
358,178,93712,1,2,0:0:0:0:
194,303,93866,2,0,P|154:301|118:288,1,66.4999979705811,8|0,0:0|0:0,0:0:0:0:
115,129,94174,6,0,L|125:208,1,66.4999979705811,2|0,0:0|0:0,0:0:0:0:
45,66,94482,1,8,0:0:0:0:
191,101,94636,2,0,P|255:88|305:45,1,132.999995941162,2|2,0:0|0:0,0:0:0:0:
442,121,95097,2,0,L|432:200,1,66.4999979705811,8|2,0:0|0:0,0:0:0:0:
328,260,95405,6,0,L|338:339,1,66.4999979705811,0|2,0:0|0:0,0:0:0:0:
452,111,95712,2,0,L|442:190,1,66.4999979705811,8|2,0:0|0:0,0:0:0:0:
310,240,96020,1,2,0:0:0:0:
455,194,96174,1,2,0:0:0:0:
236,165,96328,2,0,L|128:176,1,99.7499969558717,8|0,0:0|2:0,0:0:0:0:
124,192,96636,5,4,0:0:0:0:
153,113,102789,6,0,L|213:104,1,47.5,8|8,0:0|0:0,0:0:0:0:
342,121,102943,2,0,L|281:129,1,47.5,2|2,0:0|0:0,0:0:0:0:
126,168,103097,6,0,L|190:159,1,56.9999982604981,10|0,0:0|2:0,0:0:0:0:
385,166,103251,2,0,L|320:174,1,56.9999982604981,10|0,0:0|2:0,0:0:0:0:
257,192,103405,5,0,2:0:0:0:
257,192,103559,2,0,B|271:169|271:169|290:216,1,71.25,2|0,2:0|2:0,0:0:0:0:
334,330,103866,6,0,L|342:122,1,209.000006378174,6|2,0:0|0:0,0:0:0:0:
472,261,104328,2,0,P|420:267|357:237,1,104.500003189087,8|2,0:0|0:0,0:0:0:0:
157,180,104636,2,0,P|209:174|272:204,1,104.500003189087,8|2,0:0|0:0,0:0:0:0:
334,330,104943,1,8,0:0:0:0:
430,98,105097,1,2,0:0:0:0:
432,135,105174,1,2,0:0:0:0:
435,172,105251,5,12,0:0:0:0:
304,250,105404,1,2,0:0:0:0:
455,83,105558,2,0,L|463:188,1,104.500003189087,8|2,0:0|0:0,0:0:0:0:
197,319,105866,5,8,0:3:0:0:
383,263,106020,1,2,0:3:0:0:
163,206,106174,1,8,0:3:0:0:
375,279,106328,2,0,P|344:286|316:285,1,52.2500015945435,2|2,0:3|0:0,0:0:0:0:
153,196,106482,6,0,L|161:312,1,104.500003189087,12|2,0:0|0:0,0:0:0:0:
333,159,106789,2,0,P|282:152|232:138,1,104.500003189087,8|2,0:0|0:0,0:0:0:0:
38,109,107097,2,0,P|89:102|139:88,1,104.500003189087,8|2,0:0|0:0,0:0:0:0:
306,27,107405,1,8,0:0:0:0:
218,232,107559,1,2,0:0:0:0:
216,195,107635,1,2,0:0:0:0:
213,158,107712,5,12,0:0:0:0:
365,83,107866,1,2,0:0:0:0:
191,252,108020,2,0,L|183:147,1,104.500003189087,8|2,0:0|0:0,0:0:0:0:
444,38,108328,5,8,0:3:0:0:
286,111,108482,1,2,0:3:0:0:
482,180,108636,2,0,L|472:290,1,104.500003189087,8|2,0:3|0:3,0:0:0:0:
472,285,108866,1,2,0:0:0:0:
472,285,108943,5,12,0:0:0:0:
369,280,109097,1,2,0:0:0:0:
286,111,109251,5,8,0:0:0:0:
333,202,109405,1,2,0:0:0:0:
231,362,109559,5,8,0:0:0:0:
286,275,109713,1,2,0:0:0:0:
116,184,109866,2,0,P|111:243|142:295,1,104.500003189087,8|2,0:0|0:0,0:0:0:0:
151,303,110097,1,2,0:0:0:0:
151,303,110174,6,0,L|37:312,1,104.500003189087,12|2,0:0|0:0,0:0:0:0:
298,258,110482,2,0,L|402:266,1,104.500003189087,8|2,0:0|0:0,0:0:0:0:
163,316,110789,2,0,L|33:326,1,104.500003189087,8|2,0:0|0:0,0:0:0:0:
307,276,111097,2,0,L|411:284,1,104.500003189087,8|2,0:0|0:0,0:0:0:0:
424,274,111327,1,2,0:0:0:0:
424,274,111404,5,12,0:0:0:0:
358,90,111558,1,2,0:0:0:0:
359,357,111712,1,8,0:0:0:0:
500,208,111866,1,2,0:0:0:0:
207,133,112020,5,12,0:0:0:0:
403,182,112174,1,2,0:0:0:0:
147,225,112327,1,12,0:0:0:0:
278,38,112481,1,2,0:0:0:0:
301,58,112558,1,2,0:0:0:0:
321,81,112635,6,0,L|316:208,1,104.500003189087,12|2,0:0|0:0,0:0:0:0:
140,58,112943,1,12,0:0:0:0:
410,87,113097,1,8,0:0:0:0:
408,118,113174,1,8,0:0:0:0:
407,149,113251,5,14,0:0:0:0:
251,117,113405,1,2,0:0:0:0:
412,52,113558,1,8,0:0:0:0:
487,244,113712,6,0,P|415:264|309:220,1,190,6|2,0:0|0:0,0:0:0:0:
493,60,114174,2,0,L|488:166,1,95,8|0,0:0|0:0,0:0:0:0:
396,262,114482,2,0,L|401:368,1,95,2|2,0:0|0:0,0:0:0:0:
221,266,114789,2,0,P|275:273|316:299,1,95,8|0,0:0|0:0,0:0:0:0:
231,362,115097,5,2,0:0:0:0:
295,197,115251,1,2,0:0:0:0:
151,320,115405,2,0,P|96:312|55:286,1,95,8|0,0:0|0:0,0:0:0:0:
99,131,115712,1,2,0:0:0:0:
136,219,115866,1,2,0:0:0:0:
158,49,116020,1,8,0:0:0:0:
240,145,116174,2,0,L|193:139,1,47.5
293,55,116328,6,0,P|343:58|403:76,1,95,2|2,0:0|0:0,0:0:0:0:
340,248,116636,2,0,L|330:141,1,95,8|0,0:0|0:0,0:0:0:0:
474,189,116943,2,0,L|465:283,1,95,2|2,0:0|0:0,0:0:0:0:
269,321,117251,2,0,P|250:277|245:217,1,95,8|0,0:0|0:0,0:0:0:0:
366,107,117559,5,2,0:0:0:0:
182,174,117713,1,2,0:0:0:0:
384,222,117866,2,0,L|378:127,1,95,8|0,0:0|0:0,0:0:0:0:
231,74,118174,1,2,0:0:0:0:
297,208,118328,1,2,0:0:0:0:
365,28,118482,1,8,0:0:0:0:
365,28,118635,1,0,0:0:0:0:
94,64,118789,5,6,0:0:0:0:
84,80,118943,1,2,0:0:0:0:
90,274,119097,2,0,P|103:214|103:182,1,80.750001540184,8|0,0:0|0:0,0:0:0:0:
206,121,119405,5,2,0:0:0:0:
196,137,119559,1,2,0:0:0:0:
202,331,119713,2,0,P|215:271|215:239,1,80.750001540184,8|0,0:0|0:0,0:0:0:0:
309,52,120020,5,2,0:0:0:0:
299,68,120174,1,2,0:0:0:0:
305,262,120328,2,0,P|318:202|318:170,1,80.750001540184,8|0,0:0|0:0,0:0:0:0:
421,109,120636,5,2,0:0:0:0:
411,125,120790,1,2,0:0:0:0:
417,319,120944,2,0,P|430:259|430:227,1,80.750001540184,8|0,0:0|0:0,0:0:0:0:
134,298,121251,6,0,P|182:294|227:283,1,80.750001540184,2|2,0:0|0:0,0:0:0:0:
415,222,121559,2,0,P|367:218|322:207,1,80.750001540184,12|2,0:0|0:0,0:0:0:0:
174,174,121866,6,0,P|222:178|267:189,1,80.750001540184,2|2,0:0|0:0,0:0:0:0:
455,98,122174,2,0,P|407:102|362:113,1,80.750001540184,12|2,0:0|0:0,0:0:0:0:
239,345,122482,5,8,0:0:0:0:
273,39,122636,1,8,0:0:0:0:
300,272,122789,1,8,0:0:0:0:
212,112,122943,1,8,0:0:0:0:
381,229,123097,1,8,0:0:0:0:
131,155,123251,1,8,0:0:0:0:
475,212,123404,1,8,0:0:0:0:
37,172,123558,1,8,0:0:0:0:
352,273,123712,6,0,B|369:268|381:255|381:255|381:272|388:291,1,61.7499971733095,12|2,0:0|0:0,0:0:0:0:
355,306,124174,1,2,0:0:0:0:
337,338,124482,1,2,0:0:0:0:
178,160,124636,6,0,B|161:155|149:142|149:142|149:159|142:178,1,61.7499971733095,8|2,0:0|0:0,0:0:0:0:
175,193,125098,1,2,0:0:0:0:
191,225,125406,1,2,0:0:0:0:
325,168,125559,5,8,0:0:0:0:
159,166,125712,1,2,0:0:0:0:
355,153,125866,1,8,0:0:0:0:
351,174,125943,1,8,0:0:0:0:
346,194,126020,1,8,0:0:0:0:
341,215,126097,1,8,0:0:0:0:
335,234,126174,6,0,L|420:225,1,80.750001540184,2|2,0:0|0:0,0:0:0:0:
344,357,126482,2,0,L|259:348,1,80.750001540184,8|2,0:0|0:0,0:0:0:0:
160,334,126789,1,2,0:0:0:0:
160,334,126943,1,2,0:0:0:0:
25,152,127097,2,0,L|110:161,1,80.750001540184,8|2,0:0|0:0,0:0:0:0:
209,175,127404,5,2,0:0:0:0:
209,175,127558,1,2,0:0:0:0:
427,279,127712,2,0,L|342:270,1,80.750001540184,8|2,0:0|0:0,0:0:0:0:
243,256,128019,1,2,0:0:0:0:
243,256,128173,1,2,0:0:0:0:
89,68,128328,2,0,L|174:77,1,80.750001540184,8|2,0:0|0:0,0:0:0:0:
445,121,128636,6,0,B|440:106|440:106|454:89|454:89|445:65,1,61.7499971733095,8|2,0:0|0:0,0:0:0:0:
409,73,129098,1,2,0:0:0:0:
418,37,129406,1,2,0:0:0:0:
262,223,129559,6,0,B|267:208|267:208|253:191|253:191|262:167,1,61.7499971733095,8|2,0:0|0:0,0:0:0:0:
298,175,130021,1,2,0:0:0:0:
289,139,130329,1,2,0:0:0:0:
196,71,130483,5,8,0:0:0:0:
262,223,130636,1,2,0:0:0:0:
170,47,130789,1,8,0:0:0:0:
191,43,130866,1,8,0:0:0:0:
211,38,130943,1,8,0:0:0:0:
232,33,131020,1,8,0:0:0:0:
251,29,131097,6,0,L|242:114,1,80.750001540184,2|2,0:0|0:0,0:0:0:0:
434,209,131405,2,0,L|425:124,1,80.750001540184,8|2,0:0|0:0,0:0:0:0:
459,29,131712,1,2,0:0:0:0:
459,29,131866,1,2,0:0:0:0:
344,236,132020,2,0,L|335:151,1,80.750001540184,8|2,0:0|0:0,0:0:0:0:
369,56,132327,5,2,0:0:0:0:
369,56,132481,1,2,0:0:0:0:
254,263,132636,2,0,L|245:178,1,80.750001540184,8|2,0:0|0:0,0:0:0:0:
130,57,132943,1,2,0:0:0:0:
173,223,133097,1,8,0:0:0:0:
279,83,133251,1,8,0:0:0:0:
66,258,133405,6,0,B|121:306|174:236|231:281,1,170.999994781494,6|2,0:0|0:0,0:0:0:0:
374,266,133866,6,0,P|405:234|415:186,1,85.4999973907472,8|0,0:0|0:0,0:0:0:0:
401,118,134174,1,2,0:0:0:0:
340,70,134328,1,2,0:0:0:0:
265,273,134482,6,0,P|277:315|313:348,1,85.4999973907472,8|0,0:0|0:0,0:0:0:0:
388,364,134789,1,2,0:0:0:0:
461,318,134944,1,2,0:0:0:0:
314,173,135097,6,0,P|270:162|224:177,1,85.4999973907472,8|0,0:0|0:0,0:0:0:0:
168,241,135404,1,2,0:0:0:0:
186,333,135559,1,2,0:0:0:0:
443,188,135712,6,0,B|450:46,1,128.249996086121,8|0,0:0|2:0,0:0:0:0:
468,25,136020,6,0,P|428:38|372:31,1,85.4999973907472,2|2,0:0|0:0,0:0:0:0:
200,71,136328,2,0,P|157:73|117:59,1,85.4999973907472,8|0,0:0|0:0,0:0:0:0:
7,161,136636,6,0,P|47:175|90:173,1,85.4999973907472,2|2,0:0|0:0,0:0:0:0:
275,137,136944,2,0,P|317:140|358:126,1,85.4999973907472,8|0,0:0|0:0,0:0:0:0:
488,189,137251,6,0,P|448:202|392:195,1,85.4999973907472,2|2,0:0|0:0,0:0:0:0:
220,235,137559,2,0,P|177:237|137:223,1,85.4999973907472,8|0,0:0|0:0,0:0:0:0:
27,325,137866,6,0,P|67:338|109:336,1,85.4999973907472,2|2,0:0|0:0,0:0:0:0:
295,301,138175,2,0,P|337:303|377:290,1,85.4999973907472,8|0,0:0|0:0,0:0:0:0:
317,126,138482,6,0,L|327:236,1,85.4999973907472,2|2,0:0|0:0,0:0:0:0:
452,47,138789,2,0,L|442:157,1,85.4999973907472,8|0,0:0|0:0,0:0:0:0:
312,231,139097,1,2,0:0:0:0:
312,231,139251,1,2,0:0:0:0:
201,73,139405,2,0,P|239:53|281:43,1,85.4999973907472,8|0,0:0|0:0,0:0:0:0:
225,174,139712,5,2,0:0:0:0:
225,174,139866,1,2,0:0:0:0:
119,42,140020,1,8,0:0:0:0:
38,120,140174,2,0,P|75:139|117:149,1,85.4999973907472,0|2,0:0|0:0,0:0:0:0:
225,47,140482,1,2,0:0:0:0:
69,221,140636,2,0,B|83:365,1,128.249996086121,8|0,0:0|2:0,0:0:0:0:
71,370,140943,6,0,L|171:363,1,85.4999973907472
291,244,141251,2,0,L|191:237,1,85.4999973907472,8|0,0:0|0:0,0:0:0:0:
422,378,141559,6,0,L|415:278,1,85.4999973907472
296,158,141867,2,0,L|289:258,1,85.4999973907472,8|0,0:0|0:0,0:0:0:0:
430,26,142174,6,0,L|330:33,1,85.4999973907472
210,152,142482,2,0,L|310:159,1,85.4999973907472,8|0,0:0|0:0,0:0:0:0:
79,18,142789,6,0,L|86:118,1,85.4999973907472
205,238,143097,2,0,L|212:138,1,85.4999973907472,8|0,0:0|0:0,0:0:0:0:
31,331,143405,6,2,B|36:352|78:364|124:358|155:330|156:246|225:245|251:291|217:331|182:308,1,270.6107847781,2|6,2:0|0:0,0:0:0:0:
200,213,154174,6,0,P|175:193|162:166,1,50.7395221458937,0|0,2:0|2:0,0:0:0:0:
133,73,154482,6,8,L|140:321,1,237.5,6|8,0:0|0:0,0:0:0:0:
337,164,154943,1,0,0:0:0:0:
58,112,155097,2,0,L|61:249,1,118.75,2|0,0:0|0:0,0:0:0:0:
276,303,155405,2,0,P|314:270|435:295,1,178.125,8|0,0:0|2:0,0:0:0:0:
358,362,155712,6,8,L|352:121,1,237.5,6|8,0:0|0:0,0:0:0:0:
154,271,156173,1,0,0:0:0:0:
433,323,156328,2,0,L|430:186,1,118.75,2|0,0:0|0:0,0:0:0:0:
213,30,156636,2,0,L|215:208,1,178.125,8|0,0:0|2:0,0:0:0:0:
147,314,156943,6,8,P|199:252|356:271,1,237.5,6|8,0:0|0:0,0:0:0:0:
487,144,157404,1,0,0:0:0:0:
216,92,157559,2,0,P|202:149|214:207,1,118.75,2|0,0:0|0:0,0:0:0:0:
433,323,157866,2,0,P|442:269|425:206,1,118.75,8|0,0:0|0:0,0:0:0:0:
124,69,158174,6,8,P|106:185|155:292,1,237.5,6|8,0:0|0:0,0:0:0:0:
216,92,158635,1,0,0:0:0:0:
38,298,158789,2,0,P|97:304|155:292,1,118.75,2|0,0:0|0:0,0:0:0:0:
345,194,159097,1,8,0:0:0:0:
164,97,159251,1,0,0:0:0:0:
423,57,159405,6,8,P|380:156|402:287,1,237.5,6|8,0:0|0:0,0:0:0:0:
253,80,159866,1,0,0:0:0:0:
83,220,160020,2,8,L|201:216,1,118.75,2|0,0:0|0:0,0:0:0:0:
354,113,160328,2,8,L|235:116,1,118.75,8|0,0:0|0:0,0:0:0:0:
256,338,160636,5,8,0:0:0:0:
262,346,160712,1,8,0:0:0:0:
269,354,160789,2,0,P|276:315|276:280,1,59.375,2|2,0:0|0:0,0:0:0:0:
151,112,160943,5,8,0:0:0:0:
388,238,161097,1,8,0:0:0:0:
122,275,161251,1,8,0:0:0:0:
315,89,161405,1,8,0:0:0:0:
269,354,161559,1,8,0:0:0:0:
230,49,161712,6,0,B|282:42|341:55|341:55|396:38|455:42,1,218.500004167557,6|2,0:0|0:0,0:0:0:0:
481,289,162174,2,0,P|424:284|364:268,1,109.250002083778,8|2,0:0|0:0,0:0:0:0:
177,149,162482,2,0,P|229:135|284:131,1,109.250002083778,8|2,0:0|0:0,0:0:0:0:
266,324,162790,1,8,0:0:0:0:
429,110,162944,1,2,0:0:0:0:
431,148,163021,1,2,0:0:0:0:
435,185,163098,5,12,0:0:0:0:
233,249,163251,1,2,0:0:0:0:
449,90,163405,2,0,L|459:208,1,109.250002083778,8|2,0:0|0:0,0:0:0:0:
172,67,163713,5,8,0:3:0:0:
352,129,163867,1,2,0:3:0:0:
135,163,164020,1,8,0:3:0:0:
278,36,164174,2,0,P|279:64|277:104,1,54.6250010418892,2|2,0:3|0:0,0:0:0:0:
178,258,164328,6,0,P|245:245|291:262,1,109.250002083778,12|2,0:0|0:0,0:0:0:0:
77,356,164636,2,0,L|83:232,1,109.250002083778,8|2,0:0|0:0,0:0:0:0:
278,36,164943,2,0,L|272:160,1,109.250002083778,8|2,0:0|0:0,0:0:0:0:
167,349,165252,1,8,0:0:0:0:
112,122,165405,1,2,0:0:0:0:
148,136,165482,1,2,0:0:0:0:
178,160,165559,5,12,0:0:0:0:
41,249,165713,1,2,0:0:0:0:
113,93,165866,2,0,P|164:115|209:163,1,109.250002083778,8|2,0:0|0:0,0:0:0:0:
318,333,166175,5,8,0:3:0:0:
380,156,166329,1,2,0:3:0:0:
432,359,166483,1,8,0:3:0:0:
297,226,166636,2,0,P|267:230|231:243,1,54.6250010418892,2|2,0:3|0:0,0:0:0:0:
73,345,166789,6,0,L|66:230,1,109.250002083778,12|2,0:0|0:0,0:0:0:0:
173,132,167098,5,8,0:0:0:0:
182,286,167251,1,2,0:0:0:0:
285,85,167405,5,8,0:0:0:0:
294,239,167558,1,2,0:0:0:0:
397,38,167713,5,8,0:0:0:0:
406,192,167866,1,2,0:0:0:0:
410,236,167944,1,2,0:0:0:0:
414,279,168021,6,0,P|429:216|412:151,1,109.250002083778,12|2,0:0|0:0,0:0:0:0:
160,178,168328,2,0,P|145:115|162:50,1,109.250002083778,8|2,0:0|0:0,0:0:0:0:
286,345,168636,2,0,P|301:282|284:217,1,109.250002083778,8|2,0:0|0:0,0:0:0:0:
51,290,168943,2,0,P|36:227|53:162,1,109.250002083778,8|2,0:0|0:0,0:0:0:0:
55,167,169174,1,2,0:0:0:0:
55,167,169251,5,12,0:0:0:0:
262,236,169405,1,2,0:0:0:0:
194,33,169559,5,8,0:0:0:0:
141,257,169713,1,2,0:0:0:0:
376,170,169867,5,12,0:0:0:0:
110,77,170021,1,2,0:0:0:0:
220,347,170174,5,12,0:0:0:0:
307,57,170328,1,2,0:0:0:0:
348,39,170405,1,2,0:0:0:0:
391,36,170482,6,0,P|396:102|380:161,1,109.250002083778,12|2,0:0|0:0,0:0:0:0:
178,247,170790,1,12,0:0:0:0:
435,280,170943,1,8,0:0:0:0:
468,261,171020,1,8,0:0:0:0:
495,234,171097,5,14,0:0:0:0:
337,179,171251,1,2,0:0:0:0:
376,358,171405,1,8,0:0:0:0:
465,126,171559,6,0,B|339:147|339:147|276:134,1,190,6|2,0:0|0:0,0:0:0:0:
68,74,172020,2,0,L|175:58,1,95,8|0,0:0|0:0,0:0:0:0:
236,226,172328,2,0,P|202:192|174:134,1,95,2|2,0:0|0:0,0:0:0:0:
360,40,172636,2,0,P|337:81|303:114,1,95,8|0,0:0|0:0,0:0:0:0:
103,156,172943,5,2,0:0:0:0:
247,206,173097,1,2,0:0:0:0:
51,254,173251,2,0,P|107:252|156:239,1,95,8|0,0:0|0:0,0:0:0:0:
194,129,173558,1,2,0:0:0:0:
195,309,173712,1,2,0:0:0:0:
347,165,173866,1,8,0:0:0:0:
225,294,174020,2,0,P|251:299|294:300,1,47.5
431,339,174174,6,0,P|386:345|331:344,1,95,2|2,0:0|0:0,0:0:0:0:
446,104,174482,2,0,L|451:204,1,95,8|2,0:0|0:0,0:0:0:0:
439,327,174789,2,0,L|434:227,1,95,2|2,0:0|0:0,0:0:0:0:
291,50,175097,2,0,P|297:96|315:140,1,95,8|0,0:0|0:0,0:0:0:0:
380,27,175405,5,2,0:0:0:0:
213,97,175559,1,2,0:0:0:0:
419,158,175712,2,0,P|412:204|394:248,1,95,8|0,0:0|0:0,0:0:0:0:
258,326,176020,1,2,0:0:0:0:
277,194,176174,1,2,0:0:0:0:
143,317,176328,2,0,L|32:323,1,95,8|0,0:0|0:0,0:0:0:0:
41,138,176636,5,6,0:0:0:0:
41,138,176790,1,2,0:0:0:0:
211,49,176943,1,8,0:0:0:0:
261,148,177097,1,2,0:0:0:0:
100,45,177251,5,2,0:0:0:0:
100,45,177405,1,2,0:0:0:0:
261,148,177560,1,8,0:0:0:0:
200,241,177712,1,2,0:0:0:0:
211,49,177867,5,2,0:0:0:0:
211,49,178021,1,2,0:0:0:0:
200,241,178175,1,8,0:0:0:0:
90,235,178328,1,2,0:0:0:0:
261,148,178483,5,2,0:0:0:0:
261,148,178637,1,2,0:0:0:0:
90,235,178789,6,0,L|95:331,1,80.750001540184,8|2,0:0|0:0,0:0:0:0:
192,363,179020,1,2,0:0:0:0:
205,334,179097,6,0,P|153:309|70:328,1,118.75,12|2,0:0|0:0,0:0:0:0:
390,334,179405,6,0,L|395:238,1,80.750001540184,0|2,0:0|0:0,0:0:0:0:
299,205,179636,1,2,0:0:0:0:
282,234,179713,6,0,P|334:259|417:240,1,118.75,12|2,0:0|0:0,0:0:0:0:
369,70,180020,6,0,B|336:44|336:44|331:89,1,80.750001540184,0|2,0:0|0:0,0:0:0:0:
441,178,180250,1,2,0:0:0:0:
427,147,180328,6,0,L|527:160,1,80.750001540184,8|2,0:0|0:0,0:0:0:0:
477,356,180636,6,0,P|445:353|404:338,1,47.5,10|0,0:0|2:0,0:0:0:0:
341,300,180789,2,0,P|309:303|272:317,1,47.5,10|0,0:0|2:0,0:0:0:0:
204,338,180943,5,0,2:0:0:0:
204,338,181251,5,0,2:0:0:0:
204,338,181559,5,8,0:0:0:0:
157,345,181636,1,0,0:0:0:0:
113,326,181712,1,0,0:0:0:0:
89,284,181789,1,0,0:0:0:0:
92,236,181866,1,8,0:0:0:0:
122,199,181943,1,0,0:0:0:0:
167,183,182020,1,0,0:0:0:0:
212,196,182097,1,0,0:0:0:0:
243,231,182174,5,8,0:0:0:0:
288,244,182251,1,0,0:0:0:0:
333,228,182328,1,0,0:0:0:0:
363,191,182405,1,0,0:0:0:0:
366,143,182482,1,8,0:0:0:0:
342,101,182559,1,0,0:0:0:0:
298,82,182635,1,0,0:0:0:0:
251,89,182712,1,0,0:0:0:0:
212,117,182789,6,0,L|329:112,1,95,6|2,0:0|0:0,0:0:0:0:
437,314,183097,2,0,L|320:309,1,95,8|0,0:0|0:0,0:0:0:0:
181,373,183405,1,2,0:0:0:0:
307,309,183558,1,2,0:0:0:0:
133,232,183712,2,0,L|250:227,1,95,8|0,0:0|0:0,0:0:0:0:
386,292,184020,5,2,0:0:0:0:
259,229,184173,1,2,0:0:0:0:
433,152,184328,2,0,L|316:147,1,95,8|0,0:0|0:0,0:0:0:0:
172,209,184636,1,2,0:0:0:0:
299,146,184789,1,2,0:0:0:0:
125,69,184943,2,0,L|242:64,1,95,8|0,0:0|0:0,0:0:0:0:
325,178,185251,5,2,0:0:0:0:
252,63,185404,1,2,0:0:0:0:
437,30,185558,2,0,L|431:151,1,95,8|0,0:0|0:0,0:0:0:0:
378,283,185867,1,2,0:0:0:0:
277,177,186021,1,2,0:0:0:0:
456,151,186174,1,8,0:0:0:0:
354,313,186328,6,0,P|280:334|159:295,1,190,2|2,0:0|0:0,0:0:0:0:
106,117,186789,2,0,L|112:238,1,95,8|0,0:0|0:0,0:0:0:0:
70,314,187097,1,2,0:0:0:0:
189,161,187251,1,2,0:0:0:0:
248,351,187405,6,2,P|312:316|419:343,1,170.999994781494,10|0,0:0|2:0,0:0:0:0:
471,378,187713,5,2,0:0:0:0:
471,378,187867,1,2,0:0:0:0:
371,233,188020,2,0,P|323:232|258:250,1,95,8|0,0:0|0:0,0:0:0:0:
380,355,188327,1,2,0:0:0:0:
380,355,188481,1,2,0:0:0:0:
430,162,188636,2,8,P|383:148|316:149,1,95,8|0,0:0|0:0,0:0:0:0:
155,204,188943,5,2,0:0:0:0:
155,204,189097,1,2,0:0:0:0:
236,34,189251,2,0,L|245:144,1,95,8|0,0:0|0:0,0:0:0:0:
259,255,189558,1,2,0:0:0:0:
259,255,189712,1,2,0:0:0:0:
147,109,189866,2,0,L|156:219,1,95,8|0,0:0|0:0,0:0:0:0:
184,359,190174,5,2,0:0:0:0:
75,308,190328,1,2,0:0:0:0:
278,269,190482,2,0,P|285:220|279:156,1,95,8|0,0:0|0:0,0:0:0:0:
256,52,190789,5,2,0:0:0:0:
365,103,190943,1,2,0:0:0:0:
162,142,191097,2,0,P|155:191|161:255,1,95,8|0,0:0|0:0,0:0:0:0:
169,267,191328,1,8,0:0:0:0:
169,267,191405,5,8,0:0:0:0:
357,280,191559,1,8,0:0:0:0:
202,340,191712,1,8,0:0:0:0:
427,241,191866,1,8,0:0:0:0:
275,376,192020,1,8,0:0:0:0:
475,174,192174,6,0,L|483:307,1,132.999995941162,6|2,0:0|0:0,0:0:0:0:
470,89,192636,5,4,0:0:0:0:
256,192,192789,12,0,197559,2:0:0:0:
