osu file format v14

[General]
AudioFilename: song.mp3
AudioLeadIn: 0
PreviewTime: 101943
Countdown: 0
SampleSet: Normal
StackLeniency: 0.7
Mode: 0
LetterboxInBreaks: 0
WidescreenStoryboard: 0

[Editor]
DistanceSpacing: 0.5
BeatDivisor: 4
GridSize: 4
TimelineZoom: 2.399999

[Metadata]
Title:Mikansei Koukyoukyoku
TitleUnicode:未完成交響曲
Artist:ONE OK ROCK
ArtistUnicode:ONE OK ROCK
Creator:Saut
Version:Extra
Source:
Tags:milan- pkhg Nicheシンドローム niche syndrome unfinished symphony taka toru ryota tomoya
BeatmapID:786842
BeatmapSetID:348604

[Difficulty]
HPDrainRate:6.4
CircleSize:4
OverallDifficulty:8.6
ApproachRate:9.2
SliderMultiplier:1.8
SliderTickRate:1

[Events]
//Background and Video events
0,0,"bg.jpg",0,0
//Break Periods
2,40220,45604
2,96836,102219
2,144835,153604
//Storyboard Layer 0 (Background)
//Storyboard Layer 1 (Fail)
//Storyboard Layer 2 (Pass)
//Storyboard Layer 3 (Foreground)
//Storyboard Sound Samples

[TimingPoints]
636,307.692307692308,4,1,1,60,1,0
943,-153.846153846154,4,2,1,35,0,0
1328,-153.846153846154,4,2,0,15,0,0
1405,-153.846153846154,4,2,1,35,0,0
2559,-153.846153846154,4,2,0,15,0,0
2636,-100,4,1,1,35,0,0
3097,-100,4,1,1,60,0,0
3405,-153.846153846154,4,2,1,35,0,0
3789,-153.846153846154,4,2,0,15,0,0
3866,-153.846153846154,4,2,1,35,0,0
4943,-153.846153846154,4,1,1,60,0,0
5251,-83.3333333333333,4,1,1,60,0,0
5482,-83.3333333333333,4,1,0,60,0,0
5559,-125,4,1,1,60,0,0
10482,-111.111111111111,4,1,1,60,0,0
15097,-83.3333333333333,4,1,1,60,0,0
15328,-83.3333333333333,4,1,0,60,0,0
15405,-111.111111111111,4,1,1,60,0,0
20328,-125,4,1,1,50,0,0
30174,-142.857142857143,4,1,1,50,0,0
34789,-117.647058823529,4,1,1,50,0,0
35020,-117.647058823529,4,1,0,50,0,0
35097,-142.857142857143,4,1,1,50,0,0
37251,-117.647058823529,4,1,1,50,0,0
37482,-117.647058823529,4,1,0,50,0,0
37559,-142.857142857143,4,1,1,50,0,0
39328,-142.857142857143,4,1,0,50,0,0
39405,-142.857142857143,4,1,1,50,0,0
39943,-142.857142857143,4,1,0,50,0,0
40020,-142.857142857143,4,1,1,50,0,0
46174,-100,4,1,1,60,0,0
46482,-83.3333333333333,4,1,1,60,0,0
47251,-90.9090909090909,4,1,1,70,0,1
49705,-90.9090909090909,4,1,1,70,0,1
57097,-100,4,1,1,70,0,1
62174,-117.647058823529,4,1,1,50,0,1
67097,-100,4,1,1,60,0,0
71712,-83.3333333333333,4,1,1,60,0,0
71943,-83.3333333333333,4,1,0,60,0,0
72020,-100,4,1,1,60,0,0
76943,-125,4,1,1,50,0,0
85636,-125,4,1,0,35,0,0
85712,-125,4,1,1,50,0,0
85943,-125,4,1,0,35,0,0
86020,-125,4,1,1,50,0,0
86789,-142.857142857143,4,1,1,50,0,0
96559,-142.857142857143,4,1,0,50,0,0
96636,-142.857142857143,4,1,1,50,0,0
102789,-100,4,1,1,60,0,0
103097,-83.3333333333333,4,1,1,60,0,0
103866,-90.9090909090909,4,1,1,70,0,1
113712,-100,4,1,1,70,0,1
118789,-117.647058823529,4,1,1,50,0,1
123712,-153.846153846154,4,1,1,50,0,0
126174,-117.647058823529,4,1,1,60,0,0
128636,-153.846153846154,4,1,1,50,0,0
131097,-117.647058823529,4,1,1,60,0,0
133405,-99.9999999999999,4,1,1,60,0,0
135943,-99.9999999999999,4,1,0,60,0,0
136020,-99.9999999999999,4,1,1,60,0,0
140866,-99.9999999999999,4,1,0,60,0,0
140943,-99.9999999999999,4,1,1,60,0,0
143405,-280.846153846154,4,1,1,60,0,0
143482,-280.846153846154,4,1,1,60,0,0
144636,-280.846153846154,4,1,1,60,0,0
154174,-280.846153846154,4,1,1,50,0,0
154405,-280.846153846154,4,1,0,15,0,0
154482,-80,4,1,1,70,0,1
154559,-80,4,1,1,70,0,0
155636,-80,4,1,0,70,0,0
155712,-80,4,1,1,70,0,0
156866,-80,4,1,0,70,0,0
156943,-80,4,1,1,70,0,0
158097,-80,4,1,0,70,0,0
158174,-80,4,1,1,70,0,0
161712,-86.9565217391304,4,1,1,75,0,1
171559,-100,4,1,1,70,0,1
176636,-117.647058823529,4,1,1,50,0,1
179097,-83.3333333333333,4,1,1,50,0,1
179405,-117.647058823529,4,1,1,50,0,1
179712,-83.3333333333333,4,1,1,50,0,1
180020,-117.647058823529,4,1,1,50,0,1
180636,-100,4,1,1,50,0,0
180712,-100,4,1,0,50,0,0
180789,-100,4,1,1,50,0,0
180866,-100,4,1,0,50,0,0
180943,-100,4,1,1,50,0,0
182789,-100,4,1,1,60,0,1
182866,-100,4,1,1,60,0,0
187405,-83.3333333333333,4,1,1,60,0,0
187636,-83.3333333333333,4,1,0,60,0,0
187712,-100,4,1,1,60,0,0
191251,-100,4,1,0,60,0,0
191328,-100,4,1,1,60,0,0
192174,-125,4,1,1,60,0,0
192636,-80,4,1,1,75,0,0
192789,-80,4,1,1,60,0,0
193251,-80,4,1,1,55,0,0
193866,-80,4,1,1,50,0,0
194482,-80,4,1,1,45,0,0
195097,-80,4,1,1,40,0,0
195712,-80,4,1,1,35,0,0
196328,-80,4,1,1,30,0,0
196636,-80,4,1,1,25,0,0
196943,-80,4,1,1,20,0,0
197251,-80,4,1,1,15,0,0
197559,-80,4,1,1,10,0,0

[Colours]
Combo1 : 253,236,191
Combo2 : 253,155,150
Combo3 : 227,220,255
Combo4 : 214,241,230

[HitObjects]
440,57,636,5,10,0:0:0:0:
283,101,789,1,10,0:0:0:0:
411,71,943,1,0,2:0:0:0:
411,71,1097,6,0,P|406:123|428:177,1,87.749995983124,0|0,0:0|2:0,0:0:0:0:
424,164,1405,2,0,P|427:187|420:228,5,58.4999973220826
326,185,2328,6,0,P|321:237|343:289,1,87.749995983124,0|0,0:0|2:0,0:0:0:0:
339,279,2636,1,2,0:0:0:0:
275,349,2789,6,0,L|170:342,1,90,10|2,0:0|0:0,0:0:0:0:
71,288,3097,5,10,0:0:0:0:
228,244,3250,1,10,0:0:0:0:
102,281,3404,1,0,2:0:0:0:
102,281,3559,6,0,P|107:229|85:175,1,87.749995983124,0|0,0:0|2:0,0:0:0:0:
89,188,3867,2,0,P|86:165|93:124,5,58.4999973220826,0|0|0|0|0|0,0:0|0:0|0:0|0:0|0:0|0:0,0:0:0:0:
133,53,4789,5,0,0:0:0:0:
208,178,4943,1,8,3:0:0:0:
214,148,5020,1,8,3:0:0:0:
221,118,5097,1,2,0:0:0:0:
226,87,5174,1,2,0:0:0:0:
232,57,5251,6,0,B|279:24|331:95|395:43,1,161.999995056153,4|0,3:0|2:0,0:0:0:0:
405,26,5559,5,6,0:0:0:0:
441,166,5712,1,8,0:0:0:0:
441,166,5866,1,8,0:0:0:0:
444,37,6020,5,2,0:0:0:0:
476,181,6174,1,8,0:0:0:0:
476,181,6328,1,8,0:0:0:0:
354,132,6482,5,2,0:0:0:0:
389,298,6636,1,8,0:0:0:0:
389,298,6712,1,8,0:0:0:0:
389,298,6789,5,6,0:0:0:0:
245,234,6943,1,8,0:0:0:0:
245,234,7097,1,8,0:0:0:0:
404,207,7251,5,2,0:0:0:0:
219,320,7405,1,8,0:0:0:0:
219,320,7559,1,8,0:0:0:0:
278,144,7712,5,2,0:0:0:0:
104,185,7867,1,8,0:0:0:0:
104,185,7943,1,8,0:0:0:0:
104,185,8020,5,6,0:0:0:0:
215,74,8174,1,8,0:0:0:0:
215,74,8328,1,8,0:0:0:0:
171,248,8482,5,2,0:0:0:0:
124,96,8636,1,8,0:0:0:0:
124,96,8789,1,8,0:0:0:0:
259,235,8943,5,2,0:0:0:0:
83,269,9097,2,0,L|29:262,2,36,8|8|6,0:0|0:0|0:0,0:0:0:0:
215,341,9405,5,8,0:0:0:0:
232,330,9482,1,8,0:0:0:0:
250,322,9559,1,10,0:0:0:0:
269,317,9636,1,8,0:0:0:0:
289,314,9712,1,8,0:0:0:0:
309,315,9789,1,8,0:0:0:0:
328,320,9866,5,10,0:0:0:0:
353,330,9943,1,8,0:0:0:0:
379,335,10020,1,8,0:0:0:0:
406,333,10097,1,8,0:0:0:0:
432,324,10174,1,10,0:0:0:0:
455,310,10251,1,8,0:0:0:0:
473,290,10328,1,8,0:0:0:0:
482,264,10405,1,8,0:0:0:0:
487,233,10482,6,0,P|482:204|493:136,1,80.9999975280763,6|2,0:0|0:0,0:0:0:0:
402,49,10789,2,0,P|407:78|396:148,1,80.9999975280763,8|0,0:0|0:0,0:0:0:0:
283,199,11097,1,2,0:0:0:0:
393,154,11251,1,2,0:0:0:0:
252,104,11405,2,0,P|247:133|257:203,1,80.9999975280763,8|0,0:0|0:0,0:0:0:0:
325,294,11712,5,2,0:0:0:0:
283,199,11866,1,2,0:0:0:0:
238,334,12020,2,0,L|149:329,1,80.9999975280763,8|0,0:0|0:0,0:0:0:0:
87,213,12328,1,2,0:0:0:0:
129,308,12482,1,2,0:0:0:0:
173,171,12636,2,0,L|262:176,1,80.9999975280763,8|0,0:0|0:0,0:0:0:0:
338,73,12943,5,2,0:0:0:0:
283,199,13097,1,2,0:0:0:0:
235,41,13251,2,0,L|146:46,1,80.9999975280763,8|0,0:0|0:0,0:0:0:0:
29,112,13559,1,2,0:0:0:0:
156,155,13713,1,2,0:0:0:0:
5,216,13866,1,8,0:0:0:0:
173,171,14020,6,0,P|251:158|339:193,1,161.999995056153,2|2,0:0|0:0,0:0:0:0:
447,279,14482,2,0,P|407:276|355:296,1,80.9999975280763,8|0,0:0|0:0,0:0:0:0:
281,366,14789,1,2,0:0:0:0:
267,242,14943,1,2,0:0:0:0:
109,352,15097,6,2,P|183:322|258:346,1,161.999995056153,10|0,0:0|2:0,0:0:0:0:
281,366,15405,6,0,L|271:264,1,80.9999975280763,2|2,0:0|0:0,0:0:0:0:
424,175,15712,2,0,L|414:260,1,80.9999975280763,8|0,0:0|0:0,0:0:0:0:
394,356,16020,1,2,0:0:0:0:
394,356,16174,1,2,0:0:0:0:
409,145,16328,2,0,L|419:230,1,80.9999975280763,8|0,0:0|0:0,0:0:0:0:
440,324,16636,5,2,0:0:0:0:
440,324,16790,1,2,0:0:0:0:
325,219,16943,2,0,P|284:218|242:246,1,80.9999975280763,8|0,0:0|0:0,0:0:0:0:
198,340,17251,1,2,0:0:0:0:
198,340,17405,1,2,0:0:0:0:
105,165,17559,2,0,P|146:164|187:192,1,80.9999975280763,8|0,0:0|0:0,0:0:0:0:
30,208,17866,6,0,B|19:169|19:169|27:107,1,80.9999975280763,2|2,0:0|0:0,0:0:0:0:
200,83,18174,2,0,B|205:123|205:123|194:162,1,80.9999975280763,8|0,0:0|0:0,0:0:0:0:
137,273,18482,1,2,0:0:0:0:
257,244,18636,1,2,0:0:0:0:
116,193,18789,1,8,0:0:0:0:
284,257,18943,1,8,0:0:0:0:
284,257,19020,1,8,0:0:0:0:
284,257,19097,5,8,0:0:0:0:
229,104,19251,1,8,0:0:0:0:
258,283,19405,1,8,0:0:0:0:
383,120,19559,1,8,0:0:0:0:
329,329,19712,1,8,0:0:0:0:
122,110,19866,5,6,0:0:0:0:
122,110,20174,1,0,0:0:0:0:
294,40,20328,6,0,P|332:32|384:34,1,72,12|2,0:0|0:0,0:0:0:0:
511,88,20636,2,0,P|473:80|421:82,1,72,0|2,0:0|0:0,0:0:0:0:
287,127,20943,2,0,P|325:119|377:121,1,72,0|2,0:0|0:0,0:0:0:0:
499,184,21251,1,8,0:0:0:0:
397,217,21405,2,0,P|389:250|404:306,1,72,2|0,0:0|0:0,0:0:0:0:
474,360,21712,6,0,P|409:325|323:346,1,144,2|2,0:0|0:0,0:0:0:0:
202,341,22174,1,8,0:0:0:0:
322,355,22328,1,2,0:0:0:0:
227,267,22482,1,8,0:0:0:0:
194,263,22559,1,8,0:0:0:0:
161,268,22636,1,8,0:0:0:0:
133,283,22712,1,8,0:0:0:0:
107,302,22789,6,0,P|67:311|15:309,1,72,8|2,0:0|0:0,0:0:0:0:
0,192,23097,2,0,P|40:201|92:199,1,72,0|2,0:0|0:0,0:0:0:0:
121,74,23405,2,0,P|81:83|29:81,1,72,0|2,0:0|0:0,0:0:0:0:
211,20,23712,1,8,0:0:0:0:
269,110,23866,2,0,P|303:120|341:112,1,72,2|0,0:0|0:0,0:0:0:0:
414,30,24174,6,0,P|379:98|401:174,1,144,2|2,0:0|0:0,0:0:0:0:
481,294,24636,1,8,0:0:0:0:
414,179,24790,1,2,0:0:0:0:
382,337,24944,1,8,0:0:0:0:
356,316,25021,1,8,0:0:0:0:
325,304,25098,1,8,0:0:0:0:
293,299,25174,1,8,0:0:0:0:
260,302,25251,6,0,P|226:311|162:304,1,72,8|2,0:0|0:0,0:0:0:0:
64,192,25559,2,0,P|99:191|134:200,1,72,0|2,0:0|0:0,0:0:0:0:
112,335,25866,1,0,0:0:0:0:
162,214,26020,1,2,0:0:0:0:
199,366,26174,5,8,0:0:0:0:
199,366,26328,1,2,0:0:0:0:
350,278,26482,1,0,0:0:0:0:
350,278,26636,1,2,0:0:0:0:
186,191,26789,1,0,0:0:0:0:
186,191,26943,1,2,0:0:0:0:
368,178,27097,5,8,0:0:0:0:
230,274,27251,1,2,0:0:0:0:
386,353,27405,1,8,0:0:0:0:
384,320,27482,1,8,0:0:0:0:
384,288,27559,1,8,0:0:0:0:
381,255,27636,1,8,0:0:0:0:
381,223,27712,6,0,P|414:210|457:215,1,72,8|2,0:0|0:0,0:0:0:0:
266,94,28020,2,0,P|299:107|342:102,1,72,0|2,0:0|0:0,0:0:0:0:
267,302,28328,2,0,L|256:229,1,72,0|2,0:0|0:0,0:0:0:0:
129,363,28636,2,0,L|140:290,1,72,8|2,0:0|0:0,0:0:0:0:
97,71,28943,5,0,0:0:0:0:
60,150,29097,1,2,0:0:0:0:
71,236,29251,1,0,0:0:0:0:
139,291,29405,1,2,0:0:0:0:
184,81,29559,2,0,L|94:81,1,72,8|2,0:0|0:0,0:0:0:0:
155,301,29866,2,0,L|245:301,1,72,8|2,0:0|0:0,0:0:0:0:
373,259,30174,6,0,P|385:230|388:178,1,62.9999980773926,6|0,0:0|0:0,0:0:0:0:
390,199,30482,1,8,0:0:0:0:
233,307,30636,2,0,P|213:282|197:232,1,62.9999980773926,2|0,0:0|0:0,0:0:0:0:
202,253,30944,1,2,0:0:0:0:
428,329,31097,6,0,P|447:304|463:254,1,62.9999980773926,8|2,0:0|0:0,0:0:0:0:
459,275,31405,1,0,0:0:0:0:
288,237,31559,2,0,P|276:208|272:156,1,62.9999980773926,2|8,0:0|0:0,0:0:0:0:
271,177,31866,1,0,0:0:0:0:
396,102,32020,5,2,0:0:0:0:
396,102,32174,1,2,0:0:0:0:
220,71,32328,1,8,0:0:0:0:
220,71,32636,6,0,P|259:71|291:62,1,62.9999980773926,2|0,0:0|0:0,0:0:0:0:
458,107,32943,2,0,P|419:107|387:98,1,62.9999980773926,8|2,0:0|0:0,0:0:0:0:
271,177,33251,1,0,0:0:0:0:
368,92,33405,1,2,0:0:0:0:
386,237,33559,1,8,0:0:0:0:
241,159,33712,6,0,L|105:166,1,125.999996154785,2|2,0:0|0:0,0:0:0:0:
226,258,34174,1,8,0:0:0:0:
256,127,34328,1,0,0:0:0:0:
337,219,34482,2,0,L|407:221,1,62.9999980773926,2|2,0:0|0:0,0:0:0:0:
281,335,34789,2,0,P|230:309|173:314,1,114.750002188683,8|0,0:0|2:0,0:0:0:0:
149,332,35097,6,0,P|113:338|82:326,1,62.9999980773926,2|0,0:0|0:0,0:0:0:0:
226,258,35405,1,8,0:0:0:0:
118,130,35559,2,0,L|122:256,1,125.999996154785,2|2,0:0|0:0,0:0:0:0:
264,183,36020,5,8,0:0:0:0:
264,183,36174,1,2,0:0:0:0:
139,100,36328,2,0,L|142:184,1,62.9999980773926,0|2,0:0|0:0,0:0:0:0:
306,103,36636,5,8,0:0:0:0:
306,103,36790,1,0,0:0:0:0:
158,67,36943,2,0,L|161:151,1,62.9999980773926,2|2,0:0|0:0,0:0:0:0:
207,262,37251,2,0,P|257:236|314:241,1,114.750002188683,8|0,0:0|2:0,0:0:0:0:
339,259,37559,6,0,P|375:265|405:253,1,62.9999980773926,2|0,0:0|0:0,0:0:0:0:
264,183,37866,1,8,0:0:0:0:
392,137,38020,1,2,0:0:0:0:
281,91,38174,2,0,L|209:100,1,62.9999980773926,0|2,0:0|0:0,0:0:0:0:
402,146,38482,2,0,L|474:155,1,62.9999980773926,8|0,0:0|0:0,0:0:0:0:
294,101,38789,6,0,L|222:110,1,62.9999980773926,0|2,0:0|0:0,0:0:0:0:
99,255,39097,2,0,P|149:260|197:249,1,94.499997116089,8|0,0:0|2:0,0:0:0:0:
219,232,39405,1,2,0:0:0:0:
219,232,39559,1,2,0:0:0:0:
426,313,39712,2,0,P|376:318|328:307,1,94.499997116089,8|0,0:0|2:0,0:0:0:0:
306,290,40020,5,4,0:0:0:0:
112,310,46174,5,8,0:0:0:0:
112,310,46251,1,8,0:0:0:0:
112,310,46328,2,0,P|133:295|171:286,1,45,2|2,0:0|0:0,0:0:0:0:
291,252,46482,5,10,0:0:0:0:
68,189,46636,1,10,0:0:0:0:
431,105,46943,1,2,2:0:0:0:
217,331,47251,6,0,P|280:289|413:318,1,198.000006042481,6|2,0:0|0:0,0:0:0:0:
278,153,47712,2,0,L|294:279,1,99.0000030212403,8|2,0:0|0:0,0:0:0:0:
473,157,48020,2,0,L|489:31,1,99.0000030212403,8|2,0:0|0:0,0:0:0:0:
259,60,48328,1,8,0:0:0:0:
372,129,48482,1,2,0:0:0:0:
372,129,48559,1,2,0:0:0:0:
372,129,48636,5,12,0:0:0:0:
372,22,48789,1,2,0:0:0:0:
249,163,48943,2,0,P|202:163|144:155,1,99.0000030212403,8|2,0:0|0:0,0:0:0:0:
47,55,49251,5,8,0:3:0:0:
95,234,49405,1,2,3:0:0:0:
165,28,49559,1,8,0:3:0:0:
163,185,49712,1,2,0:3:0:0:
179,209,49789,1,2,0:0:0:0:
193,235,49866,6,4,P|196:290|180:342,1,99.0000030212403,12|2,0:0|0:0,0:0:0:0:
21,174,50174,2,0,P|25:121|37:74,1,99.0000030212403,10|2,0:0|0:0,0:0:0:0:
284,261,50482,2,0,P|280:314|267:361,1,99.0000030212403,10|2,0:0|0:0,0:0:0:0:
64,261,50790,1,8,0:0:0:0:
179,209,50943,1,2,0:0:0:0:
179,209,51020,1,2,0:0:0:0:
179,209,51097,5,12,0:0:0:0:
64,154,51251,1,2,0:0:0:0:
209,79,51405,2,0,L|309:87,1,99.0000030212403,8|2,0:0|0:0,0:0:0:0:
377,284,51712,5,8,0:3:0:0:
326,114,51867,1,2,0:3:0:0:
482,232,52021,1,8,0:3:0:0:
313,348,52174,1,2,0:3:0:0:
295,323,52251,1,2,0:0:0:0:
282,296,52328,6,0,P|285:249|302:181,1,99.0000030212403,12|2,0:0|0:0,0:0:0:0:
423,63,52636,5,8,0:0:0:0:
423,63,52789,1,2,0:0:0:0:
245,84,52943,1,8,0:0:0:0:
245,84,53096,1,2,0:0:0:0:
66,100,53251,1,8,0:0:0:0:
180,233,53404,1,2,0:0:0:0:
171,256,53482,1,2,0:0:0:0:
162,279,53559,6,0,L|56:269,1,99.0000030212403,14|2,0:0|0:0,0:0:0:0:
242,115,53866,2,0,L|136:125,1,99.0000030212403,8|2,0:0|0:0,0:0:0:0:
176,307,54174,2,0,L|70:297,1,99.0000030212403,8|2,0:0|0:0,0:0:0:0:
262,137,54482,2,0,L|156:147,1,99.0000030212403,8|2,0:0|0:0,0:0:0:0:
132,150,54712,1,2,0:0:0:0:
132,150,54789,5,14,0:0:0:0:
253,268,54943,1,2,0:0:0:0:
224,83,55097,5,8,0:0:0:0:
257,295,55251,1,2,0:0:0:0:
341,55,55405,5,14,0:0:0:0:
334,264,55559,1,2,0:0:0:0:
451,46,55712,5,12,0:0:0:0:
418,240,55866,1,2,0:0:0:0:
418,240,55943,1,2,0:0:0:0:
418,240,56020,6,0,P|424:289|446:350,1,99.0000030212403,14|2,0:0|0:0,0:0:0:0:
486,130,56328,1,12,0:0:0:0:
324,172,56482,2,0,L|266:177,2,49.5000015106202,8|8|14,0:0|0:0|0:0,0:0:0:0:
498,215,56789,1,2,0:0:0:0:
296,280,56943,1,8,0:0:0:0:
427,63,57097,6,0,B|369:47|286:77|286:77|235:66,1,180,6|2,0:0|0:0,0:0:0:0:
122,222,57559,2,0,P|170:214|216:190,1,90,8|0,0:0|0:0,0:0:0:0:
137,96,57866,2,0,P|89:88|43:64,1,90,2|2,0:0|0:0,0:0:0:0:
306,40,58174,2,0,L|300:146,1,90,8|0,0:0|0:0,0:0:0:0:
329,262,58482,5,2,0:0:0:0:
409,163,58636,1,2,0:0:0:0:
442,353,58789,2,0,P|397:351|347:346,1,90,8|0,0:0|0:0,0:0:0:0:
219,230,59097,1,2,0:0:0:0:
269,332,59251,1,2,0:0:0:0:
298,154,59405,1,8,0:0:0:0:
108,225,59559,6,0,B|126:358|126:358|143:338|152:315,1,180,0|2,0:0|0:0,0:0:0:0:
165,133,60020,2,0,P|120:119|59:131,1,90,8|0,0:0|0:0,0:0:0:0:
219,230,60328,2,0,P|264:244|325:232,1,90,2|2,0:0|0:0,0:0:0:0:
257,50,60636,2,0,L|270:145,1,90,8|0,0:0|0:0,0:0:0:0:
425,208,60943,5,2,0:0:0:0:
298,154,61097,1,2,0:0:0:0:
489,107,61251,2,0,P|438:105|392:117,1,90,8|0,0:0|0:0,0:0:0:0:
313,254,61559,1,2,0:0:0:0:
269,139,61713,1,2,0:0:0:0:
225,319,61867,1,8,0:0:0:0:
270,169,62020,1,0,0:0:0:0:
378,332,62174,6,0,L|468:325,1,76.5000014591217,6|2,0:0|0:0,0:0:0:0:
492,163,62482,2,0,L|415:168,1,76.5000014591217,8|2,0:0|0:0,0:0:0:0:
313,254,62789,2,0,L|403:247,1,76.5000014591217,2|2,0:0|0:0,0:0:0:0:
427,85,63097,2,0,L|350:90,1,76.5000014591217,8|2,0:0|0:0,0:0:0:0:
85,237,63405,6,0,P|65:205|52:159,1,76.5000014591217,2|2,0:0|0:0,0:0:0:0:
207,89,63712,2,0,P|195:125|175:157,1,76.5000014591217,8|2,0:0|0:0,0:0:0:0:
61,261,64020,2,0,P|41:229|28:183,1,76.5000014591217,2|2,0:0|0:0,0:0:0:0:
264,181,64328,2,0,P|243:213|215:239,1,76.5000014591217,8|2,0:0|0:0,0:0:0:0:
33,84,64636,6,0,L|125:86,1,76.5000014591217,2|2,0:0|0:0,0:0:0:0:
375,42,64943,2,0,L|283:44,1,76.5000014591217,12|0,0:0|0:0,0:0:0:0:
160,158,65251,2,0,L|252:160,1,76.5000014591217,2|2,0:0|0:0,0:0:0:0:
502,116,65558,2,0,L|410:118,1,76.5000014591217,12|0,0:0|0:0,0:0:0:0:
432,284,65866,6,0,P|449:243|457:194,1,76.5000014591217,2|2,0:0|0:0,0:0:0:0:
170,288,66174,2,0,P|178:325|194:360,1,76.5000014591217,12|2,0:0|0:0,0:0:0:0:
236,128,66482,5,10,0:0:0:0:
225,157,66559,1,8,0:0:0:0:
228,188,66636,1,8,0:0:0:0:
240,216,66712,1,8,0:0:0:0:
255,243,66789,5,10,0:0:0:0:
266,276,66866,1,8,0:0:0:0:
264,311,66943,1,8,0:0:0:0:
250,343,67020,1,8,0:0:0:0:
218,372,67097,6,0,P|166:383|106:378,1,90,6|2,0:0|0:0,0:0:0:0:
32,228,67405,2,0,P|79:228|121:219,1,90,8|0,0:0|0:0,0:0:0:0:
169,70,67712,1,2,0:0:0:0:
136,190,67866,1,2,0:0:0:0:
310,101,68020,2,0,P|357:101|399:110,1,90,8|0,0:0|0:0,0:0:0:0:
381,257,68328,5,2,0:0:0:0:
505,200,68482,1,2,0:0:0:0:
332,183,68636,2,0,P|288:182|237:194,1,90,8|0,0:0|0:0,0:0:0:0:
279,342,68943,1,2,0:0:0:0:
141,297,69097,1,2,0:0:0:0:
306,261,69251,2,0,P|349:267|397:288,1,90,8|0,0:0|0:0,0:0:0:0:
449,355,69559,5,2,0:0:0:0:
449,355,69712,1,2,0:0:0:0:
482,176,69866,2,0,L|475:58,1,90,8|0,0:0|0:0,0:0:0:0:
368,33,70175,1,2,0:0:0:0:
387,153,70328,1,2,0:0:0:0:
262,17,70482,1,10,0:0:0:0:
320,219,70636,6,0,B|245:221|194:174|194:174|165:181|158:213,1,180,2|2,0:0|0:0,0:0:0:0:
154,357,71097,2,0,P|183:315|193:258,1,90,8|0,0:0|0:0,0:0:0:0:
89,173,71405,1,2,0:0:0:0:
89,173,71559,1,2,0:0:0:0:
278,68,71713,6,2,P|198:61|127:99,1,161.999995056153,10|0,0:0|2:0,0:0:0:0:
89,173,72020,6,0,L|93:262,1,90,2|2,0:0|0:0,0:0:0:0:
299,340,72328,2,0,L|294:250,1,90,8|0,0:0|0:0,0:0:0:0:
199,198,72635,1,2,0:0:0:0:
199,198,72789,1,2,0:0:0:0:
407,282,72943,2,0,L|402:192,1,90,8|0,0:0|0:0,0:0:0:0:
307,140,73251,5,2,0:0:0:0:
307,140,73405,1,2,0:0:0:0:
485,62,73559,2,0,P|437:67|388:93,1,90,8|0,0:0|0:0,0:0:0:0:
325,162,73866,1,2,0:0:0:0:
325,162,74020,1,2,0:0:0:0:
228,33,74174,2,0,P|276:38|325:64,1,90,8|0,0:0|0:0,0:0:0:0:
341,186,74481,5,2,0:0:0:0:
341,186,74635,1,2,0:0:0:0:
155,132,74789,1,8,0:0:0:0:
263,221,74943,1,0,0:0:0:0:
82,248,75097,5,2,0:0:0:0:
125,111,75251,1,2,0:0:0:0:
173,325,75404,1,8,0:0:0:0:
187,152,75559,1,0,0:0:0:0:
296,303,75712,6,0,P|346:300|391:290,1,90,2|2,0:0|0:0,0:0:0:0:
354,70,76020,1,8,0:0:0:0:
429,169,76174,1,8,0:0:0:0:
429,169,76251,1,8,0:0:0:0:
429,169,76328,5,8,0:0:0:0:
263,221,76482,1,8,0:0:0:0:
354,70,76636,1,8,0:0:0:0:
490,261,76789,1,8,0:0:0:0:
277,131,76943,6,0,L|171:123,1,72,8|2,0:0|0:0,0:0:0:0:
215,27,77251,2,0,P|177:31|116:44,1,72,0|2,0:0|0:0,0:0:0:0:
57,109,77559,2,0,P|65:165|73:193,1,72,0|2,0:0|0:0,0:0:0:0:
68,179,77789,1,2,0:0:0:0:
68,179,77866,1,12,2:0:0:0:
247,244,78020,6,0,P|209:237|171:234,1,72,4|0,3:0|0:0,0:0:0:0:
90,289,78328,1,2,0:0:0:0:
206,341,78482,2,0,L|285:341,1,72,0|2,0:0|0:0,0:0:0:0:
338,179,78789,1,8,0:0:0:0:
361,280,78943,1,2,0:0:0:0:
423,92,79097,1,8,0:0:0:0:
386,86,79174,1,8,0:0:0:0:
350,92,79251,1,8,0:0:0:0:
311,103,79328,1,8,0:0:0:0:
281,124,79405,6,0,P|243:138|199:138,1,72,8|2,0:0|0:0,0:0:0:0:
152,63,79712,2,0,L|60:68,1,72,0|2,0:0|0:0,0:0:0:0:
27,153,80020,1,0,0:0:0:0:
51,55,80174,1,2,0:0:0:0:
84,232,80327,1,8,0:0:0:0:
212,251,80482,6,0,P|218:215|220:180,1,72,4|0,3:0|0:0,0:0:0:0:
141,322,80789,1,2,0:0:0:0:
267,327,80943,2,0,L|350:337,1,72,0|2,0:0|0:0,0:0:0:0:
418,157,81251,1,8,0:0:0:0:
437,274,81405,1,2,0:0:0:0:
325,94,81559,1,8,0:0:0:0:
323,130,81636,1,8,0:0:0:0:
321,165,81713,1,8,0:0:0:0:
318,200,81790,1,8,0:0:0:0:
316,235,81866,6,0,L|222:245,1,72,8|2,0:0|0:0,0:0:0:0:
172,340,82174,2,0,P|208:346|243:348,1,72,0|2,0:0|0:0,0:0:0:0:
79,269,82482,2,0,L|73:191,1,72,0|2,0:0|0:0,0:0:0:0:
192,49,82789,5,8,0:0:0:0:
192,49,82943,1,2,0:0:0:0:
66,111,83097,1,0,0:0:0:0:
66,111,83251,1,2,0:0:0:0:
218,33,83405,1,0,0:0:0:0:
218,33,83559,1,2,0:0:0:0:
95,96,83712,5,8,0:0:0:0:
226,149,83866,1,2,0:0:0:0:
65,245,84020,1,8,0:0:0:0:
81,213,84097,1,8,0:0:0:0:
111,193,84174,1,8,0:0:0:0:
146,189,84251,1,8,0:0:0:0:
175,209,84328,6,0,P|202:224|258:218,1,72,8|2,0:0|0:0,0:0:0:0:
320,153,84636,2,0,P|355:150|389:162,1,72,0|2,0:0|0:0,0:0:0:0:
485,220,84943,1,0,0:0:0:0:
381,266,85097,1,2,0:0:0:0:
471,113,85251,1,8,0:0:0:0:
430,329,85405,6,0,P|386:311|323:325,1,108,8|0,3:0|2:0,0:0:0:0:
265,364,85712,6,0,P|216:336|143:344,1,108,8|0,3:0|2:0,0:0:0:0:
96,369,86020,5,4,0:3:0:0:
133,267,86174,1,4,0:3:0:0:
166,164,86328,1,2,0:0:0:0:
290,247,86482,2,0,P|253:248|197:226,1,72,8|2,0:0|0:0,0:0:0:0:
85,124,86789,5,6,0:0:0:0:
179,133,86943,1,0,0:0:0:0:
273,143,87097,1,8,0:0:0:0:
86,151,87251,5,2,0:0:0:0:
178,133,87405,1,0,0:0:0:0:
271,115,87559,1,2,0:0:0:0:
148,223,87712,1,8,0:0:0:0:
211,43,87866,6,0,P|276:31|343:39,1,125.999996154785,2|2,0:0|0:0,0:0:0:0:
360,205,88328,1,8,0:0:0:0:
425,112,88482,1,0,0:0:0:0:
454,237,88636,2,0,P|417:234|371:229,1,62.9999980773926,2|2,0:0|0:0,0:0:0:0:
277,335,88943,2,0,P|313:332|360:327,1,62.9999980773926,8|0,0:0|0:0,0:0:0:0:
256,224,89251,5,2,0:0:0:0:
161,233,89405,1,0,0:0:0:0:
80,282,89559,1,8,0:0:0:0:
249,196,89712,5,2,0:0:0:0:
161,233,89866,1,0,0:0:0:0:
99,305,90020,1,2,0:0:0:0:
172,137,90174,1,8,0:0:0:0:
242,291,90328,6,0,P|304:298|382:281,1,125.999996154785,2|2,0:0|0:0,0:0:0:0:
425,102,90790,1,8,0:0:0:0:
491,177,90944,1,0,0:0:0:0:
396,199,91097,2,0,P|361:196|314:187,1,62.9999980773926,2|2,0:0|0:0,0:0:0:0:
292,46,91405,2,0,P|257:49|210:58,1,62.9999980773926,8|0,0:0|0:0,0:0:0:0:
155,149,91712,5,2,0:0:0:0:
99,56,91866,1,0,0:0:0:0:
60,238,92020,1,8,0:0:0:0:
44,141,92174,1,2,0:0:0:0:
164,248,92328,2,0,P|195:251|247:252,1,62.9999980773926,0|2,0:0|0:0,0:0:0:0:
398,170,92636,1,8,0:0:0:0:
297,223,92789,1,2,0:0:0:0:
425,277,92943,5,0,0:0:0:0:
326,236,93098,1,2,0:0:0:0:
452,80,93251,1,8,0:0:0:0:
398,170,93405,1,0,0:0:0:0:
305,128,93559,2,0,L|219:130,1,62.9999980773926,2|2,0:0|0:0,0:0:0:0:
125,212,93866,2,0,L|211:210,1,62.9999980773926,8|0,0:0|0:0,0:0:0:0:
271,310,94174,6,0,P|239:314|198:315,1,62.9999980773926,2|0,0:0|0:0,0:0:0:0:
107,187,94482,1,8,0:0:0:0:
5,277,94636,2,0,P|66:287|131:289,1,125.999996154785,2|2,0:0|0:0,0:0:0:0:
241,152,95097,2,0,L|324:161,1,62.9999980773926,8|2,0:0|0:0,0:0:0:0:
356,238,95405,6,0,L|442:231,1,62.9999980773926,0|2,0:0|0:0,0:0:0:0:
257,130,95712,2,0,L|340:139,1,62.9999980773926,8|2,0:0|0:0,0:0:0:0:
396,57,96020,1,2,0:0:0:0:
438,152,96174,1,2,0:0:0:0:
208,52,96328,2,0,L|103:64,1,94.499997116089,8|0,0:0|2:0,0:0:0:0:
103,74,96636,5,4,0:0:0:0:
307,197,102789,5,8,0:0:0:0:
307,197,102866,1,8,0:0:0:0:
307,197,102943,2,0,L|313:260,1,45,2|2,0:0|0:0,0:0:0:0:
412,326,103097,5,10,0:0:0:0:
155,279,103251,1,10,0:0:0:0:
489,101,103558,1,2,2:0:0:0:
61,117,103866,6,0,B|72:265|72:265|80:236|103:210,1,198.000006042481,6|2,0:0|0:0,0:0:0:0:
189,40,104328,2,0,L|198:147,1,99.0000030212403,8|2,0:0|0:0,0:0:0:0:
314,347,104636,2,0,L|305:240,1,99.0000030212403,8|2,0:0|0:0,0:0:0:0:
318,43,104943,1,8,0:0:0:0:
230,119,105097,1,2,0:0:0:0:
230,119,105174,1,2,0:0:0:0:
230,119,105251,5,12,0:0:0:0:
339,153,105404,1,2,0:0:0:0:
127,233,105558,2,0,P|174:233|232:225,1,99.0000030212403,8|2,0:0|0:0,0:0:0:0:
411,89,105866,5,8,0:3:0:0:
373,240,106020,1,2,0:3:0:0:
318,43,106174,1,8,0:3:0:0:
456,249,106327,1,2,0:3:0:0:
443,276,106404,1,2,0:0:0:0:
427,301,106482,6,4,P|381:320|320:301,1,99.0000030212403,12|2,0:0|0:0,0:0:0:0:
96,81,106789,2,0,L|103:186,1,99.0000030212403,8|2,0:0|0:0,0:0:0:0:
229,352,107097,2,0,L|222:247,1,99.0000030212403,8|2,0:0|0:0,0:0:0:0:
208,98,107405,1,8,0:0:0:0:
219,222,107558,1,2,0:0:0:0:
219,222,107635,1,2,0:0:0:0:
219,222,107712,5,12,0:0:0:0:
104,164,107866,1,2,0:0:0:0:
305,115,108020,2,0,P|353:115|410:123,1,99.0000030212403,8|2,0:0|0:0,0:0:0:0:
381,305,108327,5,8,0:3:0:0:
430,134,108482,1,2,0:3:0:0:
494,328,108636,1,8,0:3:0:0:
327,198,108789,1,2,0:3:0:0:
300,211,108866,1,2,0:0:0:0:
273,225,108943,6,0,P|225:227|160:223,1,99.0000030212403,12|2,0:0|0:0,0:0:0:0:
87,55,109251,5,8,0:0:0:0:
87,55,109404,1,2,0:0:0:0:
73,193,109558,1,8,0:0:0:0:
73,193,109711,1,0,0:0:0:0:
185,36,109866,1,8,0:0:0:0:
162,221,110019,1,2,0:0:0:0:
174,248,110097,1,2,0:0:0:0:
188,273,110174,6,0,P|242:275|294:263,1,99.0000030212403,12|2,0:0|0:0,0:0:0:0:
455,152,110482,2,0,P|406:142|357:144,1,99.0000030212403,8|2,0:0|0:0,0:0:0:0:
260,358,110789,2,0,P|312:345|359:320,1,99.0000030212403,8|2,0:0|0:0,0:0:0:0:
393,58,111097,2,0,P|343:61|296:76,1,99.0000030212403,8|2,0:0|0:0,0:0:0:0:
269,98,111327,1,2,0:0:0:0:
269,98,111404,5,12,0:0:0:0:
314,224,111558,1,2,0:0:0:0:
165,135,111712,5,8,0:0:0:0:
327,186,111866,1,2,0:0:0:0:
97,215,112020,5,12,0:0:0:0:
342,153,112174,1,2,0:0:0:0:
233,367,112327,5,12,0:0:0:0:
68,127,112481,1,2,0:0:0:0:
79,105,112558,1,2,0:0:0:0:
91,83,112635,6,0,L|190:85,1,99.0000030212403,12|2,0:0|0:0,0:0:0:0:
357,119,112943,1,12,0:0:0:0:
222,175,113097,2,0,L|164:180,2,49.5000015106202,8|8|14,0:0|0:0|0:0,0:0:0:0:
405,231,113404,1,2,0:0:0:0:
267,94,113558,1,8,0:0:0:0:
475,53,113712,6,0,B|492:115|463:154|463:154|495:180|500:218,1,180,6|2,0:0|0:0,0:0:0:0:
320,257,114174,2,0,P|360:238|405:231,1,90,8|0,0:0|0:0,0:0:0:0:
483,350,114482,2,0,P|442:335|385:334,1,90,2|2,0:0|0:0,0:0:0:0:
196,361,114789,2,0,L|191:252,1,90,8|0,0:0|0:0,0:0:0:0:
144,142,115097,5,2,0:0:0:0:
270,180,115251,1,2,0:0:0:0:
95,336,115405,2,0,L|90:227,1,90,8|0,0:0|0:0,0:0:0:0:
166,113,115712,1,2,0:0:0:0:
92,213,115866,1,2,0:0:0:0:
52,47,116020,1,8,0:0:0:0:
247,157,116174,6,0,B|375:131|375:131|437:149,1,180,0|2,0:0|0:0,0:0:0:0:
376,326,116635,2,0,P|366:265|365:216,1,90,8|0,0:0|0:0,0:0:0:0:
503,181,116943,2,0,P|499:225|491:270,1,90,2|2,0:0|0:0,0:0:0:0:
273,362,117251,2,0,P|261:319|254:275,1,90,8|0,0:0|0:0,0:0:0:0:
273,148,117558,5,2,0:0:0:0:
342,240,117712,1,2,0:0:0:0:
167,197,117866,2,0,P|119:197|70:207,1,90,8|0,0:0|0:0,0:0:0:0:
42,301,118174,1,2,0:0:0:0:
64,177,118328,1,2,0:0:0:0:
193,331,118482,1,8,0:0:0:0:
154,228,118635,1,0,0:0:0:0:
367,236,118789,6,0,P|365:274|351:327,1,76.5000014591217,6|2,0:0|0:0,0:0:0:0:
254,138,119097,2,0,P|256:176|264:213,1,76.5000014591217,8|0,0:0|0:0,0:0:0:0:
451,294,119405,2,0,P|442:331|419:380,1,76.5000014591217,2|2,0:0|0:0,0:0:0:0:
167,197,119712,2,0,P|175:234|190:269,1,76.5000014591217,8|0,0:0|0:0,0:0:0:0:
430,133,120020,6,0,L|336:138,1,76.5000014591217,2|2,0:0|0:0,0:0:0:0:
215,43,120328,2,0,L|291:38,1,76.5000014591217,8|0,0:0|0:0,0:0:0:0:
483,209,120636,2,0,L|389:214,1,76.5000014591217,2|2,0:0|0:0,0:0:0:0:
175,126,120943,2,0,L|251:121,1,76.5000014591217,8|0,0:0|0:0,0:0:0:0:
144,344,121251,6,0,P|133:300|135:240,1,76.5000014591217,2|2,0:0|0:0,0:0:0:0:
280,113,121559,2,0,P|291:157|289:217,1,76.5000014591217,12|2,0:0|0:0,0:0:0:0:
236,347,121866,2,0,P|221:304|217:244,1,76.5000014591217,2|2,0:0|0:0,0:0:0:0:
363,83,122174,2,0,P|377:125|381:185,1,76.5000014591217,12|2,0:0|0:0,0:0:0:0:
117,320,122482,5,8,0:0:0:0:
261,230,122636,1,8,0:0:0:0:
100,149,122789,1,8,0:0:0:0:
270,62,122943,1,8,0:0:0:0:
65,66,123097,5,8,0:0:0:0:
294,142,123251,1,8,0:0:0:0:
82,238,123405,1,8,0:0:0:0:
287,317,123559,1,8,0:0:0:0:
188,175,123712,6,0,B|191:143|191:143|181:106,1,58.4999973220826,12|2,0:0|0:0,0:0:0:0:
170,98,124174,1,2,0:0:0:0:
158,77,124482,1,2,0:0:0:0:
287,35,124636,6,0,B|312:45|312:45|352:47,1,58.4999973220826,8|2,0:0|0:0,0:0:0:0:
366,45,125098,1,2,0:0:0:0:
389,45,125406,1,2,0:0:0:0:
430,217,125559,5,8,0:0:0:0:
485,115,125712,1,2,0:0:0:0:
500,283,125866,1,8,0:0:0:0:
489,293,125943,1,8,0:0:0:0:
477,301,126020,1,8,0:0:0:0:
463,307,126097,1,8,0:0:0:0:
451,312,126174,6,0,P|413:293|353:296,1,76.5000014591217,2|2,0:0|0:0,0:0:0:0:
157,291,126482,2,0,P|194:295|228:312,1,76.5000014591217,8|2,0:0|0:0,0:0:0:0:
287,373,126789,1,2,0:0:0:0:
287,373,126943,1,2,0:0:0:0:
295,228,127097,2,0,L|286:143,1,76.5000014591217,8|2,0:0|0:0,0:0:0:0:
309,70,127404,5,2,0:0:0:0:
309,70,127558,1,2,0:0:0:0:
174,158,127712,2,0,P|136:153|102:136,1,76.5000014591217,8|2,0:0|0:0,0:0:0:0:
48,71,128019,1,2,0:0:0:0:
48,71,128173,1,2,0:0:0:0:
75,230,128328,2,0,L|66:306,1,76.5000014591217,8|2,0:0|0:0,0:0:0:0:
232,271,128636,6,0,B|271:255|271:255|296:264,1,58.4999973220826,8|2,0:0|0:0,0:0:0:0:
305,273,129098,1,2,0:0:0:0:
324,286,129406,1,2,0:0:0:0:
466,167,129559,6,0,B|427:151|427:151|402:160,1,58.4999973220826,8|2,0:0|0:0,0:0:0:0:
393,169,130021,1,2,0:0:0:0:
374,182,130329,1,2,0:0:0:0:
228,89,130483,5,8,0:0:0:0:
356,80,130636,1,2,0:0:0:0:
167,25,130789,1,8,0:0:0:0:
157,36,130866,1,8,0:0:0:0:
149,48,130943,1,8,0:0:0:0:
143,61,131020,1,8,0:0:0:0:
140,74,131097,6,0,P|163:110|162:161,1,76.5000014591217,2|2,0:0|0:0,0:0:0:0:
64,304,131405,2,0,L|68:218,1,76.5000014591217,8|2,0:0|0:0,0:0:0:0:
73,143,131712,1,2,0:0:0:0:
73,143,131866,1,2,0:0:0:0:
165,267,132020,2,0,P|203:261|249:249,1,76.5000014591217,8|2,0:0|0:0,0:0:0:0:
301,194,132327,5,2,0:0:0:0:
301,194,132481,1,2,0:0:0:0:
440,329,132636,2,0,P|401:323|356:311,1,76.5000014591217,8|2,0:0|0:0,0:0:0:0:
263,270,132943,1,2,0:0:0:0:
407,187,133097,1,8,0:0:0:0:
224,108,133251,1,8,0:0:0:0:
197,353,133405,6,0,B|165:341|121:342|121:342|68:303|89:228,1,180,6|2,0:0|0:0,0:0:0:0:
216,20,133866,2,0,B|228:49|228:49|223:117,1,90,8|0,0:0|0:0,0:0:0:0:
26,182,134174,2,0,B|81:161|81:161|110:170,1,90,2|2,0:0|0:0,0:0:0:0:
263,270,134482,1,8,0:0:0:0:
123,289,134636,1,0,0:0:0:0:
236,369,134789,6,0,B|296:369|296:369|331:358,1,90,2|2,0:0|0:0,0:0:0:0:
322,168,135097,1,8,0:0:0:0:
445,239,135251,2,0,B|385:239|385:239|350:250,1,90,0|2,0:0|0:0,0:0:0:0:
476,326,135559,1,2,0:0:0:0:
452,110,135712,2,0,P|387:101|331:137,1,135,8|0,0:0|2:0,0:0:0:0:
322,168,136020,6,0,B|262:193|262:193|217:191,1,90,2|2,0:0|0:0,0:0:0:0:
0,172,136328,2,0,B|59:146|59:146|104:148,1,90,8|0,0:0|0:0,0:0:0:0:
276,281,136636,6,0,B|215:256|215:256|185:223,1,90,2|2,0:0|0:0,0:0:0:0:
44,57,136944,2,0,B|104:81|104:81|134:114,1,90,8|0,0:0|0:0,0:0:0:0:
163,331,137251,6,0,B|137:271|137:271|139:226,1,90,2|2,0:0|0:0,0:0:0:0:
158,9,137559,2,0,B|183:68|183:68|181:113,1,90,8|0,0:0|0:0,0:0:0:0:
48,285,137866,6,0,B|72:224|72:224|105:194,1,90,2|2,0:0|0:0,0:0:0:0:
272,54,138174,2,0,B|247:114|247:114|214:144,1,90,8|0,0:0|0:0,0:0:0:0:
26,84,138482,6,0,L|139:94,1,90,2|2,0:0|0:0,0:0:0:0:
226,230,138789,2,0,B|283:229|283:229|336:220,1,90,8|0,0:0|0:0,0:0:0:0:
391,130,139097,1,2,0:0:0:0:
444,242,139251,1,2,0:0:0:0:
491,57,139405,2,0,B|443:44|443:44|400:42,1,90,8|0,0:0|0:0,0:0:0:0:
291,77,139712,5,2,0:0:0:0:
291,77,139866,1,2,0:0:0:0:
483,152,140020,1,8,0:0:0:0:
352,217,140174,2,0,B|313:211|313:211|257:217,1,90,0|2,0:0|0:0,0:0:0:0:
178,328,140482,1,2,0:0:0:0:
29,293,140636,2,0,P|129:290|173:321,1,135,8|0,0:0|2:0,0:0:0:0:
178,328,140943,6,0,B|225:334|225:334|271:325,1,90,0|0,0:0|0:0,0:0:0:0:
475,250,141251,2,0,B|428:256|428:256|382:247,1,90,8|0,0:0|0:0,0:0:0:0:
166,295,141559,6,0,B|223:303|223:303|264:296,1,90,0|0,0:0|0:0,0:0:0:0:
482,223,141867,2,0,B|428:231|428:231|388:222,1,90,8|0,0:0|0:0,0:0:0:0:
153,263,142174,6,0,B|223:273|223:273|252:268,1,90,0|0,0:0|0:0,0:0:0:0:
492,193,142482,2,0,B|428:203|428:203|394:195,1,90,8|0,0:0|0:0,0:0:0:0:
139,232,142789,6,0,B|220:245|220:245|237:241,1,90,0|0,0:0|0:0,0:0:0:0:
498,166,143097,2,0,B|426:176|426:176|399:168,1,90,8|0,0:0|0:0,0:0:0:0:
263,39,143405,6,2,B|315:202|315:202|304:152|326:120,1,256.368111895042,2|6,2:0|0:0,0:0:0:0:
74,80,154174,6,0,L|83:138,1,48.0690209803204,0|0,2:0|2:0,0:0:0:0:
116,287,154482,6,0,B|82:132|82:132|46:208,1,225,6|8,0:0|0:0,0:0:0:0:
39,338,154943,1,0,0:0:0:0:
193,239,155097,2,0,L|167:129,1,112.5,2|0,0:0|0:0,0:0:0:0:
456,143,155405,2,0,P|389:157|296:94,1,168.75,8|0,0:0|2:0,0:0:0:0:
283,33,155712,6,8,B|271:185|271:185|291:220|277:271,1,225,6|8,0:0|0:0,0:0:0:0:
160,349,156173,1,0,0:0:0:0:
88,199,156328,2,0,P|143:213|208:251,1,112.5,2|0,0:0|0:0,0:0:0:0:
426,331,156636,2,0,L|243:342,1,168.75,8|0,0:0|2:0,0:0:0:0:
125,335,156943,6,8,B|262:342|262:342|305:315|297:255,1,225,6|8,0:0|0:0,0:0:0:0:
248,137,157404,1,0,0:0:0:0:
379,184,157559,2,0,L|494:186,1,112.5,2|0,0:0|0:0,0:0:0:0:
190,30,157866,2,0,P|210:100|187:202,1,168.75,8|0,0:0|2:0,0:0:0:0:
109,240,158174,6,8,B|284:215|284:215|327:245,1,225,6|8,0:0|0:0,0:0:0:0:
412,331,158636,1,0,0:0:0:0:
258,302,158789,2,0,L|146:318,1,112.5,2|0,0:0|0:0,0:0:0:0:
53,118,159097,1,8,0:0:0:0:
109,240,159251,1,0,0:0:0:0:
259,25,159405,6,8,B|177:35|177:35|117:108|182:183,1,225,6|8,0:0|0:0,0:0:0:0:
259,263,159866,1,0,0:0:0:0:
351,95,160020,2,8,P|292:106|239:108,1,112.5,2|0,0:0|0:0,0:0:0:0:
44,199,160328,2,8,P|103:210|155:212,1,112.5,8|0,0:0|0:0,0:0:0:0:
401,176,160636,5,8,0:0:0:0:
401,176,160712,1,8,0:0:0:0:
401,176,160789,2,0,P|396:204|383:235,1,56.25,2|2,0:0|0:0,0:0:0:0:
340,327,160943,5,8,0:0:0:0:
305,166,161097,1,8,0:0:0:0:
210,353,161251,1,8,0:0:0:0:
214,139,161405,1,8,0:0:0:0:
81,306,161559,1,8,0:0:0:0:
56,75,161712,6,0,B|128:98|185:63|185:63|226:49|267:72,1,207.000003948212,6|2,0:0|0:0,0:0:0:0:
247,251,162174,2,0,P|194:264|140:260,1,103.500001974106,8|2,0:0|0:0,0:0:0:0:
0,148,162482,2,0,P|49:170|103:176,1,103.500001974106,8|2,0:0|0:0,0:0:0:0:
256,66,162790,1,8,0:0:0:0:
209,166,162944,1,2,0:0:0:0:
209,166,163021,1,2,0:0:0:0:
209,166,163098,5,12,0:0:0:0:
155,73,163251,1,2,0:0:0:0:
314,147,163405,2,0,L|419:134,1,103.500001974106,8|2,0:0|0:0,0:0:0:0:
346,32,163713,5,8,0:3:0:0:
378,229,163867,1,2,0:3:0:0:
365,9,164021,1,8,0:3:0:0:
278,232,164174,1,2,0:3:0:0:
297,256,164251,1,2,0:0:0:0:
318,278,164328,6,4,P|321:331|303:386,1,103.500001974106,12|2,0:0|0:0,0:0:0:0:
20,182,164636,2,0,P|66:203|117:210,1,103.500001974106,8|2,0:0|0:0,0:0:0:0:
236,313,164944,2,0,P|186:326|134:323,1,103.500001974106,8|2,0:0|0:0,0:0:0:0:
114,106,165252,1,8,0:0:0:0:
187,196,165405,1,2,0:0:0:0:
187,196,165482,1,2,0:0:0:0:
187,196,165559,5,12,0:0:0:0:
119,293,165713,1,2,0:0:0:0:
135,82,165866,2,0,L|240:90,1,103.500001974106,8|2,0:0|0:0,0:0:0:0:
325,230,166174,5,8,0:3:0:0:
333,28,166329,1,2,0:3:0:0:
212,173,166483,1,8,0:3:0:0:
430,109,166636,1,2,0:3:0:0:
437,139,166713,1,2,0:0:0:0:
444,169,166790,6,0,L|438:292,1,103.500001974106,12|2,0:0|0:0,0:0:0:0:
279,335,167098,5,8,0:0:0:0:
279,335,167251,1,2,0:0:0:0:
436,303,167405,1,8,0:0:0:0:
436,303,167558,1,2,0:0:0:0:
325,230,167713,1,8,0:0:0:0:
263,361,167866,1,2,0:0:0:0:
232,353,167944,1,2,0:0:0:0:
202,342,168021,6,0,L|97:350,1,103.500001974106,12|2,0:0|0:0,0:0:0:0:
8,153,168328,2,0,L|111:145,1,103.500001974106,8|2,0:0|0:0,0:0:0:0:
291,246,168636,2,0,L|186:254,1,103.500001974106,8|2,0:0|0:0,0:0:0:0:
97,57,168943,2,0,L|200:49,1,103.500001974106,8|2,0:0|0:0,0:0:0:0:
226,66,169174,1,2,0:0:0:0:
226,66,169251,5,12,0:0:0:0:
195,236,169405,1,2,0:0:0:0:
356,130,169559,5,8,0:0:0:0:
174,211,169713,1,2,0:0:0:0:
374,227,169867,5,12,0:0:0:0:
148,133,170021,1,2,0:0:0:0:
440,165,170174,5,12,0:0:0:0:
93,196,170328,1,2,0:0:0:0:
84,225,170405,1,2,0:0:0:0:
76,255,170482,6,0,P|111:301|163:313,1,103.500001974106,12|2,0:0|0:0,0:0:0:0:
234,145,170790,1,12,0:0:0:0:
324,231,170943,2,0,L|384:226,2,51.7500009870529,8|8|14,0:0|0:0|0:0,0:0:0:0:
195,236,171251,1,2,0:0:0:0:
344,126,171405,1,8,0:0:0:0:
459,334,171559,6,0,B|473:239|473:239|458:182|397:182,1,180,6|2,0:0|0:0,0:0:0:0:
212,349,172021,2,0,P|257:347|300:334,1,90,8|0,0:0|0:0,0:0:0:0:
387,257,172328,2,0,P|346:242|289:241,1,90,2|2,0:0|0:0,0:0:0:0:
116,297,172636,2,0,P|99:251|91:195,1,90,8|0,0:0|0:0,0:0:0:0:
203,130,172944,5,2,0:0:0:0:
75,93,173098,1,2,0:0:0:0:
240,49,173252,2,0,L|350:60,1,90,8|0,0:0|0:0,0:0:0:0:
285,199,173559,1,2,0:0:0:0:
346,72,173713,1,2,0:0:0:0:
445,224,173867,1,8,0:0:0:0:
450,33,174021,6,0,B|456:104|413:144|413:144|451:131|497:151,1,180,0|2,0:0|0:0,0:0:0:0:
342,235,174482,2,0,P|302:238|237:269,1,90,8|2,0:0|0:0,0:0:0:0:
102,297,174789,2,0,P|141:300|207:331,1,90,2|2,0:0|0:0,0:0:0:0:
140,163,175098,2,0,L|152:72,1,90,8|0,0:0|0:0,0:0:0:0:
273,33,175405,5,2,0:0:0:0:
251,145,175559,1,2,0:0:0:0:
56,221,175713,2,0,P|46:177|46:124,1,90,8|0,0:0|0:0,0:0:0:0:
171,64,176020,1,2,0:0:0:0:
149,176,176174,1,2,0:0:0:0:
285,22,176328,1,8,0:0:0:0:
263,134,176482,1,0,0:0:0:0:
408,42,176636,6,0,L|495:53,1,76.5000014591217,6|2,0:0|0:0,0:0:0:0:
479,252,176943,2,0,L|404:243,1,76.5000014591217,8|2,0:0|0:0,0:0:0:0:
355,143,177251,2,0,L|430:152,1,76.5000014591217,2|2,0:0|0:0,0:0:0:0:
426,353,177558,2,0,L|351:344,1,76.5000014591217,8|2,0:0|0:0,0:0:0:0:
88,321,177866,6,0,L|83:245,1,76.5000014591217,2|2,0:0|0:0,0:0:0:0:
240,199,178174,2,0,L|234:275,1,76.5000014591217,8|2,0:0|0:0,0:0:0:0:
58,300,178482,2,0,L|53:224,1,76.5000014591217,2|2,0:0|0:0,0:0:0:0:
266,180,178789,2,0,L|260:256,1,76.5000014591217,8|2,0:0|0:0,0:0:0:0:
227,330,179020,1,2,0:0:0:0:
227,330,179098,6,0,P|277:307|361:332,1,107.999996704102,12|2,0:0|0:0,0:0:0:0:
406,229,179405,6,0,L|413:133,1,76.5000014591217,0|2,0:0|0:0,0:0:0:0:
445,79,179636,1,2,0:0:0:0:
445,79,179712,6,0,P|395:102|311:77,1,107.999996704102,12|2,0:0|0:0,0:0:0:0:
232,40,180020,6,0,P|187:32|136:48,1,76.5000014591217,0|2,0:0|0:0,0:0:0:0:
94,92,180251,1,2,0:0:0:0:
94,92,180328,6,0,L|98:194,1,76.5000014591217,8|2,0:0|0:0,0:0:0:0:
153,356,180636,6,0,L|157:308,1,45,10|0,0:0|2:0,0:0:0:0:
34,291,180789,2,0,L|30:246,1,45,10|0,0:0|2:0,0:0:0:0:
93,181,180943,5,0,2:0:0:0:
93,181,181251,5,0,2:0:0:0:
93,181,181559,5,8,0:0:0:0:
119,178,181636,1,0,0:0:0:0:
145,183,181712,1,0,0:0:0:0:
166,199,181789,1,0,0:0:0:0:
180,221,181866,1,8,0:0:0:0:
187,246,181943,1,0,0:0:0:0:
187,273,182020,1,0,0:0:0:0:
177,298,182097,1,0,0:0:0:0:
161,320,182174,5,8,0:0:0:0:
188,342,182251,1,0,0:0:0:0:
224,341,182328,1,0,0:0:0:0:
256,326,182405,1,0,0:0:0:0:
278,298,182482,2,0,L|286:241,1,45,8|0,0:0|0:0,0:0:0:0:
173,119,182636,2,0,L|181:176,1,45,0|0,0:0|0:0,0:0:0:0:
259,160,182789,6,0,L|363:154,1,90,6|2,0:0|0:0,0:0:0:0:
475,250,183097,2,0,P|430:250|358:245,1,90,8|0,0:0|0:0,0:0:0:0:
363,128,183405,1,2,0:0:0:0:
471,162,183558,1,2,0:0:0:0:
382,27,183712,2,0,P|337:32|265:48,1,90,8|0,0:0|0:0,0:0:0:0:
242,135,184020,5,2,0:0:0:0:
183,34,184173,1,2,0:0:0:0:
64,105,184328,2,0,P|109:110|181:126,1,90,8|0,0:0|0:0,0:0:0:0:
199,225,184636,1,2,0:0:0:0:
96,201,184789,1,2,0:0:0:0:
193,331,184943,2,0,P|238:326|310:310,1,90,8|0,0:0|0:0,0:0:0:0:
357,214,185251,5,2,0:0:0:0:
404,316,185404,1,2,0:0:0:0:
476,160,185559,2,0,L|469:41,1,90,8|0,0:0|0:0,0:0:0:0:
396,132,185866,1,2,0:0:0:0:
442,240,186019,1,0,0:0:0:0:
313,107,186174,1,8,0:0:0:0:
376,305,186328,6,0,P|305:285|202:324,1,180,2|2,0:0|0:0,0:0:0:0:
38,252,186789,2,0,P|99:258|146:280,1,90,8|0,0:0|0:0,0:0:0:0:
188,343,187097,1,2,0:0:0:0:
203,216,187251,1,2,0:0:0:0:
22,169,187405,6,2,P|102:171|178:197,1,161.999995056153,10|0,0:0|2:0,0:0:0:0:
203,216,187713,5,2,0:0:0:0:
203,216,187867,1,2,0:0:0:0:
329,55,188020,2,0,L|334:153,1,90,8|0,0:0|0:0,0:0:0:0:
343,231,188328,1,2,0:0:0:0:
343,231,188482,1,2,0:0:0:0:
217,40,188636,2,0,L|212:138,1,90,8|0,0:0|0:0,0:0:0:0:
203,216,188943,5,2,0:0:0:0:
203,216,189097,1,2,0:0:0:0:
345,280,189251,2,0,P|382:279|449:261,1,90,8|0,0:0|0:0,0:0:0:0:
509,206,189558,1,2,0:0:0:0:
509,206,189712,1,2,0:0:0:0:
422,360,189866,2,0,P|373:367|310:361,1,90,8|0,0:0|0:0,0:0:0:0:
253,298,190174,5,2,0:0:0:0:
253,298,190328,1,2,0:0:0:0:
105,350,190482,2,0,L|94:230,1,90,8|0,0:0|0:0,0:0:0:0:
47,184,190789,1,2,0:0:0:0:
47,184,190943,1,2,0:0:0:0:
195,236,191097,2,0,L|206:116,1,90,8|0,0:0|0:0,0:0:0:0:
186,115,191328,1,8,0:0:0:0:
186,115,191405,5,8,0:0:0:0:
361,49,191559,1,8,0:0:0:0:
130,42,191712,1,8,0:0:0:0:
300,114,191866,1,8,0:0:0:0:
124,180,192020,1,8,0:0:0:0:
389,275,192174,6,0,P|370:212|387:130,1,144,6|2,0:0|0:0,0:0:0:0:
444,346,192636,5,4,0:0:0:0:
256,192,192789,12,0,197559,2:0:0:0:
