osu file format v14

[General]
AudioFilename: song.mp3
AudioLeadIn: 0
PreviewTime: 101943
Countdown: 0
SampleSet: Normal
StackLeniency: 0.7
Mode: 0
LetterboxInBreaks: 0
WidescreenStoryboard: 0

[Editor]
Bookmarks: 171097
DistanceSpacing: 1.5
BeatDivisor: 4
GridSize: 4
TimelineZoom: 0.6999987

[Metadata]
Title:Mikansei Koukyoukyoku
TitleUnicode:未完成交響曲
Artist:ONE OK ROCK
ArtistUnicode:ONE OK ROCK
Creator:Saut
Version:Collab Hard
Source:
Tags:milan- pkhg Nicheシンドローム niche syndrome unfinished symphony taka toru ryota tomoya
BeatmapID:792948
BeatmapSetID:348604

[Difficulty]
HPDrainRate:5.8
CircleSize:3.8
OverallDifficulty:6.5
ApproachRate:8.1
SliderMultiplier:1.4
SliderTickRate:1

[Events]
//Background and Video events
0,0,"bg.jpg",0,0
//Break Periods
2,40219,45440
2,68528,76209
2,96835,102055
2,144836,153440
//Storyboard Layer 0 (Background)
//Storyboard Layer 1 (Fail)
//Storyboard Layer 2 (Pass)
//Storyboard Layer 3 (Foreground)
//Storyboard Sound Samples

[TimingPoints]
636,307.692307692308,4,1,1,60,1,0
2636,-100,4,1,1,35,0,0
3097,-100,4,1,1,60,0,0
5482,-100,4,1,0,60,0,0
5559,-125,4,1,1,60,0,0
10482,-99.9999999999999,4,1,1,60,0,0
15328,-99.9999999999999,4,1,0,60,0,0
15405,-99.9999999999999,4,1,1,60,0,0
20328,-125,4,1,1,50,0,0
46174,-100,4,1,1,60,0,0
47251,-100,4,1,1,70,0,1
62174,-125,4,1,1,50,0,1
67097,-99.9999999999999,4,1,1,60,0,0
76943,-125,4,1,1,50,0,0
102789,-100,4,1,1,60,0,0
103866,-100,4,1,1,70,0,1
118789,-125,4,1,1,50,0,1
123712,-142.857142857143,4,1,1,50,0,0
126174,-125,4,1,1,60,0,0
128636,-142.857142857143,4,1,1,50,0,0
131097,-125,4,1,1,60,0,0
133405,-99.9999999999999,4,1,1,60,0,0
154174,-100,4,1,1,50,0,0
154482,-90.9090909090909,4,1,1,70,0,1
154559,-90.9090909090909,4,1,1,70,0,0
161712,-100,4,1,1,75,0,1
171559,-100,4,1,1,70,0,1
176636,-125,4,1,1,50,0,1
179097,-100,4,1,1,50,0,1
180636,-100,4,1,1,50,0,0
182789,-99.9999999999999,4,1,1,60,0,1
182866,-99.9999999999999,4,1,1,60,0,0
192636,-100,4,1,1,75,0,0
192789,-100,4,1,1,60,0,0
193251,-100,4,1,1,55,0,0
193866,-100,4,1,1,50,0,0
194482,-100,4,1,1,45,0,0
195097,-100,4,1,1,40,0,0
195712,-100,4,1,1,35,0,0
196328,-100,4,1,1,30,0,0
196636,-100,4,1,1,25,0,0
196943,-100,4,1,1,20,0,0
197251,-100,4,1,1,15,0,0
197559,-100,4,1,1,10,0,0

[Colours]
Combo1 : 253,236,191
Combo2 : 253,155,150
Combo3 : 227,220,255
Combo4 : 214,241,230

[HitObjects]
91,89,636,5,10,0:0:0:0:
91,89,789,1,10,0:0:0:0:
454,147,2636,5,2,0:0:0:0:
381,222,2789,2,0,L|290:218,1,70,10|2,0:0|0:0,0:0:0:0:
217,182,3097,5,10,0:0:0:0:
217,182,3251,1,10,0:0:0:0:
442,209,4943,2,0,P|441:226|442:243,3,35,8|8|2|2,3:0|3:0|0:0|0:0,0:0:0:0:
456,264,5251,2,0,L|337:261,1,105,4|0,3:0|2:0,0:0:0:0:
336,275,5559,6,0,P|332:308|339:353,2,56,6|8|8,0:0|0:0|0:0,0:0:0:0:
253,284,6020,2,0,P|249:315|260:362,2,56,2|8|8,0:0|0:0|0:0,0:0:0:0:
287,206,6482,1,2,0:0:0:0:
232,142,6636,1,8,0:0:0:0:
127,130,6789,6,0,L|68:134,2,56,6|8|8,0:0|0:0|0:0,0:0:0:0:
150,48,7251,2,0,L|91:52,2,56,2|8|8,0:0|0:0|0:0,0:0:0:0:
233,40,7712,1,2,0:0:0:0:
316,31,7866,1,8,0:0:0:0:
394,102,8020,6,0,P|399:72|408:43,2,56,6|8|8,0:0|0:0|0:0,0:0:0:0:
316,169,8482,2,0,P|311:139|302:110,2,56,2|8|8,0:0|0:0|0:0,0:0:0:0:
306,252,8943,1,2,0:0:0:0:
350,323,9097,1,8,0:0:0:0:
451,333,9251,6,0,B|458:304|458:304|459:266,1,56,6|8,0:0|0:0,0:0:0:0:
426,199,9559,2,0,L|431:172,3,28,10|8|8|8,0:0|0:0|0:0|0:0,0:0:0:0:
452,148,9866,2,0,L|457:121,3,28,10|8|8|8,0:0|0:0|0:0|0:0,0:0:0:0:
480,97,10174,2,0,L|485:70,3,28,10|8|8|8,0:0|0:0|0:0|0:0,0:0:0:0:
468,41,10482,6,0,P|434:31|389:41,1,70,6|2,0:0|0:0,0:0:0:0:
349,125,10789,2,0,P|275:127|208:75,1,140,8|2,0:0|0:0,0:0:0:0:
174,14,11251,1,2,0:0:0:0:
75,51,11405,2,0,L|79:131,1,70,8|0,0:0|0:0,0:0:0:0:
161,158,11712,6,0,L|156:244,1,70,2|2,0:0|0:0,0:0:0:0:
76,297,12020,2,0,P|128:271|208:290,1,140,8|2,0:0|0:0,0:0:0:0:
268,353,12482,1,2,0:0:0:0:
304,254,12636,2,0,P|335:242|396:245,1,70,8|0,0:0|0:0,0:0:0:0:
462,248,12943,6,0,L|475:163,1,70,2|2,0:0|0:0,0:0:0:0:
493,75,13251,2,0,P|429:98|347:85,1,140,8|2,0:0|0:0,0:0:0:0:
277,49,13712,1,2,0:0:0:0:
298,151,13866,1,8,0:0:0:0:
206,98,14020,6,0,P|137:89|71:112,1,140,2|2,0:0|0:0,0:0:0:0:
41,214,14482,2,0,L|49:360,1,140,8|2,0:0|0:0,0:0:0:0:
132,319,14943,1,2,0:0:0:0:
232,368,15097,2,2,P|258:318|247:258,1,105,10|0,0:0|2:0,0:0:0:0:
242,244,15405,6,0,L|245:154,1,70,2|2,0:0|0:0,0:0:0:0:
325,93,15712,2,0,L|320:232,1,140,8|2,0:0|0:0,0:0:0:0:
383,300,16174,1,2,0:0:0:0:
484,271,16328,2,0,P|496:236|499:201,1,70,8|0,0:0|0:0,0:0:0:0:
426,146,16636,6,0,P|414:111|411:76,1,70,2|2,0:0|0:0,0:0:0:0:
307,58,16943,2,0,L|163:68,1,140,8|2,0:0|0:0,0:0:0:0:
81,36,17405,1,2,0:0:0:0:
25,124,17559,2,0,P|57:138|92:140,1,70,8|0,0:0|0:0,0:0:0:0:
181,154,17866,6,0,B|172:242,1,70,2|2,0:0|0:0,0:0:0:0:
77,266,18174,2,0,B|86:354,1,70,8|0,0:0|0:0,0:0:0:0:
173,315,18482,2,0,P|207:316|241:326,1,70,2|2,0:0|0:0,0:0:0:0:
338,365,18789,2,0,P|368:354|400:323,1,70,8|8,0:0|0:0,0:0:0:0:
426,227,19097,6,0,L|501:235,2,70,8|8|8,0:0|0:0|0:0,0:0:0:0:
329,183,19559,2,0,L|254:191,1,70,8|8,0:0|0:0,0:0:0:0:
344,262,19866,5,6,0:0:0:0:
384,68,20174,1,0,0:0:0:0:
384,68,20328,6,0,P|439:43|491:39,2,112,12|0|0,0:0|0:0|0:0,0:0:0:0:
331,251,21251,1,8,0:0:0:0:
251,223,21405,2,0,P|225:231|194:250,1,56,2|0,0:0|0:0,0:0:0:0:
150,320,21712,2,0,P|103:286|33:287,1,112,2|2,0:0|0:0,0:0:0:0:
103,202,22174,2,0,L|92:139,1,56,8|2,0:0|0:0,0:0:0:0:
188,136,22482,2,0,L|182:108,3,28,8|8|8|8,0:0|0:0|0:0|0:0,0:0:0:0:
192,85,22789,6,0,P|137:60|85:56,2,112,8|0|0,0:0|0:0|0:0,0:0:0:0:
241,268,23712,1,8,0:0:0:0:
316,231,23866,2,0,P|343:232|377:245,1,56,2|0,0:0|0:0,0:0:0:0:
436,293,24174,2,0,P|420:239|431:165,1,112,2|2,0:0|0:0,0:0:0:0:
451,92,24636,2,0,L|381:110,1,56,8|2,0:0|0:0,0:0:0:0:
325,42,24943,2,0,L|297:47,3,28,8|8|8|8,0:0|0:0|0:0|0:0,0:0:0:0:
280,66,25251,6,0,P|248:68|219:62,1,56,8|2,0:0|0:0,0:0:0:0:
149,103,25559,2,0,P|117:105|85:112,2,56,0|2|0,0:0|0:0|0:0,0:0:0:0:
220,146,26020,1,2,0:0:0:0:
211,240,26174,2,0,L|215:318,1,56,8|2,0:0|0:0,0:0:0:0:
130,281,26482,2,0,L|127:225,1,56,0|2,0:0|0:0,0:0:0:0:
48,210,26789,2,0,L|52:288,1,56,0|2,0:0|0:0,0:0:0:0:
97,360,27097,2,0,P|125:368|168:358,1,56,8|2,0:0|0:0,0:0:0:0:
241,333,27405,2,0,L|280:345,3,28,8|8|8|8,0:0|0:0|0:0|0:0,0:0:0:0:
288,355,27712,6,0,P|306:320|308:293,1,56,8|2,0:0|0:0,0:0:0:0:
309,219,28020,2,0,P|303:180|289:156,1,56,0|2,0:0|0:0,0:0:0:0:
234,107,28328,2,0,L|246:39,1,56,0|2,0:0|0:0,0:0:0:0:
338,38,28636,2,0,P|372:40|400:50,1,56,8|2,0:0|0:0,0:0:0:0:
454,103,28943,2,0,L|523:98,2,56,0|2|0,0:0|0:0|0:0,0:0:0:0:
384,151,29405,1,2,0:0:0:0:
466,224,29559,2,0,L|461:279,1,56,8|2,0:0|0:0,0:0:0:0:
364,344,29866,2,0,L|369:289,1,56,8|2,0:0|0:0,0:0:0:0:
291,207,30174,6,0,P|234:194|174:212,1,112,6|8,0:0|0:0,0:0:0:0:
144,282,30636,2,0,P|88:284|37:262,1,112,2|2,0:0|0:0,0:0:0:0:
57,169,31097,1,8,0:0:0:0:
57,169,31251,2,0,L|52:43,1,112,2|2,0:0|0:0,0:0:0:0:
140,19,31712,2,0,L|144:130,1,112,8|2,0:0|0:0,0:0:0:0:
195,198,32174,1,2,0:0:0:0:
231,109,32328,1,8,0:0:0:0:
231,109,32636,6,0,P|266:74|349:78,2,112,2|8|0,0:0|0:0|0:0,0:0:0:0:
304,149,33405,1,2,0:0:0:0:
223,199,33559,1,8,0:0:0:0:
293,244,33712,2,0,L|286:362,1,112,2|2,0:0|0:0,0:0:0:0:
370,309,34174,2,0,P|419:285|483:294,1,112,8|2,0:0|0:0,0:0:0:0:
511,213,34636,1,2,0:0:0:0:
416,203,34789,1,8,0:0:0:0:
416,203,35097,6,0,P|407:166|409:142,1,56,2|0,0:0|0:0,0:0:0:0:
440,58,35405,1,8,0:0:0:0:
357,75,35559,2,0,L|239:66,1,112,2|2,0:0|0:0,0:0:0:0:
153,41,36020,2,0,P|120:47|87:61,2,56,8|2|0,0:0|0:0|0:0,0:0:0:0:
283,148,36636,2,0,P|316:154|349:168,2,56,8|0|2,0:0|0:0|0:0,0:0:0:0:
122,196,37251,1,8,0:0:0:0:
252,302,37559,6,0,P|203:324|134:325,2,112,2|8|0,0:0|0:0|0:0,0:0:0:0:
301,234,38328,1,2,0:0:0:0:
337,322,38482,1,8,0:0:0:0:
380,249,38636,2,0,P|429:227|498:226,1,112,0|2,0:0|0:0,0:0:0:0:
454,134,39097,2,0,P|405:112|336:111,1,112,8|2,0:0|0:0,0:0:0:0:
272,148,39559,1,2,0:0:0:0:
223,48,39712,2,0,P|160:50|106:71,1,112,8|4,0:0|0:0,0:0:0:0:
388,193,46174,6,0,L|391:138,2,35,8|8|2,0:0|0:0|0:0,0:0:0:0:
452,306,46482,5,10,0:0:0:0:
452,306,46636,1,10,0:0:0:0:
452,306,47251,6,0,P|388:294|303:329,1,140,6|2,0:0|0:0,0:0:0:0:
226,367,47712,2,0,L|59:364,2,140,8|8|8,0:0|0:0|0:0,0:0:0:0:
275,289,48482,1,2,0:0:0:0:
172,240,48636,6,0,P|166:202|174:159,1,70,12|2,0:0|0:0,0:0:0:0:
201,64,48943,2,0,L|119:73,1,70,8|2,0:0|0:0,0:0:0:0:
83,166,49251,2,0,L|-12:157,2,70,8|2|8,0:3|3:0|0:3,0:0:0:0:
186,150,49712,1,2,0:3:0:0:
199,152,49789,1,2,0:0:0:0:
212,155,49866,6,0,P|253:149|297:154,1,70,12|2,0:0|0:0,0:0:0:0:
352,229,50174,2,0,L|519:226,2,140,10|10|8,0:0|0:0|0:0,0:0:0:0:
303,151,50943,1,2,0:0:0:0:
231,228,51097,6,0,P|222:260|225:308,1,70,12|2,0:0|0:0,0:0:0:0:
318,362,51405,2,0,L|310:279,1,70,8|2,0:0|0:0,0:0:0:0:
378,211,51712,2,0,P|406:219|458:222,2,70,8|2|8,0:3|0:3|0:3,0:0:0:0:
318,141,52174,5,2,0:3:0:0:
312,128,52251,1,2,0:0:0:0:
307,114,52328,2,0,P|237:78|162:99,1,140,12|8,0:0|0:0,0:0:0:0:
119,174,52789,1,2,0:0:0:0:
88,62,52943,2,0,L|102:211,1,140,8|8,0:0|0:0,0:0:0:0:
62,284,53405,1,2,0:0:0:0:
182,349,53559,6,0,P|222:349|270:364,1,70,14|2,0:0|0:0,0:0:0:0:
261,251,53866,2,0,P|297:267|334:301,1,70,8|2,0:0|0:0,0:0:0:0:
374,195,54174,2,0,P|399:225|419:272,1,70,8|2,0:0|0:0,0:0:0:0:
498,189,54482,2,0,P|508:227|506:277,1,70,8|2,0:0|0:0,0:0:0:0:
441,356,54789,6,0,L|282:345,1,140,14|8,0:0|0:0,0:0:0:0:
240,277,55251,1,2,0:0:0:0:
274,163,55405,2,0,P|307:153|342:151,1,70,14|2,0:0|0:0,0:0:0:0:
459,96,55712,2,0,P|426:86|391:84,1,70,12|2,0:0|0:0,0:0:0:0:
241,29,56020,6,0,P|200:48|152:79,1,70,14|2,0:0|0:0,0:0:0:0:
187,170,56328,1,12,0:0:0:0:
103,133,56482,2,0,L|52:137,2,35,8|8|14,0:0|0:0|0:0,0:0:0:0:
117,218,56789,2,0,P|122:248|107:288,1,70,2|8,0:0|0:0,0:0:0:0:
28,352,57097,6,0,P|88:332|179:345,1,140,6|2,0:0|0:0,0:0:0:0:
264,371,57559,2,0,B|415:360,1,140,8|2,0:0|0:0,0:0:0:0:
463,292,58020,1,2,0:0:0:0:
383,223,58174,2,0,P|340:226|308:234,1,70,8|0,0:0|0:0,0:0:0:0:
235,279,58482,6,0,P|215:240|207:214,1,70,2|2,0:0|0:0,0:0:0:0:
285,144,58789,2,0,L|283:74,1,70,8|0,0:0|0:0,0:0:0:0:
365,32,59097,2,0,P|398:35|445:49,2,70,2|2|8,0:0|0:0|0:0,0:0:0:0:
253,57,59559,6,0,P|185:83|98:75,1,140,0|2,0:0|0:0,0:0:0:0:
18,30,60020,2,0,L|32:185,1,140,8|2,0:0|0:0,0:0:0:0:
26,261,60482,1,2,0:0:0:0:
113,202,60636,2,0,P|157:199|195:211,1,70,8|0,0:0|0:0,0:0:0:0:
245,271,60943,6,0,L|241:348,1,70,2|2,0:0|0:0,0:0:0:0:
340,307,61251,2,0,L|343:237,1,70,8|0,0:0|0:0,0:0:0:0:
410,173,61559,2,0,L|487:177,1,70,2|2,0:0|0:0,0:0:0:0:
446,78,61866,2,0,L|376:74,1,70,8|0,0:0|0:0,0:0:0:0:
275,41,62174,5,6,0:0:0:0:
271,231,62482,1,8,0:0:0:0:
174,67,62789,1,2,0:0:0:0:
170,257,63097,1,8,0:0:0:0:
16,144,63405,5,2,0:0:0:0:
205,163,63713,1,8,0:0:0:0:
34,247,64020,1,2,0:0:0:0:
223,266,64328,1,8,0:0:0:0:
262,79,64636,5,2,0:0:0:0:
313,285,64944,1,12,0:0:0:0:
350,98,65251,5,2,0:0:0:0:
314,308,65559,1,12,0:0:0:0:
421,151,65866,5,2,0:0:0:0:
316,336,66174,1,12,0:0:0:0:
471,226,66482,6,0,L|466:254,3,28,10|8|8|8,0:0|0:0|0:0|0:0,0:0:0:0:
481,277,66789,2,0,L|476:305,3,28,10|8|8|8,0:0|0:0|0:0|0:0,0:0:0:0:
491,332,67097,5,6,0:0:0:0:
256,192,67174,12,2,68328,0:0:0:0:
72,317,76943,6,0,P|125:299|182:305,1,112,8|0,0:0|0:0,0:0:0:0:
253,345,77405,1,2,0:0:0:0:
306,280,77559,2,0,P|333:267|366:262,1,56,0|2,0:0|0:0,0:0:0:0:
450,338,77866,1,12,2:0:0:0:
486,262,78020,2,0,L|487:201,1,56,4|0,3:0|0:0,0:0:0:0:
503,122,78328,6,0,P|450:140|393:134,1,112,2|2,0:0|0:0,0:0:0:0:
311,90,78789,2,0,L|245:104,1,56,8|2,0:0|0:0,0:0:0:0:
200,165,79097,2,0,L|148:154,3,28,8|8|8|8,0:0|0:0|0:0|0:0,0:0:0:0:
154,144,79405,6,0,L|172:264,1,112,8|0,0:0|0:0,0:0:0:0:
133,330,79867,1,2,0:0:0:0:
60,288,80021,2,0,L|70:213,1,56,0|2,0:0|0:0,0:0:0:0:
15,132,80327,1,8,0:0:0:0:
63,63,80482,2,0,P|93:63|124:69,1,56,4|0,3:0|0:0,0:0:0:0:
183,121,80789,2,0,P|167:67|218:23,1,112,2|2,0:0|0:0,0:0:0:0:
280,89,81251,2,0,L|339:78,1,56,8|2,0:0|0:0,0:0:0:0:
403,126,81559,2,0,L|439:133,3,28,8|8|8|8,0:0|0:0|0:0|0:0,0:0:0:0:
453,122,81866,6,0,P|459:151|458:186,1,56,8|2,0:0|0:0,0:0:0:0:
451,261,82174,2,0,P|449:293|442:325,2,56,0|2|0,0:0|0:0|0:0,0:0:0:0:
385,208,82635,1,2,0:0:0:0:
316,274,82789,2,0,L|238:278,1,56,8|2,0:0|0:0,0:0:0:0:
211,207,83097,2,0,L|133:211,1,56,0|2,0:0|0:0,0:0:0:0:
99,146,83405,2,0,L|21:150,1,56,0|2,0:0|0:0,0:0:0:0:
0,264,83712,2,0,P|28:272|71:262,1,56,8|2,0:0|0:0,0:0:0:0:
134,242,84020,2,0,L|156:277,3,28,8|8|8|8,0:0|0:0|0:0|0:0,0:0:0:0:
146,287,84328,6,0,P|174:295|217:285,1,56,8|2,0:0|0:0,0:0:0:0:
281,269,84635,2,0,P|291:294|294:322,1,56,0|2,0:0|0:0,0:0:0:0:
377,359,84943,2,0,P|380:325|377:286,1,56,0|2,0:0|0:0,0:0:0:0:
335,199,85251,1,8,0:0:0:0:
398,143,85405,2,0,B|477:131|477:131|523:145,2,112,8|8|4,3:0|3:0|0:3,0:0:0:0:
325,99,86174,2,0,L|268:108,1,56,4|2,0:3|0:0,0:0:0:0:
179,190,86482,1,8,0:0:0:0:
188,106,86636,1,2,0:0:0:0:
95,23,86789,6,0,L|109:148,1,112,6|8,0:0|0:0,0:0:0:0:
53,199,87251,2,0,P|81:239|98:316,1,112,2|2,0:0|0:0,0:0:0:0:
43,362,87712,1,8,0:0:0:0:
43,362,87866,2,0,B|85:346|85:346|169:357,1,112,2|2,0:0|0:0,0:0:0:0:
219,290,88328,2,0,P|271:295|325:324,1,112,8|2,0:0|0:0,0:0:0:0:
390,374,88789,1,2,0:0:0:0:
444,271,88943,1,8,0:0:0:0:
444,271,89251,6,0,P|445:214|439:144,1,112,2|8,0:0|0:0,0:0:0:0:
368,75,89712,1,2,0:0:0:0:
302,126,89866,2,0,P|269:130|235:130,1,56,0|2,0:0|0:0,0:0:0:0:
157,89,90174,1,8,0:0:0:0:
116,191,90328,2,0,L|125:325,1,112,2|2,0:0|0:0,0:0:0:0:
218,375,90789,2,0,L|227:241,1,112,8|2,0:0|0:0,0:0:0:0:
296,204,91251,1,2,0:0:0:0:
303,297,91405,2,0,L|300:360,1,56,8|0,0:0|0:0,0:0:0:0:
296,204,91712,6,0,L|299:141,1,56,2|0,0:0|0:0,0:0:0:0:
372,79,92020,1,8,0:0:0:0:
285,129,92174,2,0,P|230:134|171:124,1,112,2|2,0:0|0:0,0:0:0:0:
114,65,92636,1,8,0:0:0:0:
93,146,92789,1,2,0:0:0:0:
186,205,92943,2,0,B|231:215|231:215|311:201,1,112,0|8,0:0|0:0,0:0:0:0:
372,167,93405,1,0,0:0:0:0:
440,216,93559,2,0,L|498:222,2,56,2|2|8,0:0|0:0|0:0,0:0:0:0:
367,160,94020,1,0,0:0:0:0:
400,295,94174,6,0,B|329:288|329:288|279:307,1,112,2|8,0:0|0:0,0:0:0:0:
213,337,94636,1,2,0:0:0:0:
154,268,94789,2,0,P|123:264|86:262,1,56,0|2,0:0|0:0,0:0:0:0:
215,328,95097,1,8,0:0:0:0:
238,245,95251,2,0,L|235:180,1,56,2|0,0:0|0:0,0:0:0:0:
198,112,95559,1,2,0:0:0:0:
280,30,95712,2,0,L|277:95,1,56,8|2,0:0|0:0,0:0:0:0:
315,165,96020,1,2,0:0:0:0:
315,165,96174,1,2,0:0:0:0:
380,74,96328,2,0,P|424:48|501:58,1,112,8|4,0:0|0:0,0:0:0:0:
388,193,102789,6,0,L|391:138,2,35,8|8|2,0:0|0:0|0:0,0:0:0:0:
452,306,103097,5,10,0:0:0:0:
452,306,103251,1,10,0:0:0:0:
452,306,103866,6,0,P|388:288|315:308,1,140,6|2,0:0|0:0,0:0:0:0:
278,223,104328,2,0,L|268:374,2,140,8|8|8,0:0|0:0|0:0,0:0:0:0:
327,142,105097,1,2,0:0:0:0:
221,101,105251,6,0,P|185:99|147:107,1,70,12|2,0:0|0:0,0:0:0:0:
65,186,105559,2,0,P|100:191|135:191,1,70,8|2,0:0|0:0,0:0:0:0:
213,218,105866,2,0,L|207:303,2,70,8|2|8,0:3|0:3|0:3,0:0:0:0:
321,126,106328,1,2,0:3:0:0:
324,134,106405,1,2,0:0:0:0:
327,142,106482,6,0,L|331:211,1,70,12|2,0:0|0:0,0:0:0:0:
410,300,106789,2,0,L|418:149,2,140,8|8|8,0:0|0:0|0:0,0:0:0:0:
336,359,107559,1,2,0:0:0:0:
267,266,107712,6,0,L|178:271,1,70,12|2,0:0|0:0,0:0:0:0:
122,178,108020,2,0,L|191:181,1,70,8|2,0:0|0:0,0:0:0:0:
288,175,108328,2,0,L|357:171,2,70,8|2|8,0:3|0:3|0:3,0:0:0:0:
195,255,108789,1,2,0:3:0:0:
181,259,108866,1,2,0:0:0:0:
168,263,108943,6,0,B|85:257|85:257|25:279,1,140,12|8,0:0|0:0,0:0:0:0:
102,344,109405,1,2,0:0:0:0:
102,344,109559,2,0,L|201:349,1,70,8|2,0:0|0:0,0:0:0:0:
259,317,109866,2,0,L|358:312,1,70,8|2,0:0|0:0,0:0:0:0:
471,266,110174,6,0,L|401:262,1,70,12|2,0:0|0:0,0:0:0:0:
314,231,110482,2,0,L|244:234,1,70,8|2,0:0|0:0,0:0:0:0:
166,175,110789,1,8,0:0:0:0:
166,175,110943,1,2,0:0:0:0:
250,66,111097,2,0,P|250:101|247:136,1,70,8|2,0:0|0:0,0:0:0:0:
169,244,111405,6,0,P|165:209|166:175,1,70,12|2,0:0|0:0,0:0:0:0:
245,287,111712,2,0,P|180:278|115:314,2,140,8|12|12,0:0|0:0|0:0,0:0:0:0:
316,347,112482,1,2,0:0:0:0:
357,239,112636,6,0,L|354:153,1,70,12|2,0:0|0:0,0:0:0:0:
383,92,112943,1,12,0:0:0:0:
296,44,113097,1,8,0:0:0:0:
296,44,113174,1,8,0:0:0:0:
296,44,113251,2,0,P|257:39|204:52,1,70,14|2,0:0|0:0,0:0:0:0:
163,99,113559,1,8,0:0:0:0:
252,149,113712,6,0,P|259:215|252:292,1,140,6|2,0:0|0:0,0:0:0:0:
182,354,114174,2,0,B|226:331|226:331|320:347,1,140,8|2,0:0|0:0,0:0:0:0:
398,323,114636,1,2,0:0:0:0:
357,239,114789,2,0,P|354:202|360:152,1,70,8|0,0:0|0:0,0:0:0:0:
426,94,115097,6,0,L|515:90,2,70,2|2|8,0:0|0:0|0:0,0:0:0:0:
364,158,115559,1,0,0:0:0:0:
292,98,115712,2,0,P|256:93|221:95,1,70,2|2,0:0|0:0,0:0:0:0:
148,142,116020,1,8,0:0:0:0:
77,205,116174,6,0,P|137:185|228:198,1,140,0|2,0:0|0:0,0:0:0:0:
301,237,116636,2,0,L|291:85,1,140,8|2,0:0|0:0,0:0:0:0:
356,38,117097,1,2,0:0:0:0:
426,94,117251,2,0,L|500:88,1,70,8|0,0:0|0:0,0:0:0:0:
364,158,117559,6,0,L|294:165,1,70,2|2,0:0|0:0,0:0:0:0:
302,261,117866,2,0,L|232:254,1,70,8|0,0:0|0:0,0:0:0:0:
153,212,118174,1,2,0:0:0:0:
153,212,118328,1,2,0:0:0:0:
220,90,118482,2,0,P|218:126|214:161,1,70,8|0,0:0|0:0,0:0:0:0:
161,296,118789,5,6,0:0:0:0:
130,108,119097,1,8,0:0:0:0:
261,246,119405,1,2,0:0:0:0:
230,58,119713,1,8,0:0:0:0:
349,209,120020,5,2,0:0:0:0:
161,240,120328,1,8,0:0:0:0:
299,109,120636,1,2,0:0:0:0:
111,140,120944,1,8,0:0:0:0:
214,346,121251,5,2,0:0:0:0:
265,140,121559,1,12,0:0:0:0:
302,327,121866,5,2,0:0:0:0:
266,117,122174,1,12,0:0:0:0:
373,274,122481,5,8,0:0:0:0:
268,89,122789,1,8,0:0:0:0:
423,199,123097,5,8,0:0:0:0:
460,272,123251,1,8,0:0:0:0:
423,199,123405,2,0,L|424:128,1,56,8|8,0:0|0:0,0:0:0:0:
444,64,123712,5,12,0:0:0:0:
360,64,123866,2,0,P|311:68|267:88,1,97.9999970092774,2|2,0:0|0:0,0:0:0:0:
267,88,124482,1,2,0:0:0:0:
218,156,124636,1,8,0:0:0:0:
218,156,124789,2,0,P|170:172|111:166,1,97.9999970092774,2|2,0:0|0:0,0:0:0:0:
123,169,125405,1,2,0:0:0:0:
82,240,125559,2,0,L|86:298,1,48.9999985046387,8|2,0:0|0:0,0:0:0:0:
137,353,125866,2,0,L|180:350,3,24.4999992523194,8|8|8|8,0:0|0:0|0:0|0:0,0:0:0:0:
188,341,126174,5,2,0:0:0:0:
254,293,126328,1,2,0:0:0:0:
328,333,126482,2,0,L|391:330,1,56,8|2,0:0|0:0,0:0:0:0:
464,303,126789,1,2,0:0:0:0:
464,303,126943,1,2,0:0:0:0:
413,230,127097,2,0,P|410:200|410:170,1,56,8|2,0:0|0:0,0:0:0:0:
454,92,127405,5,2,0:0:0:0:
454,92,127559,1,2,0:0:0:0:
370,60,127712,2,0,L|296:58,1,56,8|2,0:0|0:0,0:0:0:0:
241,115,128020,2,0,L|167:117,1,56,2|2,0:0|0:0,0:0:0:0:
99,75,128328,1,8,0:0:0:0:
99,75,128482,1,2,0:0:0:0:
61,158,128636,5,8,0:0:0:0:
61,158,128789,2,0,B|70:193|70:193|63:264,1,97.9999970092774,2|2,0:0|0:0,0:0:0:0:
63,254,129405,1,2,0:0:0:0:
121,318,129559,1,8,0:0:0:0:
121,318,129712,2,0,P|169:323|230:314,1,97.9999970092774,2|2,0:0|0:0,0:0:0:0:
218,317,130328,1,2,0:0:0:0:
274,259,130482,2,0,P|299:257|330:257,1,48.9999985046387,8|2,0:0|0:0,0:0:0:0:
403,283,130789,2,0,L|445:281,3,24.4999992523194,8|8|8|8,0:0|0:0|0:0|0:0,0:0:0:0:
454,272,131097,5,2,0:0:0:0:
493,195,131251,1,2,0:0:0:0:
425,138,131405,2,0,L|356:133,1,56,8|2,0:0|0:0,0:0:0:0:
295,86,131712,1,2,0:0:0:0:
295,86,131866,1,2,0:0:0:0:
293,172,132020,2,0,L|288:241,1,56,8|2,0:0|0:0,0:0:0:0:
222,339,132328,6,0,L|217:270,1,56,2|2,0:0|0:0,0:0:0:0:
157,214,132636,1,8,0:0:0:0:
157,214,132789,1,2,0:0:0:0:
210,144,132943,2,0,L|279:149,1,56,2|8,0:0|0:0,0:0:0:0:
334,206,133251,1,8,0:0:0:0:
399,123,133405,6,0,L|389:285,1,140,6|2,0:0|0:0,0:0:0:0:
473,323,133866,2,0,B|418:307|418:307|337:328,1,140,8|2,0:0|0:0,0:0:0:0:
247,353,134328,2,0,L|174:348,1,70,2|8,0:0|0:0,0:0:0:0:
101,303,134636,1,0,0:0:0:0:
157,214,134789,6,0,P|162:174|160:136,1,70,2|2,0:0|0:0,0:0:0:0:
104,80,135097,1,8,0:0:0:0:
188,52,135251,2,0,L|257:49,1,70,0|2,0:0|0:0,0:0:0:0:
339,97,135558,1,2,0:0:0:0:
339,97,135712,2,0,L|431:100,1,70,8|0,0:0|0:0,0:0:0:0:
498,82,136020,5,2,0:0:0:0:
498,82,136174,1,2,0:0:0:0:
450,173,136328,2,0,L|380:175,1,70,8|0,0:0|0:0,0:0:0:0:
305,227,136636,1,2,0:0:0:0:
305,227,136789,2,0,L|230:226,1,70,2|8,0:0|0:0,0:0:0:0:
156,264,137097,1,0,0:0:0:0:
160,168,137251,6,0,L|152:68,1,70,2|2,0:0|0:0,0:0:0:0:
208,16,137559,1,8,0:0:0:0:
208,16,137712,1,0,0:0:0:0:
240,108,137866,2,0,L|309:118,1,70,2|2,0:0|0:0,0:0:0:0:
400,128,138174,2,0,L|488:114,1,70,8|0,0:0|0:0,0:0:0:0:
374,216,138482,6,0,L|304:226,1,70,2|2,0:0|0:0,0:0:0:0:
247,161,138789,2,0,B|263:253|263:253|258:310,1,140,8|2,0:0|0:0,0:0:0:0:
221,372,139251,1,2,0:0:0:0:
221,372,139405,1,8,0:0:0:0:
185,261,139559,6,0,P|121:239|61:283,1,140,0|2,0:0|0:0,0:0:0:0:
41,371,140020,1,8,0:0:0:0:
131,312,140174,2,0,L|109:155,1,140,0|2,0:0|0:0,0:0:0:0:
173,45,140636,2,0,L|171:121,1,70,8|0,0:0|0:0,0:0:0:0:
195,234,140943,5,0,0:0:0:0:
195,234,141097,1,0,0:0:0:0:
247,161,141251,2,0,P|282:157|322:157,1,70,8|0,0:0|0:0,0:0:0:0:
397,219,141559,1,0,0:0:0:0:
397,219,141712,1,0,0:0:0:0:
446,129,141866,2,0,L|442:47,1,70,8|0,0:0|0:0,0:0:0:0:
397,219,142174,6,0,L|393:301,1,70,0|0,0:0|0:0,0:0:0:0:
310,371,142482,2,0,L|306:289,1,70,8|0,0:0|0:0,0:0:0:0:
247,161,142789,2,0,L|243:243,1,70,0|0,0:0|0:0,0:0:0:0:
160,313,143097,2,0,L|156:231,1,70,8|0,0:0|0:0,0:0:0:0:
256,192,143405,12,6,144636,0:0:0:0:
127,34,154174,5,0,2:0:0:0:
121,27,154482,6,0,L|133:190,1,154.000004699707,6|8,0:0|0:0,0:0:0:0:
93,262,154943,1,0,0:0:0:0:
189,297,155097,2,0,B|281:279|281:279|349:298,1,154.000004699707,2|8,0:0|0:0,0:0:0:0:
407,355,155559,1,0,0:0:0:0:
483,280,155712,6,0,L|473:118,1,154.000004699707,6|8,0:0|0:0,0:0:0:0:
408,57,156174,1,0,0:0:0:0:
360,148,156328,2,0,P|311:169|211:149,1,154.000004699707,2|8,0:0|0:0,0:0:0:0:
156,87,156789,1,0,0:0:0:0:
113,183,156943,6,0,B|106:245|106:245|135:336,1,154.000004699707,6|8,0:0|0:0,0:0:0:0:
215,293,157405,1,0,0:0:0:0:
299,354,157559,2,0,P|356:369|431:305,1,154.000004699707,2|8,0:0|0:0,0:0:0:0:
346,279,158020,1,0,0:0:0:0:
439,219,158174,6,0,L|442:64,2,154.000004699707,6|8|2,0:0|0:0|0:0,0:0:0:0:
369,273,158943,1,0,0:0:0:0:
303,210,159097,2,0,P|264:208|221:219,1,77.0000023498536,8|0,0:0|0:0,0:0:0:0:
183,300,159405,6,0,L|192:139,1,154.000004699707,6|8,0:0|0:0,0:0:0:0:
165,63,159866,1,0,0:0:0:0:
243,24,160020,2,0,L|320:28,1,77.0000023498536,2|0,0:0|0:0,0:0:0:0:
380,112,160328,2,0,L|303:116,1,77.0000023498536,8|0,0:0|0:0,0:0:0:0:
217,161,160636,6,0,L|177:158,4,38.5000011749268,8|8|2|2|8,0:0|0:0|0:0|0:0|0:0,0:0:0:0:
293,205,161097,1,8,0:0:0:0:
356,126,161251,2,0,L|351:38,2,77.0000023498536,8|8|8,0:0|0:0|0:0,0:0:0:0:
293,205,161712,6,0,P|358:226|422:201,1,140,6|2,0:0|0:0,0:0:0:0:
473,125,162174,2,0,L|466:277,1,140,8|8,0:0|0:0,0:0:0:0:
420,341,162636,1,2,0:0:0:0:
344,290,162789,2,0,P|308:291|269:297,1,70,8|2,0:0|0:0,0:0:0:0:
183,350,163097,6,0,P|147:349|108:343,2,70,12|2|8,0:0|0:0|0:0,0:0:0:0:
249,297,163559,1,2,0:0:0:0:
197,229,163712,2,0,P|194:188|195:149,1,70,8|2,0:3|0:3,0:0:0:0:
251,93,164020,1,8,0:3:0:0:
317,153,164174,1,2,0:3:0:0:
324,161,164251,1,2,0:0:0:0:
332,169,164328,6,0,P|400:189|461:143,2,140,12|8|8,0:0|0:0|0:0,0:0:0:0:
386,105,165097,1,2,0:0:0:0:
458,149,165251,2,0,L|456:235,1,70,8|2,0:0|0:0,0:0:0:0:
484,311,165559,5,12,0:0:0:0:
484,311,165712,1,2,0:0:0:0:
401,351,165866,2,0,L|324:348,1,70,8|2,0:0|0:0,0:0:0:0:
252,301,166174,2,0,L|175:304,2,70,8|2|8,0:3|0:3|0:3,0:0:0:0:
329,255,166636,1,2,0:3:0:0:
336,247,166713,1,2,0:0:0:0:
345,239,166789,6,0,P|378:230|427:225,1,70,12|2,0:0|0:0,0:0:0:0:
468,155,167097,2,0,P|435:146|386:141,1,70,8|2,0:0|0:0,0:0:0:0:
313,161,167405,2,0,P|280:170|231:175,1,70,8|2,0:0|0:0,0:0:0:0:
165,132,167712,1,8,0:0:0:0:
116,231,167866,1,2,0:0:0:0:
111,220,167943,1,2,0:0:0:0:
108,209,168020,6,0,L|115:67,2,140,12|8|8,0:0|0:0|0:0,0:0:0:0:
150,281,168789,1,2,0:0:0:0:
233,248,168943,2,0,L|312:244,1,70,8|2,0:0|0:0,0:0:0:0:
436,190,169251,6,0,L|366:186,1,70,12|2,0:0|0:0,0:0:0:0:
296,122,169559,2,0,L|226:125,1,70,8|2,0:0|0:0,0:0:0:0:
143,96,169866,1,12,0:0:0:0:
143,96,170020,1,2,0:0:0:0:
164,188,170174,1,12,0:0:0:0:
81,162,170328,2,0,L|44:163,2,35,2|2|12,0:0|0:0|0:0,0:0:0:0:
164,188,170636,5,2,0:0:0:0:
226,125,170789,2,0,L|296:122,1,70,12|8,0:0|0:0,0:0:0:0:
366,186,171097,2,0,L|436:190,2,70,14|2|8,0:0|0:0|0:0,0:0:0:0:
300,114,171559,6,0,L|316:252,1,140,6|2,0:0|0:0,0:0:0:0:
390,315,172020,2,0,B|332:296|332:296|247:310,1,140,8|2,0:0|0:0,0:0:0:0:
177,344,172482,1,2,0:0:0:0:
119,275,172636,2,0,L|115:199,1,70,8|0,0:0|0:0,0:0:0:0:
160,127,172943,5,2,0:0:0:0:
160,127,173097,1,2,0:0:0:0:
234,175,173251,2,0,L|308:169,1,70,8|0,0:0|0:0,0:0:0:0:
382,121,173559,1,2,0:0:0:0:
388,212,173712,2,0,L|395:292,2,70,2|8|0,0:0|0:0|0:0,0:0:0:0:
385,51,174174,6,0,L|382:121,1,70,2|2,0:0|0:0,0:0:0:0:
454,170,174482,2,0,P|399:154|310:174,1,140,8|2,0:0|0:0,0:0:0:0:
287,251,174943,1,2,0:0:0:0:
234,175,175097,2,0,L|238:100,1,70,8|0,0:0|0:0,0:0:0:0:
152,45,175405,6,0,L|155:114,1,70,2|2,0:0|0:0,0:0:0:0:
234,175,175712,2,0,P|175:156|101:180,1,140,8|2,0:0|0:0,0:0:0:0:
54,252,176174,1,2,0:0:0:0:
118,313,176328,2,0,L|188:318,1,70,8|0,0:0|0:0,0:0:0:0:
278,288,176636,6,0,L|344:283,1,56,6|2,0:0|0:0,0:0:0:0:
414,311,176943,1,8,0:0:0:0:
414,311,177097,1,2,0:0:0:0:
451,233,177251,2,0,L|448:172,1,56,2|2,0:0|0:0,0:0:0:0:
381,106,177559,2,0,P|346:103|306:108,1,56,8|2,0:0|0:0,0:0:0:0:
251,147,177866,5,2,0:0:0:0:
251,147,178020,1,2,0:0:0:0:
195,76,178174,2,0,L|191:18,1,56,8|2,0:0|0:0,0:0:0:0:
251,147,178482,2,0,L|247:205,1,56,2|2,0:0|0:0,0:0:0:0:
183,262,178789,1,8,0:0:0:0:
183,262,178943,1,2,0:0:0:0:
243,327,179097,6,0,L|314:322,1,70,12|2,0:0|0:0,0:0:0:0:
424,196,179559,1,2,0:0:0:0:
366,127,179712,2,0,P|333:124|291:131,1,70,12|2,0:0|0:0,0:0:0:0:
183,262,180174,1,2,0:0:0:0:
179,251,180251,1,2,0:0:0:0:
175,240,180328,6,0,L|178:170,1,70,8|2,0:0|0:0,0:0:0:0:
200,87,180636,1,10,0:0:0:0:
200,87,180789,1,10,0:0:0:0:
195,88,181559,5,8,0:0:0:0:
268,139,181712,1,0,0:0:0:0:
272,150,181789,1,0,0:0:0:0:
276,161,181866,2,0,L|271:215,3,35,8|0|0|0,0:0|0:0|0:0|0:0,0:0:0:0:
259,221,182174,2,0,L|264:275,3,35,8|0|0|0,0:0|0:0|0:0|0:0,0:0:0:0:
278,280,182482,2,0,L|273:334,3,35,8|0|0|0,0:0|0:0|0:0|0:0,0:0:0:0:
256,340,182789,6,0,L|174:346,1,70,6|2,0:0|0:0,0:0:0:0:
113,288,183097,2,0,B|101:242|101:242|108:148,1,140,8|2,0:0|0:0,0:0:0:0:
157,72,183559,1,2,0:0:0:0:
216,155,183712,2,0,P|269:165|336:116,1,140,8|2,0:0|0:0,0:0:0:0:
316,23,184174,1,2,0:0:0:0:
355,114,184328,6,0,L|354:258,1,140,8|2,0:0|0:0,0:0:0:0:
400,334,184789,1,2,0:0:0:0:
303,344,184943,2,0,B|223:335|223:335|158:359,1,140,8|2,0:0|0:0,0:0:0:0:
76,331,185405,1,2,0:0:0:0:
159,261,185559,6,0,L|167:118,1,140,8|2,0:0|0:0,0:0:0:0:
201,41,186020,1,2,0:0:0:0:
258,126,186174,1,8,0:0:0:0:
258,126,186328,2,0,P|318:146|399:113,1,140,2|2,0:0|0:0,0:0:0:0:
442,43,186789,2,0,L|436:194,1,140,8|2,0:0|0:0,0:0:0:0:
460,265,187251,1,2,0:0:0:0:
380,297,187405,2,0,L|310:292,1,70,10|0,0:0|0:0,0:0:0:0:
220,240,187712,6,0,L|150:245,1,70,2|2,0:0|0:0,0:0:0:0:
95,322,188020,2,0,L|103:178,1,140,8|2,0:0|0:0,0:0:0:0:
156,116,188482,1,2,0:0:0:0:
234,153,188636,2,0,L|313:148,1,70,8|0,0:0|0:0,0:0:0:0:
366,85,188943,5,2,0:0:0:0:
366,85,189097,1,2,0:0:0:0:
403,180,189251,2,0,B|411:268|411:268|383:327,1,140,8|2,0:0|0:0,0:0:0:0:
311,362,189712,1,2,0:0:0:0:
249,276,189866,2,0,P|181:258|109:303,1,140,8|2,0:0|0:0,0:0:0:0:
46,343,190328,1,2,0:0:0:0:
23,243,190482,6,0,L|31:82,1,140,8|2,0:0|0:0,0:0:0:0:
97,48,190943,1,2,0:0:0:0:
152,133,191097,2,0,P|201:143|256:126,1,105,8|8,0:0|0:0,0:0:0:0:
270,113,191405,6,0,L|341:107,1,70,8|8,0:0|0:0,0:0:0:0:
419,196,191712,2,0,L|349:190,1,70,8|8,0:0|0:0,0:0:0:0:
302,268,192020,1,8,0:0:0:0:
422,335,192174,2,0,P|425:265|419:196,1,140,6|2,0:0|0:0,0:0:0:0:
357,108,192636,1,4,0:0:0:0:
256,192,192712,12,0,197559,2:0:0:0:
