osu file format v14

[General]
AudioFilename: ONE OK ROCK - Mighty Long Fall [Official Music Video].mp3
AudioLeadIn: 0
PreviewTime: 55353
Countdown: 1
SampleSet: Soft
StackLeniency: 0.7
Mode: 0
LetterboxInBreaks: 1
WidescreenStoryboard: 1

[Editor]
Bookmarks: 49562
DistanceSpacing: 1.3
BeatDivisor: 2
GridSize: 4
TimelineZoom: 1

[Metadata]
Title:Mighty Long Fall
TitleUnicode:Mighty Long Fall
Artist:ONE OK ROCK
ArtistUnicode:ONE OK ROCK
Creator:liekaboss
Version:Normal
Source:Rurouni Kenshin
Tags:
BeatmapID:650153
BeatmapSetID:277615

[Difficulty]
HPDrainRate:4
CircleSize:3
OverallDifficulty:4
ApproachRate:5
SliderMultiplier:1.2
SliderTickRate:1

[Events]
//Background and Video events
0,0,"newbg.png",0,0
//Break Periods
2,131501,140355
//Storyboard Layer 0 (Background)
//Storyboard Layer 1 (Fail)
//Storyboard Layer 2 (Pass)
//Storyboard Layer 3 (Foreground)
//Storyboard Sound Samples

[TimingPoints]
100,379.746835443038,4,2,0,100,1,0
53644,-100,4,1,0,100,0,0
55353,-100,4,1,0,100,0,1
79656,-100,4,2,0,100,0,0
105289,-100,4,1,0,100,0,0
107188,-100,4,1,0,100,0,1
131397,-100,4,2,0,100,0,0
170796,-100,4,1,0,100,0,0
171555,-100,4,1,0,100,0,0
171650,-100,4,2,0,100,0,0
179150,-100,4,1,0,100,0,0
179815,-100,4,2,0,100,0,0
192062,-100,4,1,0,100,0,1
216365,-100,4,2,0,100,0,0

[HitObjects]
256,192,669,12,0,6745,0:0:0:0:
384,116,7125,5,0,0:0:0:0:
284,64,7505,2,0,P|252:52|184:68,1,60
128,96,8074,1,0,0:0:0:0:
124,208,8454,2,0,P|140:244|188:276,1,60
256,264,9024,2,0,P|276:236|296:196,1,60
336,88,9783,6,0,P|272:64|208:64,1,120
92,88,10543,2,0,P|72:120|72:196,1,60
96,244,11112,1,0,0:0:0:0:
208,288,11492,2,0,P|248:292|296:280,1,60
364,260,12062,2,0,P|376:216|372:188,1,60
296,80,12821,5,0,0:0:0:0:
188,108,13201,1,0,0:0:0:0:
136,216,13581,2,0,P|144:252|184:296,1,60
260,312,14150,1,0,0:0:0:0:
368,264,14530,2,0,P|380:220|372:188,1,60
328,104,15100,2,0,P|292:84|240:88,1,60
104,148,15859,5,0,0:0:0:0:
88,256,16239,2,0,P|120:288|172:312,1,60
180,296,16618,2,0,P|204:280|224:248,1,60
260,156,17188,1,0,0:0:0:0:
292,44,17568,2,0,P|320:32|372:48,1,60
460,120,18137,5,0,0:0:0:0:
460,120,18327,1,0,0:0:0:0:
460,120,18517,2,0,P|436:264|172:304,1,420
96,240,20226,5,0,0:0:0:0:
112,112,20606,2,0,L|152:64,1,60
264,72,21175,2,0,L|304:124,1,60
400,192,21745,2,0,P|220:328|124:220,1,360
88,164,23264,5,0,0:1:0:0:
192,112,23644,2,0,L|276:64,1,60
344,44,24403,2,0,P|380:64|408:108,1,60
416,104,24783,2,0,P|368:272|156:316,1,360
104,264,26302,5,0,0:0:0:0:
128,160,26682,2,0,P|136:132|168:92,1,60
236,60,27251,1,0,0:0:0:0:
336,40,27631,1,0,0:0:0:0:
336,40,27821,2,0,P|464:96|336:204,1,360
216,196,29340,5,0,0:0:0:0:
140,304,29720,1,0,0:0:0:0:
268,320,30100,1,0,0:0:0:0:
308,316,30289,2,0,P|360:312|432:240,1,120
432,256,30859,2,0,P|456:136|256:76,1,360
176,112,32378,5,0,0:0:0:0:
84,44,32758,1,0,0:0:0:0:
64,152,33137,1,0,0:0:0:0:
64,152,33327,2,0,P|60:196|104:272,1,120
116,280,33897,2,0,P|144:304|452:296,1,360
456,192,35416,5,0,0:0:0:0:
420,84,35796,1,0,0:0:0:0:
340,160,36175,1,0,0:0:0:0:
340,160,36365,2,0,P|280:132|240:84,1,120
152,56,37125,2,0,P|56:108|120:272,1,300
216,272,38454,5,0,0:0:0:0:
328,260,38834,2,0,P|368:244|372:200,1,60
360,88,39593,5,0,0:0:0:0:
248,56,39973,2,0,P|88:148|96:324,1,360
192,340,41492,1,0,0:0:0:0:
312,304,41872,2,0,P|344:276|368:224,6,60
192,340,43391,5,0,0:0:0:0:
96,248,43770,1,0,0:0:0:0:
176,108,44340,1,0,0:0:0:0:
176,108,44530,2,0,P|216:68|312:96,1,120
392,88,45289,5,0,0:0:0:0:
304,196,45669,1,0,0:0:0:0:
432,252,46049,1,0,0:0:0:0:
352,332,46429,2,0,B|232:368|172:280|136:188,1,240
120,124,47568,5,0,0:0:0:0:
220,84,47948,2,0,L|308:52,1,60
368,36,48517,2,0,L|404:96,1,60,0|4,0:0|0:0,0:0:0:0:
456,252,49467,6,0,P|424:276|352:296,1,60
360,296,49846,2,0,P|272:324|152:292,1,180
160,300,50606,2,0,P|124:244|120:136,1,120
136,72,51365,1,0,0:0:0:0:
236,156,51745,2,0,P|264:180|280:220,1,60
288,236,52125,2,0,P|312:244|392:216,1,60
384,228,52505,2,0,P|420:136|284:48,1,240
200,52,53644,5,0,0:0:0:0:
328,144,54024,1,0,0:0:0:0:
200,232,54403,2,0,P|144:216|104:160,1,120
148,40,55353,6,0,P|200:28|272:44,1,120
420,136,56302,2,0,P|396:164|336:216,1,60
356,204,56682,2,0,P|256:272|212:280,1,120
224,280,57251,1,0,0:0:0:0:
100,216,57631,1,0,0:0:0:0:
176,100,58011,2,0,P|200:80|264:100,1,60
272,76,58391,1,0,0:0:0:0:
340,256,58960,5,0,0:0:0:0:
216,324,59340,1,0,0:0:0:0:
216,324,59530,1,0,0:0:0:0:
216,324,59720,2,0,P|120:264|104:200,1,180
104,96,60669,1,0,0:0:0:0:
240,44,61239,1,0,0:0:0:0:
388,116,61808,6,0,P|352:200|244:264,1,180
160,268,62758,1,0,0:0:0:0:
128,144,63137,1,0,0:0:0:0:
232,68,63517,1,0,0:0:0:0:
356,144,63897,1,0,0:0:0:0:
356,144,64087,2,0,P|360:184|344:232,1,60
116,248,65036,5,0,0:0:0:0:
100,136,65416,2,0,P|120:112|176:84,1,60
172,80,65796,2,0,P|216:48|348:64,1,180
364,76,66555,1,0,0:0:0:0:
432,212,67125,2,0,P|420:248|384:296,1,60
176,248,67884,5,0,0:0:0:0:
108,144,68264,1,0,0:0:0:0:
200,68,68644,1,0,0:0:0:0:
276,164,69024,1,0,0:0:0:0:
176,248,69403,1,0,0:0:0:0:
176,248,69593,2,0,P|128:180|124:84,1,180
236,64,70543,2,0,P|268:100|268:144,1,60
264,216,71112,1,0,0:0:0:0:
144,284,71492,1,0,0:0:0:0:
76,176,71872,6,0,P|100:120|232:88,1,180
244,80,72631,1,0,0:0:0:0:
340,172,73011,1,0,0:0:0:0:
236,272,73391,1,0,0:0:0:0:
236,272,73581,6,0,P|164:248|128:208,1,120
132,96,74530,1,0,0:0:0:0:
216,36,74910,2,0,P|280:40|348:72,1,120
368,80,75479,1,0,0:0:0:0:
452,140,75859,2,0,P|420:236|296:296,1,240
144,268,77188,6,0,P|144:216|188:136,1,120
248,68,77948,1,0,0:0:0:0:
376,168,78517,6,0,P|356:200|328:216,1,60
224,136,79277,2,0,P|248:108|300:80,1,60
104,60,80036,5,0,0:0:0:0:
360,72,80606,1,0,0:0:0:0:
448,160,80986,1,0,0:0:0:0:
336,240,81365,1,0,0:0:0:0:
336,240,81555,1,0,0:0:0:0:
120,180,82125,5,0,0:0:0:0:
120,180,82315,2,0,P|144:132|232:104,1,120
348,96,83074,5,0,0:0:0:0:
408,220,83454,2,0,P|368:236|336:232,1,60
224,164,84024,1,0,0:0:0:0:
320,68,84403,2,0,P|360:64|400:72,1,60
448,196,85163,6,0,P|436:224|396:244,1,60
364,260,85543,2,0,P|156:280|60:132,1,360
124,76,87062,1,0,0:0:0:0:
248,84,87441,2,0,P|268:128|256:168,1,60
192,256,88201,5,0,0:0:0:0:
56,232,88581,2,0,P|72:184|352:104,1,360
432,128,90100,1,0,0:0:0:0:
424,244,90479,2,0,P|376:228|356:212,1,60
236,76,91239,5,0,0:0:0:0:
236,76,91429,1,0,0:0:0:0:
236,76,91618,2,0,P|104:144|256:196,1,360
332,152,93137,5,0,0:0:0:0:
276,48,93517,2,0,P|244:44|208:60,1,60
128,140,94087,1,0,0:0:0:0:
160,256,94467,2,0,P|200:268|264:272,1,60
328,272,95226,5,0,0:0:0:0:
392,192,95606,2,0,P|396:148|380:132,1,60
280,80,96175,1,0,0:0:0:0:
280,80,96365,2,0,P|224:96|180:96,1,60
100,76,96935,1,0,0:0:0:0:
100,76,97125,2,0,P|80:140|92:228,1,120
92,220,97694,2,0,P|112:248|184:268,1,60
296,276,98264,2,0,P|352:232|392:104,1,180
336,52,99213,5,0,0:0:0:0:
212,56,99593,2,0,P|176:64|148:88,1,60
88,156,100163,1,0,0:0:0:0:
292,272,100922,5,0,0:0:0:0:
384,164,101302,1,0,0:0:0:0:
280,72,101682,2,0,P|228:52|148:64,1,120
124,148,102441,2,0,P|188:168|264:156,1,120
364,136,103201,1,0,0:0:0:0:
440,240,103581,1,0,0:0:0:0:
304,312,103960,2,0,P|308:248|336:168,1,120
416,72,105100,5,0,0:0:0:0:
416,72,105289,2,0,B|340:20|272:24|220:68|240:156,1,240
240,236,106429,1,0,0:0:0:0:
432,164,106998,5,0,0:0:0:0:
376,60,107378,2,0,P|264:92|252:188,1,180
304,256,108327,1,0,0:0:0:0:
408,168,108707,2,0,L|468:108,2,60
388,188,109277,2,0,P|296:260|252:264,1,120
172,232,110036,1,0,0:0:0:0:
144,48,110606,5,0,0:0:0:0:
276,52,110986,2,0,P|304:56|360:68,1,60
376,72,111365,1,0,0:0:0:0:
352,196,111935,5,0,0:0:0:0:
352,196,112125,1,0,0:0:0:0:
240,132,112505,2,0,P|216:108|100:104,1,120
92,120,113074,6,0,P|84:192|148:256,1,120
244,296,114024,1,0,0:0:0:0:
244,296,114213,1,0,0:0:0:0:
244,296,114403,2,0,P|288:276|300:196,1,120
180,152,115163,2,0,P|188:92|256:56,1,120
364,76,115922,1,0,0:0:0:0:
296,272,116682,6,0,P|228:272|172:236,1,120
96,160,117441,1,0,0:0:0:0:
256,76,118011,6,0,P|284:80|352:112,1,60
372,200,118770,2,0,P|332:220|316:224,1,60
152,172,119530,5,0,0:0:0:0:
120,280,119910,1,0,0:0:0:0:
224,256,120289,1,0,0:0:0:0:
96,172,120669,1,0,0:0:0:0:
204,152,121049,1,0,0:0:0:0:
204,152,121239,2,0,P|248:136|312:196,1,120
320,280,121998,1,0,0:0:0:0:
140,296,122568,2,0,P|116:260|104:212,1,60
104,140,123137,1,0,0:0:0:0:
184,48,123517,2,0,P|244:56|312:160,1,180
324,264,124467,5,0,0:0:0:0:
188,272,124846,1,0,0:0:0:0:
144,160,125226,5,0,0:0:0:0:
56,100,125606,2,0,P|88:68|196:52,1,120
272,44,126365,1,0,0:0:0:0:
272,44,126555,2,0,P|324:48|388:104,1,120
400,128,127125,2,0,L|440:184,2,60
272,44,127884,1,0,0:0:0:0:
272,44,128074,1,0,0:0:0:0:
272,44,128264,2,0,P|208:72|180:120,1,120
172,152,128834,2,0,L|160:216,2,60
184,112,129403,2,0,P|200:84|260:64,1,60
348,72,130353,5,0,0:0:0:0:
364,84,130543,1,0,0:0:0:0:
376,96,130732,1,0,0:0:0:0:
392,116,130922,2,0,L|436:160,2,60
256,192,141555,12,0,143454,0:0:0:0:
