osu file format v14

[General]
AudioFilename: ONE OK ROCK - Mighty Long Fall [Official Music Video].mp3
AudioLeadIn: 0
PreviewTime: 55353
Countdown: 1
SampleSet: Soft
StackLeniency: 0.7
Mode: 0
LetterboxInBreaks: 1
WidescreenStoryboard: 0

[Editor]
Bookmarks: 49562
DistanceSpacing: 1.3
BeatDivisor: 4
GridSize: 4
TimelineZoom: 1

[Metadata]
Title:Mighty Long Fall
TitleUnicode:Mighty Long Fall
Artist:ONE OK ROCK
ArtistUnicode:ONE OK ROCK
Creator:liekaboss
Version:Hard
Source:Rurouni Kenshin
Tags:
BeatmapID:648853
BeatmapSetID:277615

[Difficulty]
HPDrainRate:7
CircleSize:4
OverallDifficulty:7.5
ApproachRate:9
SliderMultiplier:1.7
SliderTickRate:2

[Events]
//Background and Video events
0,0,"newbg.png",0,0
//Break Periods
2,131501,140955
//Storyboard Layer 0 (Background)
//Storyboard Layer 1 (Fail)
//Storyboard Layer 2 (Pass)
//Storyboard Layer 3 (Foreground)
//Storyboard Sound Samples

[TimingPoints]
100,379.746835443038,4,2,0,100,1,0
53644,-100,4,1,0,100,0,0
55353,-100,4,1,0,100,0,1
79656,-100,4,2,0,100,0,0
105289,-100,4,1,0,100,0,0
107188,-100,4,1,0,100,0,1
131397,-100,4,2,0,100,0,0
170796,-100,4,1,0,100,0,0
171555,-100,4,1,0,100,0,0
171650,-100,4,2,0,100,0,0
179150,-100,4,1,0,100,0,0
179815,-100,4,2,0,100,0,0
192062,-100,4,1,0,100,0,1
216365,-100,4,2,0,100,0,0

[HitObjects]
256,192,669,12,0,6365,0:0:0:0:
452,56,6745,6,0,P|472:136|416:224,1,170
360,276,7315,1,0,0:0:0:0:
264,288,7505,2,0,P|256:244|292:200,1,85
360,156,7884,1,0,0:0:0:0:
380,276,8074,1,0,0:0:0:0:
488,208,8264,1,0,0:0:0:0:
436,92,8454,2,0,P|404:60|352:44,1,85
244,52,8834,1,0,0:0:0:0:
132,116,9213,5,0,0:0:0:0:
128,128,9308,1,0,0:0:0:0:
124,140,9403,1,0,0:0:0:0:
120,152,9498,1,0,0:0:0:0:
116,164,9593,1,0,0:0:0:0:
116,176,9688,1,0,0:0:0:0:
112,188,9783,2,0,P|132:220|184:220,1,85
236,160,10163,1,0,0:0:0:0:
128,88,10353,2,0,P|200:64|300:96,1,170
384,128,10922,1,0,0:0:0:0:
408,244,11112,6,0,P|352:296|252:324,1,170
232,208,11682,1,0,0:0:0:0:
264,324,11872,1,0,0:0:0:0:
232,208,12062,2,0,P|272:196|312:164,1,85
388,88,12441,1,0,0:0:0:0:
448,260,12821,6,0,P|396:308|292:336,1,170
172,328,13391,1,0,0:0:0:0:
172,328,13486,1,0,0:0:0:0:
172,328,13581,1,0,0:0:0:0:
160,200,13770,2,0,P|200:200|248:172,1,85
344,116,14150,1,0,0:0:0:0:
240,180,14340,1,0,0:0:0:0:
392,188,14530,1,0,0:0:0:0:
392,188,14720,2,0,P|436:84|376:48,1,170
268,40,15289,5,0,0:0:0:0:
256,40,15384,1,0,0:0:0:0:
244,40,15479,1,0,0:0:0:0:
232,40,15574,1,0,0:0:0:0:
220,40,15669,1,0,0:0:0:0:
208,40,15764,2,0,P|152:64|168:144,1,127.5
200,220,16239,1,0,0:0:0:0:
144,104,16429,1,0,0:0:0:0:
144,104,16524,1,0,0:0:0:0:
144,104,16618,1,0,0:0:0:0:
48,68,16808,2,0,P|36:108|44:164,1,85
136,172,17188,2,0,P|136:216|96:252,1,85
28,300,17568,1,0,0:0:0:0:
28,300,17758,1,0,0:0:0:0:
160,296,17948,5,0,0:0:0:0:
176,296,18043,1,0,0:0:0:0:
192,296,18137,1,0,0:0:0:0:
204,296,18232,1,0,0:0:0:0:
216,296,18327,2,0,P|240:256|236:200,1,85
244,120,18707,2,0,P|284:52|368:40,1,170
468,96,19277,5,0,0:0:0:0:
468,96,19467,1,0,0:0:0:0:
376,164,19656,1,0,0:0:0:0:
468,212,19846,2,0,P|392:260|312:268,1,170
200,256,20416,1,0,0:0:0:0:
188,252,20511,1,0,0:0:0:0:
176,248,20606,1,0,0:0:0:0:
164,244,20701,1,0,0:0:0:0:
152,240,20796,2,0,P|136:208|156:160,1,85
352,64,21365,5,0,0:0:0:0:
360,76,21460,1,0,0:0:0:0:
368,88,21555,1,0,0:0:0:0:
376,100,21650,1,0,0:0:0:0:
384,116,21745,1,0,0:0:0:0:
392,128,21840,1,0,0:0:0:0:
400,140,21935,2,0,P|412:184|352:304,1,170
232,288,22505,2,0,P|172:224|184:140,1,170
208,52,23074,5,0,0:0:0:0:
332,64,23264,2,0,P|320:128|276:152,1,85
200,156,23644,1,0,0:0:0:0:
308,140,23834,1,0,0:0:0:0:
188,156,24024,1,0,0:0:0:0:
188,156,24118,1,0,0:0:0:0:
188,156,24213,1,0,0:0:0:0:
112,244,24403,1,0,0:0:0:0:
208,312,24593,1,0,0:0:0:0:
312,312,24783,6,0,P|392:280|392:192,1,170
368,96,25353,1,0,0:0:0:0:
400,204,25543,1,0,0:0:0:0:
368,96,25732,2,0,P|316:100|280:116,1,85
176,164,26112,1,0,0:0:0:0:
148,288,26302,1,0,0:0:0:0:
392,288,26682,6,0,P|416:252|420:208,1,85
388,104,27062,1,0,0:0:0:0:
420,212,27251,1,0,0:0:0:0:
388,104,27441,2,0,P|336:116|288:100,1,85
204,56,27821,2,0,P|108:64|88:232,1,255
84,320,28581,5,0,0:0:0:0:
84,320,28675,1,0,0:0:0:0:
84,320,28770,1,0,0:0:0:0:
200,336,28960,2,0,P|252:340|304:328,1,85
256,248,29340,2,0,P|288:240|348:256,1,85
436,240,29720,2,0,P|448:192|432:152,1,85
384,52,30100,5,0,0:0:0:0:
280,52,30289,2,0,P|208:40|112:64,1,170
24,116,30859,2,0,P|20:192|64:280,1,170
164,304,31429,5,0,0:0:0:0:
136,184,31618,1,0,0:0:0:0:
256,212,31808,1,0,0:0:0:0:
340,304,31998,2,0,P|412:276|408:168,1,170
368,76,32568,1,0,0:0:0:0:
424,192,32758,1,0,0:0:0:0:
368,76,32948,2,0,P|328:68|272:80,1,85
148,96,33327,6,0,P|116:168|128:268,1,170
212,180,33897,2,0,P|212:260|172:352,1,170
96,308,34467,1,0,0:0:0:0:
80,196,34656,1,0,0:0:0:0:
140,112,34846,1,0,0:0:0:0:
216,52,35036,2,0,P|308:48|388:76,1,170
452,152,35606,1,0,0:0:0:0:
452,152,35796,1,0,0:0:0:0:
432,252,35986,6,0,P|400:272|344:276,1,85
244,276,36365,2,0,P|168:260|160:172,1,170
124,52,37125,6,0,P|156:32|208:24,1,85
280,116,37505,1,0,0:0:0:0:
204,24,37694,1,0,0:0:0:0:
344,28,37884,1,0,0:0:0:0:
204,24,38074,2,0,P|140:52|68:136,1,170
88,216,38644,1,0,0:0:0:0:
112,300,38834,1,0,0:0:0:0:
112,300,38929,1,0,0:0:0:0:
112,300,39024,2,0,P|192:256|212:232,1,85
372,288,39593,5,0,0:0:0:0:
384,280,39688,1,0,0:0:0:0:
396,272,39783,1,0,0:0:0:0:
408,264,39878,1,0,0:0:0:0:
420,256,39973,2,0,P|412:212|380:184,1,85
272,216,40353,1,0,0:0:0:0:
384,188,40543,1,0,0:0:0:0:
272,216,40732,2,0,P|208:204|188:168,1,85
144,104,41112,1,0,0:0:0:0:
240,32,41302,5,0,0:0:0:0:
280,148,41492,1,0,0:0:0:0:
360,60,41682,2,0,P|400:80|404:124,1,85
400,216,42062,2,0,P|384:264|336:280,1,85
288,188,42441,2,0,P|308:160|364:140,1,85
400,216,42821,2,0,P|360:272|320:284,1,85
236,288,43201,1,0,0:0:0:0:
132,264,43391,5,0,0:0:0:0:
112,172,43581,2,0,P|108:132|200:40,1,170
292,32,44150,2,0,P|344:36|372:80,1,85
392,148,44530,2,0,P|380:196|260:280,1,170
108,220,45289,6,0,P|112:172|136:140,1,85
220,80,45669,1,0,0:0:0:0:
232,72,45764,1,0,0:0:0:0:
244,64,45859,1,0,0:0:0:0:
256,56,45954,1,0,0:0:0:0:
268,48,46049,2,0,L|352:0,2,85
188,104,46618,6,0,P|152:164|120:264,1,170
44,244,47188,2,0,P|108:328|168:324,1,170
256,308,47758,1,0,0:0:0:0:
168,224,47948,1,0,0:0:0:0:
296,204,48137,1,0,0:0:0:0:
392,280,48327,2,0,P|440:224|412:136,1,170
352,40,48897,1,0,0:0:0:0:
472,44,49087,2,0,P|476:84|456:128,1,85
360,288,49656,6,0,P|324:296|272:288,1,85
340,200,50036,2,0,P|272:208|172:244,1,170
104,304,50606,1,0,0:0:0:0:
104,304,50701,1,0,0:0:0:0:
104,304,50796,2,0,P|60:276|48:232,1,85
76,160,51175,1,0,0:0:0:0:
76,160,51365,6,0,P|112:100|196:40,1,170
296,56,51935,1,0,0:0:0:0:
408,56,52125,2,0,P|428:88|432:144,1,85
404,240,52505,2,0,P|252:244|188:164,1,255
144,72,53264,2,0,P|104:104|88:144,1,85
68,220,53644,5,0,0:0:0:0:
176,208,53834,1,0,0:0:0:0:
196,312,54024,1,0,0:0:0:0:
84,332,54213,1,0,0:0:0:0:
68,216,54403,2,0,P|80:176|116:140,1,85
116,136,54688,1,0,0:0:0:0:
128,128,54783,1,0,0:0:0:0:
140,120,54878,1,0,0:0:0:0:
152,112,54973,1,0,0:0:0:0:
164,104,55068,1,0,0:0:0:0:
176,96,55163,1,0,0:0:0:0:
188,88,55258,1,0,0:0:0:0:
200,80,55353,2,0,P|268:52|372:72,1,170
460,116,55922,5,0,0:0:0:0:
376,196,56112,1,0,0:0:0:0:
456,268,56302,2,0,P|444:308|400:324,1,75
320,324,56682,1,0,0:0:0:0:
280,224,56872,1,0,0:0:0:0:
320,324,57062,5,0,0:0:0:0:
224,312,57251,1,0,0:0:0:0:
136,256,57441,2,0,P|116:196|120:164,1,85
120,76,57821,1,0,0:0:0:0:
148,64,57916,1,0,0:0:0:0:
184,76,58011,1,0,0:0:0:0:
264,136,58201,1,0,0:0:0:0:
364,72,58391,1,0,0:0:0:0:
460,192,58770,5,0,0:0:0:0:
456,296,58960,2,0,P|392:256|344:168,1,170
428,116,59530,2,0,P|396:80|340:72,1,75
264,60,59910,2,0,P|232:76|196:116,1,85
308,156,60289,2,0,P|276:192|228:204,1,85
208,104,60669,2,0,P|160:132|144:160,1,85
64,164,61049,2,0,P|64:204|92:244,1,85
36,316,61429,5,0,0:0:0:0:
160,328,61713,2,0,P|228:320|248:192,1,212.5
148,128,62378,2,0,P|176:88|232:68,1,85
320,68,62758,1,0,0:0:0:0:
348,244,63137,1,0,0:0:0:0:
232,256,63327,2,0,P|176:252|152:220,1,85
104,144,63707,1,0,0:0:0:0:
92,132,63802,1,0,0:0:0:0:
80,120,63897,2,0,P|64:68|72:32,1,85
176,32,64277,5,0,0:0:0:0:
416,224,64846,1,0,0:0:0:0:
432,344,65036,2,0,P|380:340|280:236,1,170
320,152,65606,1,0,0:0:0:0:
416,224,65796,1,0,0:0:0:0:
160,280,66365,6,0,P|176:236|156:192,1,85
88,136,66745,1,0,0:0:0:0:
176,64,66935,1,0,0:0:0:0:
176,64,67030,1,0,0:0:0:0:
176,64,67125,6,0,P|144:56|108:64,4,42.5,0|0|0|0|0,0:0|0:0|0:0|0:0|0:0,0:0:0:0:
280,112,67694,1,0,0:0:0:0:
368,188,67884,1,0,0:0:0:0:
412,296,68074,6,0,P|376:328|308:328,1,85
316,232,68454,2,0,P|264:232|228:260,1,85
328,324,68834,1,0,0:0:0:0:
224,336,69024,1,0,0:0:0:0:
132,284,69213,2,0,P|108:232|136:176,1,85
128,112,69593,2,0,L|324:88,1,170
408,76,70163,5,0,0:0:0:0:
296,92,70353,1,0,0:0:0:0:
208,168,70543,1,0,0:0:0:0:
116,96,70732,1,0,0:0:0:0:
200,24,70922,1,0,0:0:0:0:
296,92,71112,1,0,0:0:0:0:
272,208,71302,2,0,P|216:248|168:256,2,85
344,116,71872,2,0,P|268:56|192:40,1,170
128,128,72441,6,0,P|132:172|160:216,1,85
336,208,73011,1,0,0:0:0:0:
336,208,73201,1,0,0:0:0:0:
440,192,73391,1,0,0:0:0:0:
440,192,73581,6,0,P|456:104|376:48,1,170
320,100,74150,1,0,0:0:0:0:
332,76,74245,1,0,0:0:0:0:
312,48,74340,1,0,0:0:0:0:
228,80,74530,2,0,L|140:136,1,85
156,220,74910,2,0,L|232:288,2,85,0|0|0,0:0|0:0|0:0,0:0:0:0:
156,124,75479,2,0,L|252:68,2,85
88,172,76049,2,0,L|0:172,2,85,0|0|0,0:0|0:0|0:0,0:0:0:0:
212,176,76618,2,0,P|268:216|248:108,1,255
64,232,77568,5,0,0:0:0:0:
144,296,77758,1,0,0:0:0:0:
256,312,77948,2,0,P|336:312|420:264,1,170
420,164,78517,1,0,0:0:0:0:
420,164,78707,1,0,0:0:0:0:
92,88,79277,2,0,P|104:156|136:172,1,85
204,228,79656,1,0,0:0:0:0:
336,80,80036,5,0,0:0:0:0:
416,180,80226,2,0,P|416:212|400:232,4,42.5
348,276,80796,1,0,0:0:0:0:
240,296,80986,1,0,0:0:0:0:
240,296,81175,5,0,0:0:0:0:
140,244,81365,2,0,P|136:204|164:124,1,85
176,72,81745,1,0,0:0:0:0:
192,68,81840,1,0,0:0:0:0:
208,64,81935,1,0,0:0:0:0:
224,60,82030,1,0,0:0:0:0:
240,56,82125,6,0,L|344:48,1,85,0|0,0:0|0:0,0:0:0:0:
428,52,82505,2,0,B|400:104|432:128|432:128|468:160|428:224,1,170
376,284,83074,1,0,0:0:0:0:
264,296,83264,2,0,P|216:300|152:284,1,85
64,264,83644,1,0,0:0:0:0:
120,160,83834,5,0,0:0:0:0:
208,72,84024,1,0,0:0:0:0:
256,180,84213,1,0,0:0:0:0:
344,112,84403,2,0,P|392:132|416:176,1,85
372,264,84783,1,0,0:0:0:0:
360,272,84878,1,0,0:0:0:0:
348,280,84973,1,0,0:0:0:0:
336,288,85068,1,0,0:0:0:0:
324,296,85163,2,0,L|256:312,4,42.5,0|0|0|0|0,0:0|0:0|0:0|0:0|0:0,0:0:0:0:
424,256,85732,6,0,B|448:204|432:168|428:124|380:92,1,170
304,48,86302,1,0,0:0:0:0:
304,48,86397,1,0,0:0:0:0:
304,48,86492,1,0,0:0:0:0:
200,56,86682,2,0,L|132:120,1,85
224,136,87062,2,0,L|152:204,1,85
84,252,87441,1,0,0:0:0:0:
84,252,87631,1,0,0:0:0:0:
352,156,88011,5,0,0:0:0:0:
444,216,88201,2,0,P|372:272|272:304,1,170
172,304,88770,5,0,0:0:0:0:
72,240,88960,1,0,0:0:0:0:
172,304,89150,1,0,0:0:0:0:
180,180,89340,1,0,0:0:0:0:
180,180,89435,1,0,0:0:0:0:
180,180,89530,1,0,0:0:0:0:
116,96,89720,2,0,P|156:80|216:80,1,85
312,84,90100,6,0,P|408:120|456:184,1,170,0|0,0:0|0:0,0:0:0:0:
428,272,90669,1,0,0:0:0:0:
216,300,91049,5,0,0:0:0:0:
136,240,91239,2,0,P|96:196|112:148,1,85
120,72,91618,1,0,0:0:0:0:
144,48,91713,1,0,0:0:0:0:
168,36,91808,6,0,P|208:24|272:44,1,85
352,68,92188,1,0,0:0:0:0:
392,160,92378,2,0,P|400:184|396:208,2,42.5
340,56,92758,1,0,0:0:0:0:
296,280,93137,6,0,P|200:276|112:252,1,170
40,224,93707,1,0,0:0:0:0:
48,120,93897,1,0,0:0:0:0:
64,76,93992,1,0,0:0:0:0:
108,48,94087,1,0,0:0:0:0:
220,24,94277,1,0,0:0:0:0:
284,116,94467,1,0,0:0:0:0:
352,28,94656,2,0,P|400:52|432:96,1,85
432,172,95036,6,0,P|384:228|348:236,1,85
276,232,95416,1,0,0:0:0:0:
204,136,95606,1,0,0:0:0:0:
136,228,95796,1,0,0:0:0:0:
168,312,95986,2,0,P|220:328|252:320,1,85
348,288,96365,1,0,0:0:0:0:
348,288,96555,2,0,P|388:268|408:228,1,85
476,156,96935,2,0,P|436:112|396:96,1,85
368,176,97315,2,0,B|316:152|316:112,1,85
224,64,97694,1,0,0:0:0:0:
224,192,97884,1,0,0:0:0:0:
80,192,98074,1,0,0:0:0:0:
140,284,98264,2,0,P|196:316|304:292,1,170
380,232,98834,5,0,0:0:0:0:
380,124,99024,1,0,0:0:0:0:
380,124,99118,1,0,0:0:0:0:
380,124,99213,1,0,0:0:0:0:
300,48,99403,2,0,P|240:36|200:48,1,85
128,104,99783,1,0,0:0:0:0:
80,200,99973,2,0,P|88:244|128:280,1,85
208,312,100353,1,0,0:0:0:0:
208,312,100543,1,0,0:0:0:0:
432,112,100922,5,0,0:0:0:0:
344,56,101112,1,0,0:0:0:0:
240,56,101302,6,0,P|192:56|144:60,1,85
48,80,101682,2,0,P|44:136|56:184,1,85
152,152,102062,2,0,P|148:212|128:252,1,85
48,164,102441,2,0,P|44:120|48:68,1,85
168,72,102821,1,0,0:0:0:0:
48,80,103011,1,0,0:0:0:0:
168,72,103201,2,0,P|208:108|220:156,1,85
328,136,103581,2,0,P|332:188|300:240,1,85
296,316,103960,2,0,P|260:340|204:332,1,85
116,320,104340,2,0,P|92:224|104:144,1,170
304,68,105100,5,0,0:0:0:0:
408,112,105289,2,0,P|428:156|424:212,1,85
404,296,105669,2,0,P|316:312|296:312,1,85
248,240,106049,2,0,P|296:224|324:184,1,85
368,116,106429,1,0,0:0:0:0:
368,116,106618,1,0,0:0:0:0:
372,12,106808,1,0,0:0:0:0:
372,12,106998,1,0,0:0:0:0:
272,56,107188,5,0,0:0:0:0:
176,56,107378,2,0,P|80:80|48:156,1,170
160,164,107948,1,0,0:0:0:0:
108,260,108137,1,0,0:0:0:0:
212,312,108327,2,0,P|300:292|380:268,1,170
280,196,108897,2,0,L|368:176,1,85
448,108,109277,2,0,P|360:48|280:68,1,170
184,64,109846,5,0,0:0:0:0:
120,152,110036,1,0,0:0:0:0:
244,160,110226,1,0,0:0:0:0:
172,232,110416,1,0,0:0:0:0:
140,320,110606,6,0,P|212:336|324:296,1,170
380,240,111175,1,0,0:0:0:0:
392,128,111365,1,0,0:0:0:0:
392,128,111460,1,0,0:0:0:0:
392,128,111555,1,0,0:0:0:0:
304,48,111745,6,0,P|256:40|216:52,1,85
260,116,112125,2,0,P|204:120|168:104,1,85
112,64,112505,2,0,P|92:120|180:188,1,170
180,112,113074,1,0,0:0:0:0:
284,108,113264,5,0,0:0:0:0:
292,152,113359,1,0,0:0:0:0:
288,184,113454,2,0,P|196:268|144:256,1,170
196,152,114024,2,0,P|224:112|284:76,1,85
328,48,114403,2,0,P|356:88|352:136,1,85
292,216,114783,2,0,P|240:232|176:220,1,85
104,216,115163,2,0,P|140:284|240:352,1,170
320,344,115732,1,0,0:0:0:0:
212,340,115922,1,0,0:0:0:0:
272,244,116112,1,0,0:0:0:0:
300,212,116207,1,0,0:0:0:0:
312,172,116302,1,0,0:0:0:0:
352,76,116492,5,0,0:0:0:0:
264,40,116682,2,0,P|192:24|84:88,1,170
76,156,117251,1,0,0:0:0:0:
84,248,117441,1,0,0:0:0:0:
108,252,117536,1,0,0:0:0:0:
132,256,117631,2,0,L|224:280,1,85
328,292,118011,5,0,0:0:0:0:
440,260,118201,2,0,B|452:120|452:120|424:64,1,170
432,84,118675,1,0,0:0:0:0:
424,72,118770,1,0,0:0:0:0:
416,60,118865,1,0,0:0:0:0:
408,48,118960,1,0,0:0:0:0:
400,36,119055,1,0,0:0:0:0:
392,24,119150,2,0,P|344:16|280:28,1,85
320,96,119530,6,0,P|264:100|216:76,1,85
152,52,119910,2,0,P|128:96|144:144,1,85
92,232,120289,2,0,B|152:256|152:256|280:264,1,170
368,204,120859,1,0,0:0:0:0:
256,260,121049,1,0,0:0:0:0:
368,204,121239,6,0,P|276:104|216:88,1,170
120,68,121808,2,0,P|92:108|84:160,1,85
200,132,122188,2,0,P|176:224|140:304,1,170
80,228,122758,1,0,0:0:0:0:
112,120,122948,1,0,0:0:0:0:
200,52,123137,1,0,0:0:0:0:
112,120,123327,2,0,P|168:160|192:160,1,85
424,80,124087,6,0,P|448:140|456:180,1,85
404,256,124467,1,0,0:0:0:0:
284,256,124656,1,0,0:0:0:0:
348,156,124846,1,0,0:0:0:0:
460,76,125036,1,0,0:0:0:0:
436,184,125226,6,0,P|392:224|340:240,1,85
352,232,125511,1,0,0:0:0:0:
340,232,125606,2,0,P|248:292|208:236,1,170
184,160,126175,1,0,0:0:0:0:
220,268,126365,1,0,0:0:0:0:
184,160,126555,2,0,B|132:184|104:212|96:248|152:304,1,170
248,312,127125,2,0,P|280:328|336:328,1,85
440,320,127505,1,0,0:0:0:0:
440,320,127694,1,0,0:0:0:0:
424,204,127884,1,0,0:0:0:0:
388,96,128074,2,0,P|340:72|300:72,1,85
324,164,128454,2,0,P|276:144|236:100,1,85
200,40,128834,6,0,P|248:32|292:44,1,85
384,60,129213,1,0,0:0:0:0:
384,60,129403,2,0,P|416:104|424:148,1,85
352,320,130163,5,0,0:0:0:0:
248,280,130353,2,0,L|144:240,1,85
168,152,130732,2,0,L|256:120,1,85
336,200,131112,2,0,L|224:200,1,85,0|0,0:0|0:0,0:0:0:0:
256,192,141555,12,0,143074,0:0:0:0:
312,80,143454,6,0,L|372:144,1,85
440,232,143834,1,0,0:0:0:0:
296,272,144213,5,0,0:0:0:0:
236,184,144403,2,0,L|172:108,1,85
120,48,144783,1,0,0:0:0:0:
224,44,145163,6,0,L|296:128,1,85
324,216,145543,2,0,L|212:216,1,85
120,224,145922,2,0,L|120:132,1,85
120,56,146302,1,0,0:0:0:0:
120,56,146492,6,0,L|296:56,1,170
416,56,147251,2,0,L|416:232,1,170
416,324,147821,2,0,L|324:324,1,85
324,240,148201,2,0,L|440:240,1,85
416,324,148581,1,0,0:0:0:0:
416,324,148770,5,0,0:0:0:0:
312,324,149150,1,0,0:0:0:0:
208,324,149530,2,0,P|200:200|208:144,1,170,0|0,0:0|0:0,0:0:0:0:
244,20,150289,1,0,0:0:0:0:
244,20,150479,1,0,0:0:0:0:
348,20,150669,1,0,0:0:0:0:
348,20,150859,1,0,0:0:0:0:
416,200,151239,5,0,0:0:0:0:
320,240,151429,2,0,L|220:284,1,85
144,312,151808,1,0,0:0:0:0:
128,140,152188,6,0,L|208:100,1,85
292,56,152568,1,0,0:0:0:0:
364,188,152948,5,0,0:0:0:0:
256,192,153137,2,0,P|204:212|176:244,1,85
264,276,153517,2,0,P|232:304|184:316,1,85
80,356,154087,1,0,0:0:0:0:
140,176,154467,1,0,0:0:0:0:
296,308,154846,1,0,0:0:0:0:
140,176,155226,6,0,P|176:100|272:56,1,170
364,52,155796,1,0,0:0:0:0:
476,128,156175,2,0,P|444:184|420:200,1,85
316,200,156555,1,0,0:0:0:0:
304,92,156745,2,0,P|340:72|408:68,1,85
484,84,157125,1,0,0:0:0:0:
468,184,157315,2,0,P|412:160|384:116,1,85,0|0,0:0|0:0,0:0:0:0:
344,56,157694,1,0,0:0:0:0:
216,52,157884,6,0,L|172:136,1,85
128,216,158264,1,0,0:0:0:0:
128,216,158454,1,0,0:0:0:0:
68,304,158644,2,0,P|100:320|248:308,1,170
328,264,159213,1,0,0:0:0:0:
404,196,159403,1,0,0:0:0:0:
304,152,159593,2,0,P|200:188|132:228,1,170
60,276,160163,1,0,0:0:0:0:
272,328,160543,1,0,0:0:0:0:
200,144,160922,6,0,L|232:128,8,21.25,0|0|0|0|0|0|0|0|0,0:0|0:0|0:0|0:0|0:0|0:0|0:0|0:0|0:0,0:0:0:0:
108,196,161492,1,0,0:0:0:0:
208,280,161682,6,0,P|240:252|256:192,1,85
228,112,162062,1,0,0:0:0:0:
328,112,162251,2,0,P|352:144|352:200,1,85
320,284,162631,1,0,0:0:0:0:
228,216,162821,2,0,P|256:180|320:152,1,85
400,136,163201,1,0,0:0:0:0:
444,232,163391,2,0,P|388:232|336:208,1,85
268,156,163770,1,0,0:0:0:0:
152,124,163960,6,0,L|108:200,2,85,0|0|0,0:0|0:0|0:0,0:0:0:0:
192,28,164530,1,0,0:0:0:0:
312,40,164720,2,0,P|368:56|420:112,1,127.5
452,236,165289,1,0,0:0:0:0:
216,288,165669,1,0,0:0:0:0:
452,236,166049,6,0,P|408:100|360:76,1,170
292,56,166618,1,0,0:0:0:0:
176,56,166808,1,0,0:0:0:0:
176,56,166903,1,0,0:0:0:0:
176,56,166998,1,0,0:0:0:0:
108,160,167188,1,0,0:0:0:0:
236,160,167378,1,0,0:0:0:0:
236,160,167568,1,0,0:0:0:0:
444,280,167948,6,0,P|276:336|260:336,1,170
176,336,168517,1,0,0:0:0:0:
80,292,168707,2,0,P|60:220|72:192,1,85
168,172,169087,1,0,0:0:0:0:
428,112,169467,2,0,P|416:176|388:204,1,85
296,200,169846,1,0,0:0:0:0:
296,96,170036,2,0,P|348:56|408:136,1,170
336,208,170606,5,0,0:0:0:0:
276,304,170796,2,0,P|216:336|200:328,1,85
184,256,171175,2,0,P|256:232|260:236,1,85
276,304,171555,2,0,P|172:340|168:320,1,170
124,232,172125,2,0,P|92:160|96:116,1,85
140,76,172505,1,0,0:0:0:0:
140,76,172694,1,0,0:0:0:0:
244,64,172884,1,0,0:0:0:0:
244,64,173074,1,0,0:0:0:0:
208,220,173454,1,0,0:0:0:0:
408,200,173834,5,0,0:0:0:0:
208,220,174213,1,0,0:0:0:0:
288,80,174593,1,0,0:0:0:0:
312,240,174973,1,0,0:0:0:0:
300,152,175163,1,0,0:0:0:0:
324,328,175543,1,0,0:0:0:0:
164,308,175922,2,0,B|120:264|120:232,1,85
200,208,176302,2,0,P|176:172|124:136,1,85
176,40,176872,6,0,P|324:32|356:44,1,170
440,96,177441,1,0,0:0:0:0:
440,200,177631,2,0,P|320:176|260:144,1,170
324,72,178201,1,0,0:0:0:0:
216,36,178391,2,0,P|88:88|64:116,1,170
76,232,179150,5,0,0:0:0:0:
88,244,179245,1,0,0:0:0:0:
100,256,179340,1,0,0:0:0:0:
112,268,179435,1,0,0:0:0:0:
124,280,179530,1,0,0:0:0:0:
136,296,179625,1,0,0:0:0:0:
148,308,179720,2,0,L|256:308,1,85
340,308,180100,5,0,0:0:0:0:
400,208,180289,2,0,P|404:160|372:112,1,85
292,76,180669,1,0,0:0:0:0:
292,76,180859,1,0,0:0:0:0:
260,172,181049,1,0,0:0:0:0:
260,172,181239,1,0,0:0:0:0:
360,180,181429,6,0,P|352:240|316:276,1,85
228,276,181808,1,0,0:0:0:0:
228,276,181998,1,0,0:0:0:0:
156,200,182188,1,0,0:0:0:0:
156,200,182378,1,0,0:0:0:0:
160,100,182568,2,0,P|212:108|248:148,1,85
248,220,182948,6,0,P|200:248|148:256,1,85
64,248,183327,1,0,0:0:0:0:
64,248,183517,1,0,0:0:0:0:
84,144,183707,1,0,0:0:0:0:
84,144,183897,1,0,0:0:0:0:
168,128,184087,2,0,L|224:216,1,85
268,296,184467,5,0,0:0:0:0:
268,296,184656,1,0,0:0:0:0:
360,248,184846,1,0,0:0:0:0:
360,248,185036,1,0,0:0:0:0:
308,168,185226,1,0,0:0:0:0:
308,168,185416,1,0,0:0:0:0:
220,208,185606,1,0,0:0:0:0:
220,208,185796,1,0,0:0:0:0:
108,216,185986,6,0,P|100:172|120:124,1,85
184,80,186365,2,0,P|200:128|188:168,1,85
108,112,186745,2,0,P|148:88|204:80,1,85
220,152,187125,2,0,P|260:124|280:80,1,85
376,44,187505,2,0,P|360:104|376:160,1,85
432,196,187884,5,0,0:0:0:0:
432,196,188074,1,0,0:0:0:0:
320,196,188264,1,0,0:0:0:0:
320,196,188454,1,0,0:0:0:0:
212,196,188644,1,0,0:0:0:0:
212,196,188834,1,0,0:0:0:0:
104,196,189024,6,0,L|104:280,1,85
200,280,189403,2,0,L|200:196,1,85
296,196,189783,2,0,L|296:284,1,85
392,284,190163,2,0,L|392:192,1,85
392,112,190543,6,0,P|368:80|316:68,1,85
304,152,190922,2,0,P|336:180|412:212,1,85
452,220,191302,2,0,P|462:180|464:120,1,85
472,48,191682,2,0,P|412:52|384:40,1,85
284,28,192062,5,0,0:0:0:0:
112,40,192441,2,0,P|40:132|40:192,1,170
112,256,193011,1,0,0:0:0:0:
196,188,193201,2,0,P|176:124|140:80,1,85
112,40,193581,1,0,0:0:0:0:
48,120,193770,2,0,P|36:176|44:220,1,85
92,296,194150,1,0,0:0:0:0:
128,216,194340,2,0,P|144:160|136:120,2,85,0|0|0,0:0|0:0|0:0,0:0:0:0:
92,296,194910,5,0,0:0:0:0:
228,280,195100,1,0,0:0:0:0:
336,120,195479,1,0,0:0:0:0:
336,120,195669,2,0,P|264:80|248:80,1,85
168,88,196049,1,0,0:0:0:0:
168,88,196239,1,0,0:0:0:0:
64,128,196429,2,0,B|28:188|84:244|128:280,1,170
204,328,196998,5,0,0:0:0:0:
304,244,197188,1,0,0:0:0:0:
188,208,197378,1,0,0:0:0:0:
188,208,197473,1,0,0:0:0:0:
188,208,197568,1,0,0:0:0:0:
88,272,197758,2,0,P|120:296|264:324,1,170
356,296,198327,5,0,0:0:0:0:
468,252,198517,2,0,P|408:116|376:100,1,170
328,180,199087,1,0,0:0:0:0:
352,272,199277,2,0,P|404:231|416:176,1,85
437,138,199656,1,0,0:0:0:0:
416,44,199846,2,0,B|372:64|324:112|324:112,1,85
408,164,200226,2,0,P|272:168|232:136,1,170
184,64,200796,1,0,0:0:0:0:
72,120,200986,5,0,0:0:0:0:
188,164,201175,1,0,0:0:0:0:
96,248,201365,1,0,0:0:0:0:
36,32,201745,2,0,P|68:16|232:28,1,170
304,48,202315,1,0,0:0:0:0:
412,80,202505,2,0,P|416:144|408:180,1,85
348,324,203074,6,0,L|240:312,1,85
168,304,203454,1,0,0:0:0:0:
72,296,203644,1,0,0:0:0:0:
80,200,203834,2,0,L|88:104,1,85
92,28,204213,1,0,0:0:0:0:
280,48,204593,5,0,0:0:0:0:
392,116,204973,2,0,P|424:168|420:220,1,85
404,296,205353,1,0,0:0:0:0:
308,228,205543,2,0,P|356:188|400:172,1,85
472,148,205922,1,0,0:0:0:0:
432,248,206112,1,0,0:0:0:0:
384,164,206302,2,0,P|340:112|236:96,1,170
144,152,206872,2,0,P|180:184|308:168,1,170
324,76,207441,1,0,0:0:0:0:
324,76,207631,1,0,0:0:0:0:
208,76,207821,5,0,0:0:0:0:
208,76,208011,1,0,0:0:0:0:
124,148,208201,2,0,P|136:192|160:232,1,85
288,240,208581,2,0,P|244:148|184:84,1,170
76,60,209150,1,0,0:0:0:0:
124,140,209340,2,0,P|164:156|224:144,2,85,0|0|0,0:0|0:0|0:0,0:0:0:0:
76,61,209910,1,0,0:0:0:0:
193,38,210100,1,0,0:0:0:0:
193,38,210194,1,0,0:0:0:0:
193,38,210289,1,0,0:0:0:0:
464,112,210669,6,0,B|340:116|420:288|280:256,1,255
176,244,211429,1,0,0:0:0:0:
80,160,211618,2,0,P|128:128|260:124,1,170
348,152,212188,2,0,P|328:200|284:232,1,85
176,244,212568,2,0,P|180:152|236:88,1,170
320,68,213137,5,0,0:0:0:0:
320,68,213327,1,0,0:0:0:0:
432,192,213707,1,0,0:0:0:0:
432,192,213897,2,0,L|312:60,1,170
244,24,214467,1,0,0:0:0:0:
244,24,214656,1,0,0:0:0:0:
96,144,215036,5,0,0:0:0:0:
96,144,215131,1,0,0:0:0:0:
96,144,215226,2,0,P|104:192|160:236,1,85
224,236,215606,1,0,0:0:0:0:
224,236,215796,1,0,0:0:0:0:
332,220,215986,2,0,P|352:184|360:136,1,85
328,56,216365,5,0,0:0:0:0:
148,60,216745,2,0,P|84:64|56:84,1,85
0,136,217125,1,0,0:0:0:0:
56,268,217505,2,0,P|80:300|140:304,1,85
220,304,217884,2,0,P|292:304|392:264,1,170
432,204,218644,5,0,0:0:0:0:
432,204,218834,1,0,0:0:0:0:
400,104,219024,1,0,0:0:0:0:
400,104,219213,1,0,0:0:0:0:
320,44,219403,1,0,0:0:0:0:
320,44,219783,2,0,P|224:40|152:80,1,170
68,168,220543,2,0,P|52:228|104:332,1,170
256,328,221302,2,0,P|312:308|384:208,1,170
360,120,221872,1,0,0:0:0:0:
264,56,222062,5,0,0:0:0:0:
264,56,222156,1,0,0:0:0:0:
264,56,222251,1,0,0:0:0:0:
264,56,222346,1,0,0:0:0:0:
264,56,222441,1,0,0:0:0:0:
264,56,222536,2,0,P|180:64|148:96,1,127.5
84,164,223201,1,0,0:0:0:0:
204,292,223581,5,0,0:0:0:0:
272,136,223960,1,0,0:0:0:0:
384,268,224340,1,0,0:0:0:0:
272,136,224720,1,0,0:0:0:0:
272,136,224815,1,0,0:0:0:0:
272,136,224910,2,0,P|244:88|192:76,1,85
120,64,225289,1,0,0:0:0:0:
64,164,225479,5,0,0:0:0:0:
64,164,225669,1,0,0:0:0:0:
68,272,225859,2,0,B|156:292|208:220|256:196,1,170
300,152,226429,5,0,0:0:0:0:
208,72,226618,1,0,0:0:0:0:
320,40,226808,1,0,0:0:0:0:
440,48,226998,2,0,P|444:96|424:160,1,85
408,232,227378,2,0,P|352:256|296:260,1,85
240,200,227758,2,0,P|268:120|328:44,1,170
424,40,228327,1,0,0:0:0:0:
424,40,228517,2,0,P|432:128|400:232,1,170
256,192,229087,12,0,234403,0:0:0:0:
