osu file format v13

[General]
AudioFilename: 08. Liar.mp3
AudioLeadIn: 0
PreviewTime: 65449
Countdown: 0
SampleSet: Soft
StackLeniency: 0.3
Mode: 0
LetterboxInBreaks: 0
EpilepsyWarning: 1
WidescreenStoryboard: 0

[Editor]
Bookmarks: 15859,62829,142830,142926,143023,143119,143264,143409,143506,143603,143699,143892,144086
DistanceSpacing: 1.1
BeatDivisor: 3
GridSize: 4
TimelineZoom: 3.799999

[Metadata]
Title:Liar
TitleUnicode:Liar
Artist:ONE OK ROCK
ArtistUnicode:ONE OK ROCK
Creator:Snepif
Version:Insanity
Source:
Tags:Niche Syndrome シンドローム
BeatmapID:556320
BeatmapSetID:240761

[Difficulty]
HPDrainRate:6
CircleSize:4
OverallDifficulty:7
ApproachRate:9
SliderMultiplier:1.5
SliderTickRate:1

[Events]
//Background and Video events
0,0,"BG.png",0,0
//Break Periods
2,135503,143690
//Storyboard Layer 0 (Background)
//Storyboard Layer 1 (Fail)
//Storyboard Layer 2 (Pass)
//Storyboard Layer 3 (Foreground)
//Storyboard Sound Samples

[TimingPoints]
14435,289.855072463768,4,2,2,30,1,0
14579,-133.333333333333,4,2,2,30,0,0
23710,-200,4,2,0,30,0,0
26029,-200,4,2,2,30,0,0
26898,-200,4,2,0,30,0,0
32985,-117.647058823529,4,2,1,75,0,0
34145,-200,4,2,1,75,0,0
34434,-200,4,2,1,30,0,0
35304,-117.647058823529,4,2,1,75,0,0
35449,-117.647058823529,4,2,1,75,0,0
36463,-200,4,2,1,75,0,0
37188,-117.647058823529,4,2,1,60,0,0
37333,-117.647058823529,4,2,1,60,0,0
37623,-117.647058823529,4,2,1,75,0,0
38782,-200,4,2,1,75,0,0
39362,-200,4,2,0,55,0,0
39942,-200,4,2,1,75,0,0
40087,-117.647058823529,4,2,1,75,0,0
40956,-200,4,2,1,75,0,0
41101,-153.846153846153,4,2,1,75,0,0
41971,-133.333333333333,4,2,1,50,0,0
42116,-133.333333333333,4,2,1,70,0,0
42261,-100,4,2,1,75,0,0
43130,-200,4,2,1,85,0,0
43420,-200,4,2,1,85,0,0
44724,-100,4,2,1,85,0,0
47768,-200,4,2,1,85,0,0
49217,-100,4,2,1,85,0,0
50377,-200,4,2,1,75,0,0
51536,-117.647058823529,4,2,1,85,0,0
52550,-117.647058823529,4,2,1,85,0,0
52985,-117.647058823529,4,2,1,85,0,0
53855,-117.647058823529,4,2,1,85,0,0
55594,-117.647058823529,4,2,1,50,0,0
56174,-100,4,2,1,85,0,0
60811,-200,4,2,1,85,0,0
61391,-153.846153846153,4,2,1,55,0,0
61971,-117.647058823529,4,2,1,75,0,0
62840,-117.647058823529,4,2,1,65,0,0
63130,-100,4,2,1,65,0,0
63710,-100,4,2,1,75,0,0
64290,-100,4,2,1,85,0,0
65449,-100,4,2,1,85,0,1
72406,-100,4,2,1,75,0,1
72840,-100,4,2,1,55,0,1
72913,-100,4,2,1,75,0,1
73275,-100,4,2,1,70,0,1
73565,-100,4,2,1,65,0,1
73855,-100,4,2,1,60,0,1
74145,-80,4,2,1,85,0,1
74724,-100,4,2,1,85,0,1
84000,-153.846153846154,4,2,1,75,0,0
90666,-153.846153846153,4,2,1,75,0,0
90956,-153.846153846153,4,2,1,75,0,0
92116,-153.846153846153,4,2,1,75,0,0
93275,-117.647058823529,4,2,3,75,0,0
94145,-117.647058823529,4,2,3,75,0,0
94434,-117.647058823529,4,2,3,75,0,0
95014,-117.647058823529,4,2,3,75,0,0
95594,-117.647058823529,4,2,3,75,0,0
96029,-117.647058823529,4,2,3,75,0,0
96463,-117.647058823529,4,2,3,75,0,0
97043,-117.647058823529,4,2,3,75,0,0
97913,-117.647058823529,4,2,3,75,0,0
99362,-117.647058823529,4,2,3,75,0,0
100232,-117.647058823529,4,2,3,75,0,0
101101,-117.647058823529,4,2,3,75,0,0
101971,-117.647058823529,4,2,1,65,0,0
102550,-117.647058823529,4,2,1,75,0,0
103565,-117.647058823529,4,2,1,75,0,0
104000,-117.647058823529,4,2,1,75,0,0
104869,-117.647058823529,4,2,1,75,0,0
107188,-117.647058823529,4,2,3,75,0,0
110377,-117.647058823529,4,2,3,75,0,0
110666,-117.647058823529,4,2,3,75,0,0
111826,-200,4,2,1,85,0,0
112406,-153.846153846153,4,2,1,65,0,0
112985,-117.647058823529,4,2,1,55,0,0
114145,-117.647058823529,4,2,1,65,0,0
114724,-117.647058823529,4,2,1,75,0,0
115304,-117.647058823529,4,2,1,85,0,0
116463,-100,4,2,1,85,0,1
123420,-100,4,2,1,65,0,1
123855,-100,4,2,1,45,0,1
123927,-100,4,2,1,65,0,1
124579,-100,4,2,1,55,0,1
125159,-79.9999999999999,4,2,1,85,0,1
125739,-100,4,2,1,85,0,1
135014,-200,4,2,1,95,0,0
135304,-100,4,2,1,45,0,0
144290,-117.647058823529,4,2,1,85,0,0
153275,-117.647058823529,4,2,3,85,0,0
153565,-86.9565217391303,4,2,1,85,0,1
154434,-76.9230769230769,4,2,1,85,0,1
160521,-100,4,2,1,85,0,0
160811,-100,4,2,1,65,0,0
161101,-100,4,2,1,75,0,0
161391,-100,4,2,1,85,0,0
162840,-100,4,2,1,85,0,1
169797,-100,4,2,1,65,0,1
170232,-100,4,2,1,55,0,1
170304,-100,4,2,1,65,0,1
170956,-100,4,2,1,55,0,1
171536,-79.9999999999999,4,2,1,85,0,1
172116,-100,4,2,1,85,0,1
180232,-100,4,2,1,65,0,1
181391,-100,4,2,1,75,0,0
189797,-100,4,2,1,65,0,0
190377,-100,4,2,1,55,0,0
190666,-100,4,2,1,75,0,0
201101,-100,4,2,1,65,0,0
201681,-100,4,2,1,55,0,0
202261,-100,4,2,1,45,0,0
202840,-100,4,2,1,35,0,0
203420,-100,4,2,1,30,0,0
204000,-100,4,2,1,25,0,0
205232,-100,4,2,1,20,0,0

[Colours]
Combo1 : 62,123,225
Combo2 : 254,71,67
Combo3 : 242,131,64
Combo4 : 225,64,169

[HitObjects]
360,76,14435,5,2,0:0:0:0:
360,76,14579,2,0,P|372:108|372:140,1,56.2500021457673,2|0,0:0|0:0,0:0:0:0:
264,148,14869,1,2,0:0:0:0:
264,148,15014,2,0,P|252:180|252:212,1,56.2500021457673,2|0,0:0|0:0,0:0:0:0:
364,244,15304,1,2,0:0:0:0:
364,244,15449,2,0,L|368:312,1,56.2500021457673,2|0,0:0|0:0,0:0:0:0:
256,352,15739,1,2,0:0:0:0:
256,352,15884,2,0,L|260:284,1,56.2500021457673,2|0,0:0|0:0,0:0:0:0:
160,360,16174,2,0,L|166:239,1,112.500004291535,2|2,0:0|0:0,0:0:0:0:
144,368,16753,5,2,0:0:0:0:
144,368,16898,2,0,L|146:305,1,56.2500021457673,2|0,0:0|0:0,0:0:0:0:
152,200,17188,1,2,0:0:0:0:
152,200,17333,2,0,P|112:196|92:200,1,56.2500021457673,2|0,0:0|0:0,0:0:0:0:
252,276,17623,1,2,0:0:0:0:
252,276,17768,2,0,P|292:280|312:276,1,56.2500021457673,2|0,0:0|0:0,0:0:0:0:
360,176,18058,1,2,0:0:0:0:
360,176,18203,2,0,L|358:119,1,56.2500021457673,2|0,0:0|0:0,0:0:0:0:
300,32,18492,2,0,P|256:24|184:36,1,112.500004291535,2|2,0:0|0:0,0:0:0:0:
288,24,19072,5,2,0:0:0:0:
288,24,19217,2,0,P|264:16|228:20,1,56.2500021457673,2|0,0:0|0:0,0:0:0:0:
140,76,19507,1,2,0:0:0:0:
140,76,19652,2,0,L|136:140,1,56.2500021457673,2|0,0:0|0:0,0:0:0:0:
344,156,19942,1,2,0:0:0:0:
344,156,20087,2,0,L|348:220,1,56.2500021457673,2|0,0:0|0:0,0:0:0:0:
262,285,20377,1,2,0:0:0:0:
262,285,20521,2,0,P|234:287|207:279,1,56.2500021457673,2|0,0:0|0:0,0:0:0:0:
329,246,20811,2,0,P|336:300|308:348,1,112.500004291535,2|2,0:0|0:0,0:0:0:0:
345,244,21391,5,2,0:0:0:0:
345,244,21536,2,0,P|352:274|350:303,1,56.2500021457673,2|0,0:0|0:0,0:0:0:0:
408,172,21826,1,2,0:0:0:0:
408,172,21971,2,0,P|432:204|436:232,1,56.2500021457673,2|0,0:0|0:0,0:0:0:0:
412,76,22261,1,2,0:0:0:0:
412,76,22406,2,0,P|444:76|480:100,1,56.2500021457673,2|0,0:0|0:0,0:0:0:0:
328,120,22695,1,2,0:0:0:0:
328,120,22840,2,0,P|296:120|260:96,1,56.2500021457673,2|0,0:0|0:0,0:0:0:0:
208,44,23130,2,0,B|192:76|188:108|188:108|200:168,1,112.500004291535,2|2,0:0|0:0,0:0:0:0:
164,104,23710,6,0,L|180:180,1,75,0|2,0:0|0:0,0:0:0:0:
232,336,24290,1,0,0:0:0:0:
232,336,24579,2,0,P|320:352|368:312,2,150,2|2|2,0:0|0:0|0:0,0:0:0:0:
128,216,26029,1,2,0:0:0:0:
128,216,26174,2,0,L|120:128,1,75,2|2,0:0|0:0,0:0:0:0:
112,68,26608,1,2,0:0:0:0:
100,288,26898,6,0,P|134:293|183:273,1,75,2|2,0:0|0:0,0:0:0:0:
228,228,27333,1,0,0:0:0:0:
304,236,27478,2,0,P|308:268|308:284,1,37.5,2|0,0:0|0:0,0:0:0:0:
228,228,27768,1,2,0:0:0:0:
268,164,27913,2,0,P|308:156|344:168,1,75,0|0,0:0|0:0,0:0:0:0:
416,344,28348,6,0,L|336:348,1,75,0|2,0:0|0:0,0:0:0:0:
192,344,28927,1,0,0:0:0:0:
68,260,29217,2,0,B|44:192|96:176|64:108,2,150,2|2|2,0:0|0:0|0:0,0:0:0:0:
256,288,30666,1,0,0:0:0:0:
444,260,30956,6,0,P|456:224|452:184,1,75,2|0,0:0|0:0,0:0:0:0:
320,120,31536,2,0,P|308:156|312:196,1,75,2|0,0:0|0:0,0:0:0:0:
444,260,32116,1,2,0:0:0:0:
444,260,32406,2,0,P|456:224|452:184,1,75,0|2,0:0|0:0,0:0:0:0:
264,328,32985,5,2,0:0:0:0:
264,328,33130,2,0,L|116:332,2,127.50000243187,2|2|2,0:0|0:0|0:0,0:0:0:0:
488,232,34000,1,2,0:0:0:0:
488,232,34145,2,0,L|328:240,1,150,8|0,0:0|0:0,0:0:0:0:
116,252,35304,5,2,0:0:0:0:
116,252,35449,2,0,P|92:184|112:124,2,127.50000243187,2|2|2,0:0|0:0|0:0,0:0:0:0:
282,326,36319,1,2,0:0:0:0:
358,329,36463,2,0,P|370:285|370:241,1,75,8|0,0:0|0:0,0:0:0:0:
402,113,37043,1,2,0:0:0:0:
263,133,37188,1,2,0:0:0:0:
355,39,37333,1,2,0:0:0:0:
340,179,37478,1,2,0:0:0:0:
272,48,37623,5,2,0:0:0:0:
402,112,37768,2,0,L|411:245,2,127.50000243187,2|2|2,0:0|0:0|0:0,0:0:0:0:
259,46,38637,1,2,0:0:0:0:
259,46,38782,2,0,L|257:133,1,75,8|0,0:0|0:0,0:0:0:0:
107,132,39363,2,0,L|106:86,1,37.5,2|0,0:0|0:0,0:0:0:0:
166,49,39652,1,0,0:0:0:0:
166,49,39797,1,0,0:0:0:0:
20,67,39942,5,2,0:0:0:0:
20,67,40087,2,0,L|25:200,2,127.50000243187,2|2|2,0:0|0:0|0:0,0:0:0:0:
166,49,40956,1,2,0:0:0:0:
235,27,41101,2,0,P|239:65|204:112,1,97.4999955368044,8|2,0:0|0:0,0:0:0:0:
64,208,41681,6,0,L|68:264,1,48.7499977684022,8|0,0:0|0:0,0:0:0:0:
124,328,41971,2,0,L|160:324,3,28.1250010728836,8|8|8|8,0:0|0:0|0:0|0:0,0:0:0:0:
196,320,42261,5,2,0:0:0:0:
268,360,42406,1,2,0:0:0:0:
349,353,42550,2,0,P|389:349|417:325,1,75,8|2,0:0|0:0,0:0:0:0:
472,228,42840,2,0,P|479:191|474:154,1,75,0|2,0:0|0:0,0:0:0:0:
384,248,43130,6,0,L|304:240,1,75,8|0,0:0|0:0,0:0:0:0:
272,112,43710,2,0,L|352:120,1,75,8|0,0:0|0:0,0:0:0:0:
380,284,44290,2,0,L|300:276,1,75,8|2,0:0|0:0,0:0:0:0:
128,248,44724,1,2,0:0:0:0:
112,160,44869,1,8,0:0:0:0:
124,70,45014,2,0,P|160:82|188:114,1,75,2|0,0:0|0:0,0:0:0:0:
112,160,45304,1,2,0:0:0:0:
124,70,45449,6,0,P|167:67|207:77,1,75,8|0,0:0|0:0,0:0:0:0:
307,152,45739,2,0,L|302:229,1,75,0|0,0:0|0:0,0:0:0:0:
439,120,46029,2,0,L|434:43,1,75,8|0,0:0|0:0,0:0:0:0:
288,163,46319,2,0,L|283:240,1,75,0|0,0:0|0:0,0:0:0:0:
457,110,46608,2,0,L|452:33,1,75,8|0,0:0|0:0,0:0:0:0:
466,198,46898,5,2,0:0:0:0:
456,288,47043,1,2,0:0:0:0:
388,348,47188,1,8,0:0:0:0:
300,356,47333,2,0,P|252:352|228:332,1,75,2|0,0:0|0:0,0:0:0:0:
388,348,47623,1,2,0:0:0:0:
300,356,47768,6,0,L|296:280,1,75,8|0,0:0|0:0,0:0:0:0:
136,176,48348,2,0,L|140:252,1,75,8|0,0:0|0:0,0:0:0:0:
316,364,48927,2,0,L|312:288,1,75,8|2,0:0|0:0,0:0:0:0:
303,209,49362,5,2,0:0:0:0:
378,242,49507,1,8,0:0:0:0:
439,190,49652,2,0,P|409:168|373:162,1,75,2|0,0:0|0:0,0:0:0:0:
378,242,49942,1,2,0:0:0:0:
303,209,50087,2,0,P|288:169|294:131,1,75,8|0,0:0|0:0,0:0:0:0:
303,209,50377,5,8,0:0:0:0:
265,288,50521,1,2,0:0:0:0:
173,293,50666,1,2,0:0:0:0:
106,233,50811,1,2,0:0:0:0:
119,146,50956,2,0,L|205:139,1,75,8|2,0:0|0:0,0:0:0:0:
111,159,51536,6,0,B|231:151|231:151|257:156|257:156|306:153,2,191.250003647804,6|2|2,0:0|0:0|0:0,0:0:0:0:
99,269,52550,2,0,P|103:309|111:338,1,63.7500012159348,8|0,0:0|0:0,0:0:0:0:
188,355,52840,1,2,0:0:0:0:
270,345,52985,1,2,0:0:0:0:
270,345,53275,2,0,P|285:287|254:211,1,127.50000243187,8|0,0:0|0:0,0:0:0:0:
110,93,53855,2,0,P|95:151|126:227,1,127.50000243187,2|0,0:0|0:0,0:0:0:0:
70,283,54290,2,0,P|142:250|201:257,1,127.50000243187,2|0,0:0|0:0,0:0:0:0:
258,298,54724,1,2,0:0:0:0:
329,340,54869,6,0,L|332:205,1,127.50000243187,8|2,0:0|0:0,0:0:0:0:
456,89,55304,2,0,L|453:224,1,127.50000243187,8|8,0:0|0:0,0:0:0:0:
429,293,55691,2,0,L|377:286,1,42.5000008106232,8|8,0:0|0:0,0:0:0:0:
336,220,55884,2,0,L|388:213,2,42.5000008106232,0|8|8,0:0|0:0|0:0,0:0:0:0:
295,292,56174,5,2,0:0:0:0:
204,356,56319,2,0,P|165:358|112:334,1,75,2|8,0:0|0:0,0:0:0:0:
52,272,56608,2,0,L|47:113,1,150,0|0,0:0|0:0,0:0:0:0:
241,185,57043,1,8,0:0:0:0:
241,185,57188,2,0,L|236:26,1,150,8|0,0:0|0:0,0:0:0:0:
189,243,57623,2,0,P|227:262|267:260,1,75,8|0,0:0|0:0,0:0:0:0:
294,129,57913,1,2,0:0:0:0:
294,129,58058,2,0,P|256:110|216:112,2,75,2|8|0,0:0|0:0|0:0,0:0:0:0:
360,178,58492,5,2,0:0:0:0:
441,167,58637,1,2,0:0:0:0:
471,90,58782,1,8,0:0:0:0:
428,19,58927,2,0,L|341:14,1,75,0|0,0:0|0:0,0:0:0:0:
218,85,59217,1,0,0:0:0:0:
174,155,59362,1,8,0:0:0:0:
174,155,59507,2,0,P|153:236|176:301,1,150,8|0,0:0|0:0,0:0:0:0:
322,343,59942,2,0,L|401:336,1,75,8|0,0:0|0:0,0:0:0:0:
444,194,60232,1,2,0:0:0:0:
444,194,60377,1,2,0:0:0:0:
444,194,60521,2,0,L|365:201,1,75,8|0,0:0|0:0,0:0:0:0:
312,356,60811,5,6,0:0:0:0:
312,356,61101,2,0,L|391:349,1,75,8|2,0:0|0:0,0:0:0:0:
228,368,61536,2,0,P|212:320|220:272,1,97.4999955368044,2|2,0:0|0:0,0:0:0:0:
252,204,61971,5,2,0:0:0:0:
324,176,62116,1,2,0:0:0:0:
396,200,62261,1,2,0:0:0:0:
432,268,62406,1,2,0:0:0:0:
420,344,62550,2,0,L|344:348,1,63.7500012159348,8|2,0:0|0:0,0:0:0:0:
196,264,62840,2,0,L|272:260,1,63.7500012159348,2|2,0:0|0:0,0:0:0:0:
424,152,63130,6,0,L|340:156,1,75,2|0,0:0|0:0,0:0:0:0:
172,304,63420,2,0,L|256:300,1,75,2|0,0:0|0:0,0:0:0:0:
432,144,63710,2,0,L|348:148,1,75,2|2,0:0|0:0,0:0:0:0:
164,320,64000,2,0,L|248:316,1,75,2|2,0:0|0:0,0:0:0:0:
444,136,64290,2,0,L|360:140,1,75,2|2,0:0|0:0,0:0:0:0:
156,340,64579,2,0,L|240:336,1,75,2|2,0:0|0:0,0:0:0:0:
460,124,64869,6,0,L|405:127,2,50,8|8|8,0:0|0:0|0:0,0:0:0:0:
385,206,65159,2,0,L|440:203,2,50,8|8|8,0:0|0:0|0:0,0:0:0:0:
332,144,65449,5,6,0:0:0:0:
224,208,65594,1,2,0:0:0:0:
144,108,65739,2,0,L|232:100,1,75,2|2,0:0|0:0,0:0:0:0:
46,217,66029,2,0,L|40:59,1,150,8|2,0:0|0:0,0:0:0:0:
176,32,66463,2,0,L|180:116,1,75,2|0,0:0|0:0,0:0:0:0:
198,221,66753,1,2,0:0:0:0:
263,349,66898,1,2,0:0:0:0:
198,222,67043,1,2,0:0:0:0:
192,304,67188,6,0,P|139:335|60:305,1,150,8|2,0:0|0:0,0:0:0:0:
42,224,67623,1,2,0:0:0:0:
85,156,67768,2,0,L|162:149,1,75,2|2,0:0|0:0,0:0:0:0:
298,142,68058,1,2,0:0:0:0:
186,231,68203,1,2,0:0:0:0:
298,142,68348,2,0,B|333:95|298:23|298:23|328:51,1,150,8|2,0:0|0:0,0:0:0:0:
422,121,68782,2,0,L|426:204,1,75,2|0,0:0|0:0,0:0:0:0:
366,303,69072,1,2,0:0:0:0:
299,351,69217,1,2,0:0:0:0:
218,368,69362,1,2,0:0:0:0:
135,361,69507,6,0,L|129:281,1,75,8|2,0:0|0:0,0:0:0:0:
120,146,69797,1,2,0:0:0:0:
63,76,69942,1,2,0:0:0:0:
120,146,70087,2,0,P|200:155|259:118,1,150,2|2,0:0|0:0,0:0:0:0:
338,20,70521,1,2,0:0:0:0:
338,20,70666,2,0,L|344:97,1,75,8|0,0:0|0:0,0:0:0:0:
451,151,70956,2,0,L|445:74,1,75,2|2,0:0|0:0,0:0:0:0:
248,95,71246,2,0,L|254:172,1,75,0|2,0:0|0:0,0:0:0:0:
262,307,71536,2,0,P|230:296|173:305,1,75,2|2,0:0|0:0,0:0:0:0:
346,332,71826,5,8,0:0:0:0:
426,264,71971,1,2,0:0:0:0:
425,159,72116,1,2,0:0:0:0:
361,74,72261,1,2,0:0:0:0:
255,77,72406,6,0,L|251:125,2,37.5,8|2|2,0:0|0:0|0:0,0:0:0:0:
328,185,72695,1,2,0:0:0:0:
412,101,72840,1,8,0:0:0:0:
422,80,72913,1,2,0:0:0:0:
426,58,72985,1,2,0:0:0:0:
341,172,73130,5,2,0:0:0:0:
326,188,73203,1,2,0:0:0:0:
315,208,73275,1,2,0:0:0:0:
313,230,73348,1,2,0:0:0:0:
315,252,73420,1,2,0:0:0:0:
323,272,73492,1,2,0:0:0:0:
338,288,73565,2,0,L|384:287,3,37.5,2|2|2|2,0:0|0:0|0:0|0:0,0:0:0:0:
293,362,73855,2,0,L|247:361,3,37.5,2|2|2|2,0:0|0:0|0:0|0:0,0:0:0:0:
175,359,74145,6,0,L|80:357,1,93.75,8|2,0:0|0:0,0:0:0:0:
260,276,74434,2,0,L|355:274,1,93.75,8|2,0:0|0:0,0:0:0:0:
444,219,74724,6,0,P|453:170|442:135,1,75,6|2,0:0|0:0,0:0:0:0:
244,60,75014,2,0,P|238:96|248:133,1,75,2|2,0:0|0:0,0:0:0:0:
350,183,75304,2,0,L|352:34,1,150,8|2,0:0|0:0,0:0:0:0:
305,262,75739,2,0,P|231:278|165:239,1,150,2|2,0:0|0:0,0:0:0:0:
127,171,76174,1,2,0:0:0:0:
97,93,76319,1,2,0:0:0:0:
46,157,76463,2,0,L|43:237,1,75,8|2,0:0|0:0,0:0:0:0:
95,327,76753,1,2,0:0:0:0:
182,244,76898,1,2,0:0:0:0:
260,347,77043,6,0,L|262:272,1,75,2|2,0:0|0:0,0:0:0:0:
333,141,77333,2,0,P|374:124|408:127,1,75,2|2,0:0|0:0,0:0:0:0:
261,190,77623,2,0,P|249:125|300:59,1,150,8|2,0:0|0:0,0:0:0:0:
446,106,78058,2,0,P|456:178|410:235,1,150,2|2,0:0|0:0,0:0:0:0:
277,271,78492,1,2,0:0:0:0:
277,271,78637,1,2,0:0:0:0:
181,177,78782,2,0,L|174:95,1,75,8|2,0:0|0:0,0:0:0:0:
122,229,79072,1,2,0:0:0:0:
122,229,79217,6,0,P|190:257|252:215,1,150,2|2,0:0|0:0,0:0:0:0:
346,93,79652,2,0,P|385:86|421:98,1,75,2|2,0:0|0:0,0:0:0:0:
406,258,79942,2,0,P|367:265|331:253,1,75,8|0,0:0|0:0,0:0:0:0:
238,97,80232,2,0,L|234:22,1,75,2|2,0:0|0:0,0:0:0:0:
85,113,80521,2,0,L|89:188,1,75,0|2,0:0|0:0,0:0:0:0:
252,91,80811,2,0,L|248:16,1,75,2|2,0:0|0:0,0:0:0:0:
73,119,81101,2,0,L|77:194,1,75,8|0,0:0|0:0,0:0:0:0:
123,287,81391,1,2,0:0:0:0:
123,287,81536,1,2,0:0:0:0:
226,347,81681,6,0,P|264:350|302:339,1,75,8|2,0:0|0:0,0:0:0:0:
396,280,81971,1,2,0:0:0:0:
270,205,82116,2,0,P|303:176|315:137,1,75,8|2,0:0|0:0,0:0:0:0:
316,34,82406,1,2,0:0:0:0:
192,195,82550,2,0,P|225:270|286:282,1,150,8|8,0:0|0:0,0:0:0:0:
371,180,82985,1,8,0:0:0:0:
371,180,83130,2,0,P|338:105|277:93,1,150,2|8,0:0|0:0,0:0:0:0:
174,114,83565,1,8,0:0:0:0:
133,280,83710,1,8,0:0:0:0:
133,280,84000,6,0,L|187:274,1,48.7499977684022,2|2,0:0|0:0,0:0:0:0:
80,335,84290,2,0,P|58:293|67:242,1,97.4999955368044,8|0,0:0|0:0,0:0:0:0:
330,224,84869,2,0,P|350:264|343:314,1,97.4999955368044,8|0,0:0|0:0,0:0:0:0:
69,329,85449,2,0,P|49:289|56:239,1,97.4999955368044,8|0,0:0|0:0,0:0:0:0:
343,230,86029,2,0,P|363:270|356:320,1,97.4999955368044,8|2,0:0|0:0,0:0:0:0:
214,344,86463,1,2,0:0:0:0:
214,344,86608,2,0,L|208:227,1,97.4999955368044,8|0,0:0|0:0,0:0:0:0:
204,122,87043,5,0,0:0:0:0:
246,62,87188,2,0,L|306:59,1,48.7499977684022,8|0,0:0|0:0,0:0:0:0:
161,178,87478,2,0,L|101:181,1,48.7499977684022,0|0,0:0|0:0,0:0:0:0:
204,122,87768,1,8,0:0:0:0:
235,188,87913,1,0,0:0:0:0:
191,246,88058,2,0,L|130:248,1,48.7499977684022,0|0,0:0|0:0,0:0:0:0:
259,259,88348,2,0,P|299:229|306:171,1,97.4999955368044,8|2,0:0|0:0,0:0:0:0:
297,112,88782,5,2,0:0:0:0:
369,103,88927,2,0,L|474:100,1,97.4999955368044,8|0,0:0|0:0,0:0:0:0:
480,334,89507,2,0,L|375:337,1,97.4999955368044,8|0,0:0|0:0,0:0:0:0:
378,91,90087,2,0,L|483:88,1,97.4999955368044,8|0,0:0|0:0,0:0:0:0:
473,346,90666,2,0,L|368:349,1,97.4999955368044,8|2,0:0|0:0,0:0:0:0:
208,316,91101,1,2,0:0:0:0:
208,316,91246,2,0,P|197:268|204:214,1,97.4999955368044,8|0,0:0|0:0,0:0:0:0:
301,113,91826,5,8,0:0:0:0:
138,88,92116,2,0,L|34:81,1,97.4999955368044,0|8,0:0|0:0,0:0:0:0:
34,200,92550,2,0,L|131:193,1,97.4999955368044,0|0,0:0|0:0,0:0:0:0:
251,179,92985,1,8,0:0:0:0:
333,165,93130,1,0,0:0:0:0:
251,179,93275,6,0,L|251:256,1,63.7500012159348,6|6,0:0|0:0,0:0:0:0:
197,322,93565,1,8,0:0:0:0:
197,322,93710,2,0,P|270:341|317:312,1,127.50000243187,4|4,0:0|0:0,0:0:0:0:
385,187,94145,2,0,L|392:107,1,63.7500012159348,12|0,0:0|0:0,0:0:0:0:
390,123,94579,1,4,0:0:0:0:
354,55,94724,2,0,P|317:41|284:43,1,63.7500012159348,12|0,0:0|0:0,0:0:0:0:
147,89,95014,1,6,0:0:0:0:
86,162,95159,1,2,0:0:0:0:
88,260,95304,2,0,L|93:323,1,63.7500012159348,12|4,0:0|0:0,0:0:0:0:
147,89,95594,5,2,0:0:0:0:
86,162,95739,1,6,0:0:0:0:
88,260,95884,1,8,0:0:0:0:
161,319,96029,2,0,P|197:331|231:331,1,63.7500012159348,4|0,0:0|0:0,0:0:0:0:
323,215,96319,1,4,0:0:0:0:
323,215,96463,2,0,P|287:203|253:203,1,63.7500012159348,12|0,0:0|0:0,0:0:0:0:
323,215,96898,5,4,0:0:0:0:
407,245,97043,2,0,L|412:164,1,63.7500012159348,8|4,0:0|0:0,0:0:0:0:
346,81,97333,1,2,0:0:0:0:
346,81,97478,1,6,0:0:0:0:
248,176,97623,2,0,L|243:95,1,63.7500012159348,8|4,0:0|0:0,0:0:0:0:
346,81,97913,5,2,0:0:0:0:
400,159,98058,1,6,0:0:0:0:
399,254,98203,1,8,0:0:0:0:
349,335,98348,2,0,L|284:332,1,63.7500012159348,4|0,0:0|0:0,0:0:0:0:
399,254,98637,1,4,0:0:0:0:
399,254,98782,2,0,L|334:251,1,63.7500012159348,8|4,0:0|0:0,0:0:0:0:
335,251,99217,5,4,0:0:0:0:
264,227,99362,2,0,P|285:192|314:180,1,63.7500012159348,8|4,0:0|0:0,0:0:0:0:
186,255,99652,1,2,0:0:0:0:
312,325,99797,1,6,0:0:0:0:
186,255,99942,2,0,P|183:216|191:187,1,63.7500012159348,8|4,0:0|0:0,0:0:0:0:
234,128,100232,1,2,0:0:0:0:
233,331,100377,1,6,0:0:0:0:
234,128,100521,2,0,P|278:109|359:127,1,127.50000243187,8|0,0:0|0:0,0:0:0:0:
436,336,101101,2,0,L|442:231,1,95.6250018239022,8|2,0:0|0:0,0:0:0:0:
442,195,101391,5,8,0:0:0:0:
405,112,101536,1,2,0:0:0:0:
317,134,101681,1,2,0:0:0:0:
309,219,101826,1,2,0:0:0:0:
385,253,101971,5,2,0:0:0:0:
309,219,102116,1,2,0:0:0:0:
226,227,102261,1,2,0:0:0:0:
159,277,102406,1,2,0:0:0:0:
130,355,102550,2,0,B|94:270|171:250|124:166,2,191.250003647804,6|2|2,0:0|0:0|0:0,0:0:0:0:
281,376,103565,2,0,P|343:376|397:332,1,127.50000243187,8|2,0:0|0:0,0:0:0:0:
421,204,104000,5,2,0:0:0:0:
421,204,104290,2,0,P|359:204|305:248,1,127.50000243187,8|0,0:0|0:0,0:0:0:0:
230,347,104869,2,0,P|138:359|59:304,2,191.250003647804,2|2|2,0:0|0:0|0:0,0:0:0:0:
278,229,105884,2,0,L|283:146,2,63.7500012159348,8|0|2,0:0|0:0|0:0,0:0:0:0:
157,263,106319,2,0,L|152:180,1,63.7500012159348,8|0,0:0|0:0,0:0:0:0:
145,86,106608,5,8,0:0:0:0:
164,114,106705,1,8,0:0:0:0:
195,126,106802,1,2,0:0:0:0:
226,114,106898,2,0,L|233:156,2,42.5000008106232,2|2|2,0:0|0:0|0:0,0:0:0:0:
193,79,107188,5,2,0:0:0:0:
353,64,107333,1,2,0:0:0:0:
353,64,107623,1,4,0:0:0:0:
353,159,107768,2,0,L|351:232,1,63.7500012159348,12|6,0:0|0:0,0:0:0:0:
344,63,108058,5,2,0:0:0:0:
184,78,108203,1,2,0:0:0:0:
184,78,108492,1,4,0:0:0:0:
142,232,108637,2,0,P|181:243|211:237,1,63.7500012159348,4|4,0:0|0:0,0:0:0:0:
276,184,108927,1,2,0:0:0:0:
329,315,109072,1,6,0:0:0:0:
204,240,109217,1,0,0:0:0:0:
355,228,109362,1,4,0:0:0:0:
238,317,109507,5,2,0:0:0:0:
204,150,109652,1,6,0:0:0:0:
204,150,109942,1,4,0:0:0:0:
279,66,110087,2,0,L|363:59,1,63.7500012159348,12|4,0:0|0:0,0:0:0:0:
201,157,110377,5,2,0:0:0:0:
236,328,110521,1,6,0:0:0:0:
236,328,110811,1,4,0:0:0:0:
145,356,110956,2,0,P|108:351|85:323,1,63.7500012159348,4|4,0:0|0:0,0:0:0:0:
236,328,111246,1,8,0:0:0:0:
236,328,111391,1,6,0:0:0:0:
324,364,111536,2,0,P|361:359|384:331,1,63.7500012159348,0|4,0:0|0:0,0:0:0:0:
424,255,111826,6,0,L|430:168,1,75,6|8,0:0|0:0,0:0:0:0:
295,73,112406,1,2,0:0:0:0:
295,73,112550,2,0,L|287:177,1,97.4999955368044,2|2,0:0|0:0,0:0:0:0:
222,270,112985,6,0,P|172:264|158:251,1,63.7500012159348,2|2,0:0|0:0,0:0:0:0:
126,112,113275,2,0,P|176:118|190:131,1,63.7500012159348,2|2,0:0|0:0,0:0:0:0:
222,270,113565,1,2,0:0:0:0:
270,329,113710,1,2,0:0:0:0:
345,338,113855,1,2,0:0:0:0:
412,301,114000,1,2,0:0:0:0:
438,234,114145,6,0,P|440:189|439:132,1,95.6250018239022,2|0,0:0|0:0,0:0:0:0:
415,167,114434,2,0,B|385:167|385:167|337:159,1,63.7500012159348,2|2,0:0|0:0,0:0:0:0:
269,42,114724,2,0,B|302:36|302:36|332:36,1,63.7500012159348,2|2,0:0|0:0,0:0:0:0:
429,211,115014,2,0,B|399:211|399:211|351:203,1,63.7500012159348,2|2,0:0|0:0,0:0:0:0:
264,26,115304,2,0,B|297:20|297:20|327:20,1,63.7500012159348,2|2,0:0|0:0,0:0:0:0:
443,252,115594,2,0,B|413:252|413:252|365:244,1,63.7500012159348,2|2,0:0|0:0,0:0:0:0:
267,166,115884,5,8,0:0:0:0:
267,166,115980,1,8,0:0:0:0:
267,166,116077,1,8,0:0:0:0:
267,166,116174,2,0,L|262:220,2,42.5000008106232,8|8|8,0:0|0:0|0:0,0:0:0:0:
235,179,116463,6,0,L|245:77,1,75,6|2,0:0|0:0,0:0:0:0:
119,185,116753,1,2,0:0:0:0:
88,261,116898,1,2,0:0:0:0:
112,339,117043,2,0,P|193:356|250:315,1,150,8|2,0:0|0:0,0:0:0:0:
306,174,117478,2,0,P|225:157|168:198,1,150,2|2,0:0|0:0,0:0:0:0:
332,307,117913,1,2,0:0:0:0:
413,295,118058,1,2,0:0:0:0:
445,215,118203,2,0,L|448:135,1,75,8|2,0:0|0:0,0:0:0:0:
332,307,118492,2,0,L|329:232,1,75,2|2,0:0|0:0,0:0:0:0:
270,354,118782,5,2,0:0:0:0:
190,372,118927,1,2,0:0:0:0:
112,342,119072,1,2,0:0:0:0:
95,261,119217,1,2,0:0:0:0:
89,177,119362,2,0,B|81:101|111:58|111:58|74:71,1,150,8|2,0:0|0:0,0:0:0:0:
172,232,119797,2,0,P|224:228|248:212,1,75,2|0,0:0|0:0,0:0:0:0:
312,72,120087,1,2,0:0:0:0:
396,127,120232,1,2,0:0:0:0:
312,72,120377,1,2,0:0:0:0:
396,128,120521,6,0,P|429:144|466:143,1,75,8|2,0:0|0:0,0:0:0:0:
312,72,120811,1,2,0:0:0:0:
227,120,120956,2,0,P|194:136|157:135,1,75,2|2,0:0|0:0,0:0:0:0:
178,56,121246,1,2,0:0:0:0:
312,72,121391,2,0,L|316:164,1,75,2|2,0:0|0:0,0:0:0:0:
168,284,121681,2,0,L|164:192,1,75,8|0,0:0|0:0,0:0:0:0:
328,64,121971,2,0,L|332:156,1,75,2|2,0:0|0:0,0:0:0:0:
156,292,122261,2,0,L|152:200,1,75,0|2,0:0|0:0,0:0:0:0:
292,344,122550,2,0,P|340:344|376:320,1,75,2|2,0:0|0:0,0:0:0:0:
424,236,122840,5,8,0:0:0:0:
424,124,122985,1,2,0:0:0:0:
352,36,123130,1,2,0:0:0:0:
240,20,123275,1,2,0:0:0:0:
140,68,123420,6,0,L|136:116,2,37.5,8|2|2,0:0|0:0|0:0,0:0:0:0:
240,20,123710,1,2,0:0:0:0:
300,116,123855,1,8,0:0:0:0:
304,136,123927,1,2,0:0:0:0:
304,160,124000,1,2,0:0:0:0:
203,213,124145,5,2,0:0:0:0:
191,233,124217,1,2,0:0:0:0:
187,253,124290,1,2,0:0:0:0:
187,277,124362,1,2,0:0:0:0:
191,301,124434,1,2,0:0:0:0:
199,321,124507,1,2,0:0:0:0:
211,341,124579,2,0,L|255:337,3,37.5,2|2|2|2,0:0|0:0|0:0|0:0,0:0:0:0:
307,256,124869,2,0,L|263:260,3,37.5,2|2|2|2,0:0|0:0|0:0|0:0,0:0:0:0:
333,338,125159,6,0,L|433:330,1,93.75,8|2,0:0|0:0,0:0:0:0:
376,156,125449,2,0,L|476:164,1,93.75,8|2,0:0|0:0,0:0:0:0:
296,144,125739,6,0,P|316:100|356:84,1,75,6|2,0:0|0:0,0:0:0:0:
440,80,126029,1,2,0:0:0:0:
440,80,126174,1,2,0:0:0:0:
328,212,126319,2,0,P|252:208|220:144,1,150,8|2,0:0|0:0,0:0:0:0:
240,44,126753,1,2,0:0:0:0:
328,212,126898,2,0,P|332:260|324:288,2,75,0|2|2,0:0|0:0|0:0,0:0:0:0:
296,132,127333,1,2,0:0:0:0:
240,196,127478,6,0,B|192:192|192:192|148:196|148:196|84:188,1,150,8|2,0:0|0:0,0:0:0:0:
44,104,127913,1,2,0:0:0:0:
56,272,128058,2,0,L|133:282,1,75,2|2,0:0|0:0,0:0:0:0:
265,111,128348,2,0,L|188:101,1,75,2|2,0:0|0:0,0:0:0:0:
344,211,128637,2,0,P|388:145|372:76,1,150,8|2,0:0|0:0,0:0:0:0:
198,46,129072,2,0,P|154:112|170:181,1,150,2|2,0:0|0:0,0:0:0:0:
232,241,129507,1,2,0:0:0:0:
213,329,129652,1,2,0:0:0:0:
124,343,129797,6,0,L|119:262,1,75,8|2,0:0|0:0,0:0:0:0:
309,197,130087,1,2,0:0:0:0:
309,197,130232,2,0,L|320:350,1,150,2|0,0:0|0:0,0:0:0:0:
390,197,130666,2,0,P|377:156|351:130,1,75,2|2,0:0|0:0,0:0:0:0:
156,133,130956,2,0,P|131:161|122:197,1,75,8|0,0:0|0:0,0:0:0:0:
125,67,131246,2,0,P|195:70|229:137,1,150,2|0,0:0|0:0,0:0:0:0:
225,221,131681,5,2,0:0:0:0:
181,299,131826,1,2,0:0:0:0:
102,342,131971,1,2,0:0:0:0:
181,299,132116,2,0,L|261:298,1,75,8|2,0:0|0:0,0:0:0:0:
345,120,132406,2,0,L|270:120,1,75,2|2,0:0|0:0,0:0:0:0:
97,176,132695,6,0,P|87:130|95:96,1,75,8|2,0:0|0:0,0:0:0:0:
130,255,132985,1,2,0:0:0:0:
332,235,133130,2,0,P|342:189|334:155,1,75,8|2,0:0|0:0,0:0:0:0:
299,314,133420,1,2,0:0:0:0:
226,167,133565,2,0,P|247:97|321:54,1,150,8|8,0:0|0:0,0:0:0:0:
468,166,134000,1,8,0:0:0:0:
468,166,134145,2,0,L|459:289,1,112.5,8|0,0:0|0:0,0:0:0:0:
438,314,134434,5,8,0:0:0:0:
350,221,134579,1,8,0:0:0:0:
304,340,134724,1,8,0:0:0:0:
214,249,134869,1,8,0:0:0:0:
151,364,135014,6,0,P|118:367|80:335,1,75,2|2,3:0|0:0,0:0:0:0:
390,145,144290,5,2,0:0:0:0:
390,145,144434,2,0,L|386:218,1,63.7500012159348,2|0,0:0|0:0,0:0:0:0:
261,83,144724,2,0,L|265:156,2,63.7500012159348,2|2|0,0:0|0:0|0:0,0:0:0:0:
185,65,145159,6,0,P|228:10|270:7,1,95.6250018239022,2|0,0:0|0:0,0:0:0:0:
287,16,145449,2,0,L|355:13,1,63.7500012159348,2|0,0:0|0:0,0:0:0:0:
458,112,145739,2,0,L|390:115,1,63.7500012159348,2|2,0:0|0:0,0:0:0:0:
321,138,146029,1,2,0:0:0:0:
280,202,146174,1,2,0:0:0:0:
292,277,146319,1,2,0:0:0:0:
353,321,146463,1,2,0:0:0:0:
362,327,146536,1,2,0:0:0:0:
370,332,146608,6,0,L|498:328,1,127.50000243187,2|2,0:0|0:0,0:0:0:0:
239,380,147043,2,0,L|313:378,2,63.7500012159348,2|0|2,0:0|0:0|0:0,0:0:0:0:
145,324,147478,2,0,P|134:281|138:250,1,63.7500012159348,2|0,0:0|0:0,0:0:0:0:
306,203,147768,2,0,P|317:246|313:277,1,63.7500012159348,2|0,0:0|0:0,0:0:0:0:
127,337,148058,2,0,P|116:294|120:263,1,63.7500012159348,2|2,0:0|0:0,0:0:0:0:
121,198,148348,1,2,0:0:0:0:
147,126,148492,1,2,0:0:0:0:
207,79,148637,1,2,0:0:0:0:
283,72,148782,1,2,0:0:0:0:
283,72,148855,1,2,0:0:0:0:
283,72,148927,6,0,L|423:75,1,127.50000243187,2|2,0:0|0:0,0:0:0:0:
115,53,149362,2,0,L|112:123,2,63.7500012159348,2|0|2,0:0|0:0|0:0,0:0:0:0:
65,177,149797,2,0,P|103:193|168:173,1,95.6250018239022,2|0,0:0|0:0,0:0:0:0:
187,162,150087,2,0,P|237:145|262:150,1,63.7500012159348,2|0,0:0|0:0,0:0:0:0:
286,281,150377,2,0,P|236:298|211:293,1,63.7500012159348,2|2,0:0|0:0,0:0:0:0:
150,282,150666,1,2,0:0:0:0:
105,219,150811,1,2,0:0:0:0:
113,142,150956,1,2,0:0:0:0:
43,173,151101,1,2,0:0:0:0:
43,173,151174,1,2,0:0:0:0:
43,173,151246,6,0,L|40:249,1,63.7500012159348,2|2,0:0|0:0,0:0:0:0:
172,335,151536,2,0,L|175:259,1,63.7500012159348,2|2,0:0|0:0,0:0:0:0:
236,151,151826,1,2,0:0:0:0:
236,151,151971,1,2,0:0:0:0:
317,276,152116,1,2,0:0:0:0:
317,276,152261,1,2,0:0:0:0:
422,168,152406,5,8,0:0:0:0:
429,150,152478,1,8,0:0:0:0:
432,131,152550,1,8,0:0:0:0:
431,112,152623,1,8,0:0:0:0:
426,93,152695,1,2,0:0:0:0:
331,106,152840,1,8,0:0:0:0:
312,108,152913,1,8,0:0:0:0:
292,105,152985,2,0,L|252:98,2,31.8750006079674,8|8|0,0:0|0:0|0:0,0:0:0:0:
172,51,153275,2,0,L|164:124,1,63.7500012159348,8|2,0:0|0:0,0:0:0:0:
192,290,153565,6,0,P|150:298|110:282,1,86.2500016450882,12|2,0:0|0:0,0:0:0:0:
335,334,153855,2,0,P|376:342|417:326,1,86.2500016450882,8|2,0:0|0:0,0:0:0:0:
450,213,154145,2,0,L|457:120,1,86.2500016450882,8|2,0:0|0:0,0:0:0:0:
271,259,154434,6,0,L|265:147,1,97.4999955368044,8|2,0:0|0:0,0:0:0:0:
53,207,154724,2,0,L|59:319,1,97.4999955368044,8|2,0:0|0:0,0:0:0:0:
285,280,155014,2,0,L|279:168,1,97.4999955368044,8|2,0:0|0:0,0:0:0:0:
37,231,155304,2,0,L|43:343,1,97.4999955368044,8|2,0:0|0:0,0:0:0:0:
169,373,155594,2,0,P|223:379|265:360,1,97.4999955368044,8|2,0:0|0:0,0:0:0:0:
380,278,155884,5,8,0:0:0:0:
414,150,156029,1,2,0:0:0:0:
415,278,156174,1,8,0:0:0:0:
378,148,156319,1,2,0:0:0:0:
445,277,156463,2,0,L|451:375,1,97.4999955368044,8|2,0:0|0:0,0:0:0:0:
297,224,156753,2,0,L|291:322,1,97.4999955368044,8|2,0:0|0:0,0:0:0:0:
399,170,157043,6,0,P|369:127|321:112,1,97.4999955368044,8|2,0:0|0:0,0:0:0:0:
225,244,157333,2,0,P|255:287|303:302,1,97.4999955368044,8|2,0:0|0:0,0:0:0:0:
473,197,157623,2,0,L|481:96,1,97.4999955368044,8|2,0:0|0:0,0:0:0:0:
295,35,157913,2,0,L|287:136,1,97.4999955368044,8|2,0:0|0:0,0:0:0:0:
99,61,158203,2,0,L|107:162,1,97.4999955368044,8|2,0:0|0:0,0:0:0:0:
130,253,158492,5,8,0:0:0:0:
203,317,158637,1,2,0:0:0:0:
300,326,158782,1,8,0:0:0:0:
387,282,158927,1,2,0:0:0:0:
407,187,159072,2,0,L|410:86,1,97.4999955368044,8|2,0:0|0:0,0:0:0:0:
102,89,159362,2,0,L|105:187,1,97.4999955368044,8|2,0:0|0:0,0:0:0:0:
365,257,159652,2,0,P|421:267|463:247,1,97.4999955368044,8|2,0:0|0:0,0:0:0:0:
147,127,159942,2,0,P|91:117|49:137,1,97.4999955368044,8|2,0:0|0:0,0:0:0:0:
255,292,160232,2,0,L|257:190,1,97.4999955368044,8|2,0:0|0:0,0:0:0:0:
204,348,160521,6,0,P|267:367|308:347,1,112.5,12|0,0:0|0:0,0:0:0:0:
331,320,160811,1,2,0:0:0:0:
404,336,160956,1,2,0:0:0:0:
460,202,161101,1,2,0:0:0:0:
388,222,161246,1,2,0:0:0:0:
386,102,161391,1,2,0:0:0:0:
441,51,161536,1,2,0:0:0:0:
296,42,161681,6,0,L|346:35,2,50,8|8|8,0:0|0:0|0:0,0:0:0:0:
217,42,161971,2,0,P|223:73|229:92,2,50,8|8|8,0:0|0:0|0:0,0:0:0:0:
296,120,162261,5,8,0:0:0:0:
335,125,162357,1,8,0:0:0:0:
373,112,162454,1,8,0:0:0:0:
406,89,162550,2,0,L|463:94,2,50,8|8|8,0:0|0:0|0:0,0:0:0:0:
336,42,162840,6,0,L|256:36,1,75,6|2,0:0|0:0,0:0:0:0:
85,214,163130,2,0,L|165:220,1,75,2|2,0:0|0:0,0:0:0:0:
52,142,163420,2,0,P|7:205|29:271,1,150,8|2,0:0|0:0,0:0:0:0:
202,295,163855,2,0,P|247:232|225:166,1,150,2|2,0:0|0:0,0:0:0:0:
150,91,164290,1,2,0:0:0:0:
71,115,164434,1,2,0:0:0:0:
38,191,164579,2,0,L|32:275,1,75,8|2,0:0|0:0,0:0:0:0:
239,265,164869,2,0,L|245:340,1,75,2|2,0:0|0:0,0:0:0:0:
159,228,165159,5,2,0:0:0:0:
234,179,165304,1,2,0:0:0:0:
317,213,165449,1,2,0:0:0:0:
335,300,165594,1,2,0:0:0:0:
335,300,165739,2,0,P|416:320|471:279,1,150,8|2,0:0|0:0,0:0:0:0:
486,148,166174,2,0,L|488:62,1,75,2|0,0:0|0:0,0:0:0:0:
429,3,166463,1,2,0:0:0:0:
335,107,166608,1,2,0:0:0:0:
487,73,166753,1,2,0:0:0:0:
314,27,166898,6,0,L|225:21,1,75,8|2,0:0|0:0,0:0:0:0:
239,21,167188,1,2,0:0:0:0:
96,120,167333,1,2,0:0:0:0:
96,120,167478,2,0,L|185:114,1,75,2|2,0:0|0:0,0:0:0:0:
58,202,167768,1,2,0:0:0:0:
90,285,167913,1,2,0:0:0:0:
172,321,168058,2,0,B|245:319|245:319|264:315|264:315|327:313,1,150,8|2,0:0|0:0,0:0:0:0:
434,210,168492,1,2,0:0:0:0:
460,124,168637,2,0,P|465:77|461:44,1,75,0|2,0:0|0:0,0:0:0:0:
434,210,168927,2,0,P|431:247|436:284,1,75,2|2,0:0|0:0,0:0:0:0:
460,124,169217,5,8,0:0:0:0:
355,81,169362,1,2,0:0:0:0:
241,101,169507,1,2,0:0:0:0:
176,207,169652,1,2,0:0:0:0:
166,326,169797,6,0,L|168:369,2,37.5,8|2|2,0:0|0:0|0:0,0:0:0:0:
266,274,170087,1,2,0:0:0:0:
176,207,170232,1,8,0:0:0:0:
154,200,170304,1,2,0:0:0:0:
131,197,170377,1,2,0:0:0:0:
266,274,170521,1,0,0:0:0:0:
281,257,170594,1,2,0:0:0:0:
289,236,170666,1,2,0:0:0:0:
293,213,170739,1,2,0:0:0:0:
293,190,170811,1,2,0:0:0:0:
288,168,170884,1,2,0:0:0:0:
277,151,170956,6,0,L|234:159,3,37.5,2|2|2|2,0:0|0:0|0:0|0:0,0:0:0:0:
347,66,171246,2,0,L|309:71,3,37.5,2|2|2|2,0:0|0:0|0:0|0:0,0:0:0:0:
400,126,171536,6,0,P|425:81|418:37,1,93.75,8|2,0:0|0:0,0:0:0:0:
188,176,171826,2,0,P|183:221|207:261,1,93.75,8|2,0:0|0:0,0:0:0:0:
400,126,172116,5,6,0:0:0:0:
326,74,172261,1,2,0:0:0:0:
236,71,172406,1,2,0:0:0:0:
151,100,172550,1,2,0:0:0:0:
106,178,172695,2,0,L|104:20,1,150,8|2,0:0|0:0,0:0:0:0:
67,245,173130,1,2,0:0:0:0:
67,245,173275,2,0,P|108:255|149:239,1,75,0|2,0:0|0:0,0:0:0:0:
253,117,173565,1,2,0:0:0:0:
342,107,173710,1,2,0:0:0:0:
382,187,173855,6,0,P|346:197|310:188,1,75,8|2,0:0|0:0,0:0:0:0:
253,117,174145,1,2,0:0:0:0:
271,28,174290,1,2,0:0:0:0:
360,16,174434,2,0,L|447:20,1,75,2|2,0:0|0:0,0:0:0:0:
253,117,174724,1,2,0:0:0:0:
182,61,174869,1,2,0:0:0:0:
142,142,175014,2,0,L|135:293,1,150,8|2,0:0|0:0,0:0:0:0:
278,354,175449,1,2,0:0:0:0:
367,358,175594,6,0,P|415:355|447:341,1,75,0|2,0:0|0:0,0:0:0:0:
478,209,175884,1,2,0:0:0:0:
445,124,176029,1,2,0:0:0:0:
358,100,176174,2,0,L|350:185,1,75,8|2,0:0|0:0,0:0:0:0:
228,127,176463,1,2,0:0:0:0:
228,127,176608,1,2,0:0:0:0:
367,98,176753,6,0,L|358:184,1,75,2|0,0:0|0:0,0:0:0:0:
333,296,177043,1,2,0:0:0:0:
259,348,177188,1,2,0:0:0:0:
169,356,177333,2,0,P|132:352|90:325,1,75,8|0,0:0|0:0,0:0:0:0:
152,182,177623,2,0,P|189:186|231:213,1,75,2|2,0:0|0:0,0:0:0:0:
41,183,177913,2,0,L|37:104,1,75,0|2,0:0|0:0,0:0:0:0:
198,21,178203,2,0,L|194:95,1,75,2|2,0:0|0:0,0:0:0:0:
214,184,178492,5,8,0:0:0:0:
282,242,178637,1,2,0:0:0:0:
371,248,178782,1,2,0:0:0:0:
446,198,178927,1,2,0:0:0:0:
466,110,179072,6,0,L|471:31,1,75,8|2,0:0|0:0,0:0:0:0:
446,198,179362,1,2,0:0:0:0:
281,186,179507,2,0,L|276:107,1,75,8|2,0:0|0:0,0:0:0:0:
301,274,179797,1,2,0:0:0:0:
280,186,179942,2,0,P|204:151|142:176,1,150,8|8,0:0|0:0,0:0:0:0:
106,243,180328,5,8,0:0:0:0:
106,243,180425,1,8,0:0:0:0:
106,243,180521,2,0,L|104:300,2,50,8|8|8,0:0|0:0|0:0,0:0:0:0:
29,229,180811,2,0,L|27:179,2,50,8|8|8,0:0|0:0|0:0,0:0:0:0:
110,109,181101,2,0,L|108:158,2,50,8|8|8,0:0|0:0|0:0,0:0:0:0:
183,198,181391,6,0,P|228:196|267:174,1,75,6|2,0:0|0:0,0:0:0:0:
287,51,181681,2,0,P|242:53|203:75,1,75,2|2,0:0|0:0,0:0:0:0:
183,198,181971,2,0,L|188:286,1,75,2|2,0:0|0:0,0:0:0:0:
401,155,182261,2,0,L|396:243,1,75,2|2,0:0|0:0,0:0:0:0:
305,351,182550,5,8,0:0:0:0:
305,351,182695,2,0,L|301:267,1,75,2|2,0:0|0:0,0:0:0:0:
105,279,182985,1,8,0:0:0:0:
105,279,183130,2,0,L|109:363,1,75,2|2,0:0|0:0,0:0:0:0:
204,362,183420,1,2,0:0:0:0:
204,362,183565,1,2,0:0:0:0:
305,351,183710,6,0,P|362:346|387:330,1,75,6|2,0:0|0:0,0:0:0:0:
351,169,184000,2,0,P|294:174|269:190,1,75,2|2,0:0|0:0,0:0:0:0:
458,235,184290,2,0,L|462:151,1,75,2|2,0:0|0:0,0:0:0:0:
253,35,184579,2,0,L|257:119,1,75,2|2,0:0|0:0,0:0:0:0:
183,227,184869,5,8,0:0:0:0:
183,227,185014,2,0,P|149:235|97:233,1,75,2|2,0:0|0:0,0:0:0:0:
290,340,185304,1,8,0:0:0:0:
290,340,185449,2,0,P|324:348|376:346,1,75,2|2,0:0|0:0,0:0:0:0:
306,203,185739,2,0,L|317:121,1,75,8|2,0:0|0:0,0:0:0:0:
139,54,186029,6,0,L|128:136,1,75,6|2,0:0|0:0,0:0:0:0:
327,214,186319,2,0,L|338:132,1,75,2|2,0:0|0:0,0:0:0:0:
123,40,186608,2,0,L|112:122,1,75,2|2,0:0|0:0,0:0:0:0:
107,201,186898,1,2,0:0:0:0:
146,281,187043,1,2,0:0:0:0:
230,299,187188,5,8,0:0:0:0:
230,299,187334,2,0,L|321:294,1,75,2|2,0:0|0:0,0:0:0:0:
385,143,187623,1,8,0:0:0:0:
385,143,187768,2,0,L|294:148,1,75,2|2,0:0|0:0,0:0:0:0:
407,253,188058,1,2,0:0:0:0:
407,253,188203,1,2,0:0:0:0:
321,345,188348,6,0,P|278:345|247:326,2,75,6|2|2,0:0|0:0|0:0,0:0:0:0:
407,253,188782,1,2,0:0:0:0:
386,142,188927,2,0,P|352:125|315:126,2,75,2|2|2,0:0|0:0|0:0,0:0:0:0:
407,253,189362,1,2,0:0:0:0:
407,253,189507,2,0,L|318:242,1,75,8|2,0:0|0:0,0:0:0:0:
185,217,189797,5,8,0:0:0:0:
185,217,189869,1,8,0:0:0:0:
185,217,189942,1,8,0:0:0:0:
104,195,190087,1,2,0:0:0:0:
99,217,190159,1,2,0:0:0:0:
103,240,190232,1,2,0:0:0:0:
111,262,190304,1,2,0:0:0:0:
124,279,190377,2,0,L|120:320,3,37.5,2|2|2|2,0:0|0:0|0:0|0:0,0:0:0:0:
139,328,190666,6,0,L|225:326,1,75,6|2,0:0|0:0,0:0:0:0:
328,206,190956,2,0,L|242:208,1,75,2|2,0:0|0:0,0:0:0:0:
327,321,191246,1,2,0:0:0:0:
408,308,191391,1,2,0:0:0:0:
448,236,191536,2,0,P|458:202|459:151,1,75,2|2,0:0|0:0,0:0:0:0:
333,67,191826,1,8,0:0:0:0:
333,67,191971,2,0,P|322:102|320:140,1,75,2|2,0:0|0:0,0:0:0:0:
448,236,192261,1,8,0:0:0:0:
448,236,192406,2,0,P|458:271|460:309,1,75,2|2,0:0|0:0,0:0:0:0:
320,340,192695,1,2,0:0:0:0:
320,340,192840,1,2,0:0:0:0:
188,328,192985,6,0,L|100:324,1,75,6|2,0:0|0:0,0:0:0:0:
56,184,193275,2,0,L|144:188,1,75,2|2,0:0|0:0,0:0:0:0:
272,216,193565,1,2,0:0:0:0:
272,216,193710,2,0,P|280:160|276:136,1,75,8|2,0:0|0:0,0:0:0:0:
128,40,194000,1,2,0:0:0:0:
128,40,194145,2,0,P|120:96|124:120,1,75,8|2,0:0|0:0,0:0:0:0:
272,216,194434,1,2,0:0:0:0:
356,220,194579,2,0,L|432:224,1,75,8|2,0:0|0:0,0:0:0:0:
264,328,194869,1,2,0:0:0:0:
264,328,195014,2,0,L|338:324,1,75,8|2,0:0|0:0,0:0:0:0:
180,332,195304,5,6,0:0:0:0:
112,284,195449,1,2,0:0:0:0:
100,204,195594,1,2,0:0:0:0:
124,124,195739,1,2,0:0:0:0:
192,80,195884,2,0,L|272:76,1,75,2|2,0:0|0:0,0:0:0:0:
372,172,196174,2,0,L|292:176,1,75,2|2,0:0|0:0,0:0:0:0:
168,64,196463,5,8,0:0:0:0:
168,64,196608,2,0,L|248:60,1,75,2|2,0:0|0:0,0:0:0:0:
384,192,196898,1,8,0:0:0:0:
384,192,197043,2,0,L|304:196,1,75,2|2,0:0|0:0,0:0:0:0:
184,200,197333,1,2,0:0:0:0:
148,276,197478,1,2,0:0:0:0:
196,352,197623,6,0,P|324:360|384:292,2,225,6|8|8,0:0|0:0|0:0,0:0:0:0:
96,160,198782,5,2,0:0:0:0:
168,120,199217,5,2,0:0:0:0:
248,120,199652,5,2,0:0:0:0:
317,152,199942,5,6,0:0:0:0:
256,192,200014,12,0,205232,0:0:0:0:
