osu file format v13

[General]
AudioFilename: 08. Liar.mp3
AudioLeadIn: 0
PreviewTime: 65449
Countdown: 0
SampleSet: Soft
StackLeniency: 0.3
Mode: 0
LetterboxInBreaks: 0
EpilepsyWarning: 1
WidescreenStoryboard: 0

[Editor]
Bookmarks: 15859,62829,117453
DistanceSpacing: 1.4
BeatDivisor: 4
GridSize: 4
TimelineZoom: 2.6

[Metadata]
Title:Liar
TitleUnicode:Liar
Artist:ONE OK ROCK
ArtistUnicode:ONE OK ROCK
Creator:Snepif
Version:Easy
Source:
Tags:Niche Syndrome シンドローム
BeatmapID:566506
BeatmapSetID:240761

[Difficulty]
HPDrainRate:2
CircleSize:3
OverallDifficulty:3
ApproachRate:4
SliderMultiplier:0.7
SliderTickRate:1

[Events]
//Background and Video events
0,0,"BG.png",0,0
//Break Periods
2,84200,91955
2,135214,142970
//Storyboard Layer 0 (Background)
//Storyboard Layer 1 (Fail)
//Storyboard Layer 2 (Pass)
//Storyboard Layer 3 (Foreground)
//Storyboard Sound Samples

[TimingPoints]
14435,289.855072463768,4,2,2,30,1,0
14435,-133.333333333333,4,2,2,30,0,0
23710,-133.333333333333,4,2,0,30,0,0
26029,-117.647058823529,4,2,2,30,0,0
26898,-133.333333333333,4,2,0,30,0,0
32985,-117.647058823529,4,2,0,75,0,0
34145,-117.647058823529,4,2,1,75,0,0
34434,-117.647058823529,4,2,1,65,0,0
36174,-117.647058823529,4,2,0,65,0,0
36463,-117.647058823529,4,2,1,75,0,0
37623,-117.647058823529,4,2,0,75,0,0
38782,-117.647058823529,4,2,1,75,0,0
39942,-117.647058823529,4,2,1,75,0,0
41971,-117.647058823529,4,2,1,50,0,0
42261,-117.647058823529,4,2,1,75,0,0
43130,-117.647058823529,4,2,1,85,0,0
44724,-117.647058823529,4,2,1,85,0,0
45449,-117.647058823529,4,2,1,85,0,0
45739,-117.647058823529,4,2,1,85,0,0
47768,-117.647058823529,4,2,1,85,0,0
50377,-117.647058823529,4,2,1,75,0,0
51536,-117.647058823529,4,2,1,85,0,0
52550,-117.647058823529,4,2,1,85,0,0
52985,-117.647058823529,4,2,1,85,0,0
53855,-117.647058823529,4,2,1,85,0,0
55594,-117.647058823529,4,2,1,50,0,0
56174,-117.647058823529,4,2,1,85,0,0
60811,-117.647058823529,4,2,1,85,0,0
61971,-117.647058823529,4,2,1,75,0,0
62840,-117.647058823529,4,2,1,65,0,0
63130,-117.647058823529,4,2,1,65,0,0
63710,-117.647058823529,4,2,1,75,0,0
64869,-117.647058823529,4,2,1,85,0,0
65449,-117.647058823529,4,2,1,85,0,1
68348,-117.647058823529,4,2,1,85,0,1
70087,-117.647058823529,4,2,1,85,0,1
72406,-117.647058823529,4,2,1,75,0,1
80521,-117.647058823529,4,2,1,85,0,1
84000,-117.647058823529,4,2,1,75,0,0
93275,-117.647058823529,4,2,3,75,0,0
94145,-117.647058823529,4,2,3,75,0,0
96463,-117.647058823529,4,2,3,75,0,0
97913,-117.647058823529,4,2,3,75,0,0
99362,-117.647058823529,4,2,3,75,0,0
100232,-117.647058823529,4,2,3,75,0,0
101101,-117.647058823529,4,2,3,75,0,0
101971,-117.647058823529,4,2,1,65,0,0
102550,-117.647058823529,4,2,1,75,0,0
103565,-117.647058823529,4,2,1,75,0,0
104000,-117.647058823529,4,2,1,75,0,0
104869,-117.647058823529,4,2,1,75,0,0
107188,-117.647058823529,4,2,1,75,0,0
109507,-117.647058823529,4,2,3,75,0,0
110377,-117.647058823529,4,2,3,75,0,0
110666,-117.647058823529,4,2,3,75,0,0
111826,-117.647058823529,4,2,1,85,0,0
112406,-117.647058823529,4,2,1,65,0,0
112985,-117.647058823529,4,2,1,55,0,0
114145,-117.647058823529,4,2,1,65,0,0
114724,-117.647058823529,4,2,1,75,0,0
116463,-117.647058823529,4,2,1,85,0,1
118203,-117.647058823529,4,2,1,85,0,1
118782,-117.647058823529,4,2,1,85,0,1
125739,-117.647058823529,4,2,1,85,0,1
127478,-117.647058823529,4,2,1,85,0,1
128058,-117.647058823529,4,2,1,85,0,1
135014,-117.647058823529,4,2,1,95,0,0
135304,-117.647058823529,4,2,1,45,0,0
144290,-117.647058823529,4,2,1,85,0,0
153275,-117.647058823529,4,2,3,85,0,0
153565,-117.647058823529,4,2,1,85,0,1
154434,-117.647058823529,4,2,1,85,0,1
160521,-117.647058823529,4,2,1,85,0,0
162840,-117.647058823529,4,2,1,85,0,1
165159,-117.647058823529,4,2,1,85,0,1
169797,-117.647058823529,4,2,1,65,0,1
172116,-117.647058823529,4,2,1,85,0,1
181391,-117.647058823529,4,2,1,75,0,0
190377,-117.647058823529,4,2,1,55,0,0
205232,-117.647058823529,4,2,1,35,0,0

[Colours]
Combo1 : 62,123,225
Combo2 : 254,71,67
Combo3 : 242,131,64
Combo4 : 225,64,169

[HitObjects]
100,312,14435,6,0,P|264:360|376:276,1,315.000012016297,2|2,0:0|0:0,0:0:0:0:
372,200,16463,1,2,0:0:0:0:
356,120,16753,6,0,B|256:44|180:220|60:116,1,315.000012016297,2|2,0:0|0:0,0:0:0:0:
60,32,18782,1,2,0:0:0:0:
140,64,19072,6,0,L|132:388,1,315.000012016297,2|2,0:0|0:0,0:0:0:0:
216,360,21101,1,2,0:0:0:0:
296,380,21391,6,0,P|360:312|320:88,1,315.000012016297,2|2,0:0|0:0,0:0:0:0:
280,48,23420,1,2,0:0:0:0:
256,128,23710,6,0,L|188:120,1,52.5000020027161,0|2,0:0|0:0,0:0:0:0:
124,112,24290,1,0,0:0:0:0:
60,60,24579,2,0,P|44:100|64:168,2,105.000004005432,2|2|2,0:0|0:0|0:0,0:0:0:0:
332,264,26898,1,2,0:0:0:0:
280,328,27188,2,0,L|168:324,1,105.000004005432,0|2,0:0|0:0,0:0:0:0:
88,224,28348,6,0,P|84:192|84:152,1,52.5000020027161,0|2,0:0|0:0,0:0:0:0:
120,96,28927,1,0,0:0:0:0:
204,80,29217,2,0,P|208:124|200:184,2,105.000004005432,2|2|2,0:0|0:0|0:0,0:0:0:0:
384,136,30956,5,2,0:0:0:0:
444,196,31246,2,0,L|436:268,1,52.5000020027161,0|2,0:0|0:0,0:0:0:0:
356,268,31826,2,0,L|361:215,1,52.5000020027161,0|2,0:0|0:0,0:0:0:0:
284,184,32406,2,0,L|278:236,1,52.5000020027161,0|2,0:0|0:0,0:0:0:0:
220,296,32985,5,0,0:0:0:0:
136,320,33275,1,2,0:0:0:0:
60,284,33565,1,0,0:0:0:0:
52,200,33855,2,0,L|56:132,1,59.5000011348725,2|8,0:0|0:0,0:0:0:0:
96,68,34434,2,0,P|124:68|164:76,2,59.5000011348725,0|0|0,0:0|0:0|0:0,0:0:0:0:
432,72,36174,5,2,0:0:0:0:
424,156,36463,2,0,L|420:224,1,59.5000011348725,8|0,0:0|0:0,0:0:0:0:
412,300,37043,2,0,P|376:296|340:272,1,59.5000011348725,2|2,0:0|0:0,0:0:0:0:
284,244,37623,5,0,0:0:0:0:
236,176,37913,1,2,0:0:0:0:
164,136,38203,2,0,P|140:136|100:152,1,59.5000011348725,0|2,0:0|0:0,0:0:0:0:
80,224,38782,1,8,0:0:0:0:
124,296,39072,2,0,P|188:320|248:304,1,119.000002269745,2|0,0:0|0:0,0:0:0:0:
108,64,40811,5,2,0:0:0:0:
132,140,41101,2,0,P|192:144|244:100,1,119.000002269745,8|8,0:0|0:0,0:0:0:0:
300,56,41971,1,8,0:0:0:0:
316,140,42261,6,0,L|320:212,1,59.5000011348725,2|8,0:0|0:0,0:0:0:0:
356,276,42840,1,2,0:0:0:0:
436,268,43130,1,8,0:0:0:0:
428,96,43710,2,0,P|368:84|296:120,1,119.000002269745,8|8,0:0|0:0,0:0:0:0:
104,300,45449,5,8,0:0:0:0:
168,244,45739,2,0,L|164:176,1,59.5000011348725,2|8,0:0|0:0,0:0:0:0:
244,156,46319,2,0,L|240:88,1,59.5000011348725,2|8,0:0|0:0,0:0:0:0:
304,44,46898,5,2,0:0:0:0:
388,56,47188,1,8,0:0:0:0:
444,120,47478,1,2,0:0:0:0:
448,204,47768,2,0,P|384:208|328:184,2,119.000002269745,8|8|8,0:0|0:0|0:0,0:0:0:0:
128,296,50087,5,8,0:0:0:0:
204,260,50377,2,0,L|208:196,1,59.5000011348725,8|2,0:0|0:0,0:0:0:0:
264,140,50956,2,0,B|292:140|292:140|324:148,1,59.5000011348725,8|2,0:0|0:0,0:0:0:0:
400,176,51536,2,0,P|412:224|400:272,2,89.2500017023087,6|2|2,0:0|0:0|0:0,0:0:0:0:
216,64,52985,5,2,0:0:0:0:
144,104,53275,2,0,L|140:172,1,59.5000011348725,8|0,0:0|0:0,0:0:0:0:
216,204,53855,2,0,L|220:136,1,59.5000011348725,2|0,0:0|0:0,0:0:0:0:
288,100,54434,2,0,P|324:104|352:116,1,59.5000011348725,2|2,0:0|0:0,0:0:0:0:
404,172,55014,1,8,0:0:0:0:
424,252,55304,2,0,L|420:324,1,59.5000011348725,8|8,0:0|0:0,0:0:0:0:
260,356,56174,6,0,P|160:356|96:296,2,178.500003404617,6|8|2,0:0|0:0|0:0,0:0:0:0:
324,304,58203,1,8,0:0:0:0:
404,320,58492,2,0,L|408:116,1,178.500003404617,2|8,0:0|0:0,0:0:0:0:
124,68,60232,1,8,0:0:0:0:
88,232,60811,6,0,P|168:248|248:188,1,178.500003404617,2|2,0:0|0:0,0:0:0:0:
280,116,61971,2,0,L|352:112,1,59.5000011348725,2|2,0:0|0:0,0:0:0:0:
380,184,62550,2,0,L|452:180,1,59.5000011348725,8|2,0:0|0:0,0:0:0:0:
492,116,63130,2,0,L|496:52,1,59.5000011348725,2|2,0:0|0:0,0:0:0:0:
416,32,63710,2,0,B|412:136|412:136|392:184|392:184|388:276,1,238.00000453949,2|8,0:0|0:0,0:0:0:0:
200,316,65449,6,0,L|202:251,1,59.5000011348725,6|2,0:0|0:0,0:0:0:0:
152,188,66029,2,0,P|208:172|264:196,1,119.000002269745,8|2,0:0|0:0,0:0:0:0:
324,252,66898,1,2,0:0:0:0:
408,256,67188,6,0,L|416:120,1,119.000002269745,8|2,0:0|0:0,0:0:0:0:
412,52,68058,1,2,0:0:0:0:
328,48,68348,2,0,P|284:128|316:212,1,178.500003404617,8|2,0:0|0:0,0:0:0:0:
364,268,69507,1,8,0:0:0:0:
344,348,69797,1,2,0:0:0:0:
263,362,70087,6,0,P|227:362|192:353,1,59.5000011348725,2|2,0:0|0:0,0:0:0:0:
136,304,70666,2,0,L|140:244,1,59.5000011348725,8|2,0:0|0:0,0:0:0:0:
56,232,71246,2,0,L|50:294,2,59.5000011348725,2|2|8,0:0|0:0|0:0,0:0:0:0:
68,148,72116,1,2,0:0:0:0:
256,192,72406,12,6,74724,0:0:0:0:
399,193,75884,6,0,P|400:227|396:260,1,59.5000011348725,2|2,0:0|0:0,0:0:0:0:
332,304,76463,2,0,L|227:296,2,89.2500017023087,8|2|2,0:0|0:0|0:0,0:0:0:0:
336,220,77623,2,0,B|228:212|228:212|187:220|161:269,1,178.500003404617,8|2,0:0|0:0,0:0:0:0:
136,326,78782,5,8,0:0:0:0:
58,294,79072,1,2,0:0:0:0:
54,210,79362,2,0,L|58:145,1,59.5000011348725,2|2,0:0|0:0,0:0:0:0:
90,73,79942,2,0,P|138:65|164:69,1,59.5000011348725,8|2,0:0|0:0,0:0:0:0:
207,127,80521,2,0,P|236:127|265:119,1,59.5000011348725,2|2,0:0|0:0,0:0:0:0:
331,62,81101,1,8,0:0:0:0:
256,192,81391,12,6,84000,0:0:0:0:
352,320,93275,5,2,0:0:0:0:
268,312,93565,2,0,L|196:308,1,59.5000011348725,8|2,0:0|0:0,0:0:0:0:
124,300,94145,1,8,0:0:0:0:
60,140,94724,1,8,0:0:0:0:
232,72,95304,1,8,0:0:0:0:
308,248,95884,1,8,0:0:0:0:
474,246,96463,6,0,L|476:179,1,59.5000011348725,8|0,0:0|0:0,0:0:0:0:
424,120,97043,2,0,P|404:108|364:100,1,59.5000011348725,8|2,0:0|0:0,0:0:0:0:
204,76,97913,2,0,P|176:164|220:252,1,178.500003404617,2|8,0:0|0:0,0:0:0:0:
440,280,99362,5,8,0:0:0:0:
364,312,99652,1,2,0:0:0:0:
280,308,99942,1,8,0:0:0:0:
208,264,100232,2,0,P|220:207|197:143,1,119.000002269745,2|0,0:0|0:0,0:0:0:0:
140,88,101101,1,8,0:0:0:0:
63,121,101391,6,0,L|67:197,1,59.5000011348725,8|2,0:0|0:0,0:0:0:0:
140,219,101971,2,0,L|212:211,1,59.5000011348725,2|2,0:0|0:0,0:0:0:0:
282,204,102550,2,0,P|302:240|302:288,2,89.2500017023087,6|2|2,0:0|0:0|0:0,0:0:0:0:
148,103,104000,5,2,0:0:0:0:
159,185,104290,2,0,L|167:249,1,59.5000011348725,8|0,0:0|0:0,0:0:0:0:
242,277,104869,2,0,L|310:273,1,59.5000011348725,2|2,0:0|0:0,0:0:0:0:
329,194,105449,2,0,L|397:190,1,59.5000011348725,2|2,0:0|0:0,0:0:0:0:
465,223,106029,1,2,0:0:0:0:
458,306,106319,1,8,0:0:0:0:
388,350,106608,5,2,0:0:0:0:
212,356,107188,2,0,P|172:296|220:208,2,178.500003404617,6|2|2,0:0|0:0|0:0,0:0:0:0:
256,284,109217,1,8,0:0:0:0:
300,356,109507,2,0,P|340:296|292:208,1,178.500003404617,2|2,0:0|0:0,0:0:0:0:
44,216,111246,2,0,L|52:300,1,59.5000011348725,2|8,0:0|0:0,0:0:0:0:
96,344,111826,6,0,L|214:355,1,119.000002269745,6|2,0:0|0:0,0:0:0:0:
292,328,112695,1,8,0:0:0:0:
376,320,112985,2,0,P|340:257|294:245,1,119.000002269745,2|2,0:0|0:0,0:0:0:0:
215,256,113855,1,8,0:0:0:0:
149,205,114145,2,0,L|153:141,1,59.5000011348725,2|2,0:0|0:0,0:0:0:0:
178,66,114724,2,0,P|294:68|363:169,1,238.00000453949,2|8,0:0|0:0,0:0:0:0:
243,274,116463,6,0,L|246:130,2,119.000002269745,6|8|2,0:0|0:0|0:0,0:0:0:0:
168,311,117913,1,2,0:0:0:0:
89,283,118203,2,0,L|92:211,1,59.5000011348725,8|2,0:0|0:0,0:0:0:0:
30,163,118782,2,0,P|79:132|140:151,2,119.000002269745,2|8|2,0:0|0:0|0:0,0:0:0:0:
71,324,120521,5,8,0:0:0:0:
142,366,120811,1,2,0:0:0:0:
224,368,121101,2,0,L|295:364,1,59.5000011348725,2|2,0:0|0:0,0:0:0:0:
292,280,121681,2,0,L|226:283,1,59.5000011348725,8|2,0:0|0:0,0:0:0:0:
240,200,122261,2,0,L|314:197,2,59.5000011348725,2|2|8,0:0|0:0|0:0,0:0:0:0:
156,204,123130,1,2,0:0:0:0:
256,192,123420,12,6,125739,0:0:0:0:
164,236,126898,6,0,L|168:296,1,59.5000011348725,2|2,0:0|0:0,0:0:0:0:
248,284,127478,2,0,P|285:276|328:280,1,59.5000011348725,8|2,0:0|0:0,0:0:0:0:
388,288,128058,2,0,L|389:148,2,119.000002269745,2|8|2,0:0|0:0|0:0,0:0:0:0:
368,368,129507,1,2,0:0:0:0:
284,360,129797,6,0,L|222:357,1,59.5000011348725,8|2,0:0|0:0,0:0:0:0:
204,276,130377,2,0,L|144:273,1,59.5000011348725,2|2,0:0|0:0,0:0:0:0:
120,192,130956,2,0,L|60:189,2,59.5000011348725,8|2|2,0:0|0:0|0:0,0:0:0:0:
204,188,131826,2,0,P|222:136|208:65,1,119.000002269745,2|2,0:0|0:0,0:0:0:0:
256,192,132695,12,2,135014,3:0:0:0:
376,304,144290,6,0,P|408:228|372:128,1,178.500003404617,2|2,0:0|0:0,0:0:0:0:
304,108,145449,2,0,L|308:44,1,59.5000011348725,2|2,0:0|0:0,0:0:0:0:
224,36,146029,2,0,L|220:100,1,59.5000011348725,2|2,0:0|0:0,0:0:0:0:
136,100,146608,2,0,L|128:240,1,119.000002269745,2|2,0:0|0:0,0:0:0:0:
124,300,147478,5,2,0:0:0:0:
184,356,147768,2,0,L|260:348,1,59.5000011348725,2|2,0:0|0:0,0:0:0:0:
328,344,148348,2,0,L|404:336,1,59.5000011348725,2|2,0:0|0:0,0:0:0:0:
468,324,148927,2,0,P|484:252|452:192,1,119.000002269745,2|2,0:0|0:0,0:0:0:0:
412,152,149797,5,2,0:0:0:0:
364,220,150087,2,0,P|336:184|332:160,1,59.5000011348725,2|2,0:0|0:0,0:0:0:0:
260,216,150666,2,0,P|252:184|256:144,1,59.5000011348725,2|2,0:0|0:0,0:0:0:0:
172,176,151246,2,0,P|172:144|188:108,1,59.5000011348725,2|2,0:0|0:0,0:0:0:0:
100,108,151826,2,0,P|120:68|144:48,1,59.5000011348725,2|2,0:0|0:0,0:0:0:0:
212,40,152406,2,0,L|284:36,1,59.5000011348725,8|2,0:0|0:0,0:0:0:0:
320,104,152985,2,0,L|379:100,1,59.5000011348725,2|8,0:0|0:0,0:0:0:0:
444,152,153565,6,0,P|456:240|384:300,1,178.500003404617,12|8,0:0|0:0,0:0:0:0:
312,292,154724,2,0,L|248:288,1,59.5000011348725,8|2,0:0|0:0,0:0:0:0:
168,276,155304,1,8,0:0:0:0:
84,264,155594,1,2,0:0:0:0:
36,196,155884,2,0,B|60:152|32:108|32:108|80:112|120:64,1,178.500003404617,8|8,0:0|0:0,0:0:0:0:
192,60,157043,6,0,L|264:64,1,59.5000011348725,8|2,0:0|0:0,0:0:0:0:
288,140,157623,2,0,L|347:143,1,59.5000011348725,8|2,0:0|0:0,0:0:0:0:
416,192,158203,2,0,P|420:224|416:264,1,59.5000011348725,8|2,0:0|0:0,0:0:0:0:
340,284,158782,2,0,P|336:252|340:212,1,59.5000011348725,8|2,0:0|0:0,0:0:0:0:
344,140,159362,5,8,0:0:0:0:
264,168,159652,1,2,0:0:0:0:
240,248,159942,1,8,0:0:0:0:
256,328,160232,1,2,0:0:0:0:
328,372,160521,1,12,0:0:0:0:
256,192,160666,12,6,162840,0:0:0:0:
264,140,164000,6,0,P|256:180|260:208,1,59.5000011348725,2|2,0:0|0:0,0:0:0:0:
324,248,164579,2,0,L|392:244,1,59.5000011348725,8|2,0:0|0:0,0:0:0:0:
440,184,165159,2,0,L|441:43,2,119.000002269745,2|8|2,0:0|0:0|0:0,0:0:0:0:
350,324,166898,6,0,P|310:328|280:319,1,59.5000011348725,8|2,0:0|0:0,0:0:0:0:
215,288,167478,2,0,P|180:282|150:287,1,59.5000011348725,2|2,0:0|0:0,0:0:0:0:
76,308,168058,2,0,L|72:241,1,59.5000011348725,8|2,0:0|0:0,0:0:0:0:
65,165,168637,1,2,0:0:0:0:
120,102,168927,2,0,P|150:98|192:99,1,59.5000011348725,2|8,0:0|0:0,0:0:0:0:
262,108,169507,1,2,0:0:0:0:
256,192,169797,12,6,172116,0:0:0:0:
140,190,173275,6,0,L|143:261,1,59.5000011348725,2|2,0:0|0:0,0:0:0:0:
148,332,173855,1,8,0:0:0:0:
313,316,174434,2,0,L|304:182,2,119.000002269745,2|8|2,0:0|0:0|0:0,0:0:0:0:
150,352,176174,6,0,L|144:278,1,59.5000011348725,8|2,0:0|0:0,0:0:0:0:
110,216,176753,2,0,P|143:208|179:218,1,59.5000011348725,2|2,0:0|0:0,0:0:0:0:
225,272,177333,2,0,P|254:276|282:268,1,59.5000011348725,8|2,0:0|0:0,0:0:0:0:
355,228,177913,2,0,P|359:188|356:153,2,59.5000011348725,2|2|8,0:0|0:0|0:0,0:0:0:0:
389,303,178782,1,2,0:0:0:0:
470,319,179072,1,6,0:0:0:0:
256,192,179362,12,6,181391,0:0:0:0:
256,192,181536,12,6,183710,0:0:0:0:
175,116,184869,6,0,P|259:84|340:119,1,178.500003404617,6|2,0:0|0:0,0:0:0:0:
372,192,186029,2,0,P|256:305|140:188,1,357.000006809235,6|2,0:0|0:0,0:0:0:0:
256,72,188348,6,0,L|256:216,1,119.000002269745,6|6,0:0|0:0,0:0:0:0:
200,348,189507,2,0,P|256:336|316:348,1,119.000002269745,6|6,0:0|0:0,0:0:0:0:
256,192,190666,5,6,0:0:0:0:
256,192,190811,12,0,194145,0:0:0:0:
208,140,195304,6,0,B|200:180|200:180|212:208|212:208|208:252,2,89.2500017023087,6|2|2,0:0|0:0|0:0,0:0:0:0:
304,140,196463,2,0,B|312:180|312:180|300:208|300:208|304:252,2,89.2500017023087,8|8|2,0:0|0:0|0:0,0:0:0:0:
260,68,197623,6,0,P|312:56|356:72,2,89.2500017023087,8|8|2,0:0|0:0|0:0,0:0:0:0:
216,140,198782,6,0,P|164:152|120:136,2,89.2500017023087,2|2|2,0:0|0:0|0:0,0:0:0:0:
260,68,199942,5,6,0:0:0:0:
256,192,200087,12,0,205232,0:0:0:0:
