osu file format v13

[General]
AudioFilename: 08. Liar.mp3
AudioLeadIn: 0
PreviewTime: 65449
Countdown: 0
SampleSet: Soft
StackLeniency: 0.3
Mode: 0
LetterboxInBreaks: 0
EpilepsyWarning: 1
WidescreenStoryboard: 0

[Editor]
Bookmarks: 15859,62829,142830,142926,143023,143119,143264,143409,143506,143603,143699,143892,144086
DistanceSpacing: 1.3
BeatDivisor: 4
GridSize: 4
TimelineZoom: 3.799999

[Metadata]
Title:Liar
TitleUnicode:Liar
Artist:ONE OK ROCK
ArtistUnicode:ONE OK ROCK
Creator:Snepif
Version:Bloodlust
Source:
Tags:Niche Syndrome シンドローム
BeatmapID:569097
BeatmapSetID:240761

[Difficulty]
HPDrainRate:6.5
CircleSize:4
OverallDifficulty:8
ApproachRate:9.2
SliderMultiplier:1.6
SliderTickRate:1

[Events]
//Background and Video events
0,0,"BG.png",0,0
//Break Periods
2,135503,143720
//Storyboard Layer 0 (Background)
//Storyboard Layer 1 (Fail)
//Storyboard Layer 2 (Pass)
//Storyboard Layer 3 (Foreground)
//Storyboard Sound Samples

[TimingPoints]
14435,289.855072463768,4,2,2,30,1,0
14579,-133.333333333333,4,2,2,30,0,0
23710,-200,4,2,0,30,0,0
26029,-200,4,2,2,30,0,0
26898,-200,4,2,0,30,0,0
32985,-117.647058823529,4,2,1,75,0,0
34145,-200,4,2,1,75,0,0
34434,-200,4,2,1,30,0,0
35304,-117.647058823529,4,2,1,75,0,0
35449,-117.647058823529,4,2,1,75,0,0
36463,-200,4,2,1,75,0,0
37188,-117.647058823529,4,2,1,60,0,0
37333,-117.647058823529,4,2,1,60,0,0
37623,-117.647058823529,4,2,1,75,0,0
38782,-200,4,2,1,75,0,0
39362,-200,4,2,0,55,0,0
39942,-200,4,2,1,75,0,0
40087,-117.647058823529,4,2,1,75,0,0
40956,-200,4,2,1,75,0,0
41101,-200,4,2,1,75,0,0
41971,-200,4,2,1,50,0,0
42116,-100,4,2,1,70,0,0
42261,-100,4,2,1,75,0,0
43130,-200,4,2,1,85,0,0
43420,-200,4,2,1,85,0,0
44724,-100,4,2,1,85,0,0
47768,-200,4,2,1,85,0,0
50377,-200,4,2,1,75,0,0
51536,-117.647058823529,4,2,1,85,0,0
52550,-117.647058823529,4,2,1,85,0,0
52985,-117.647058823529,4,2,1,85,0,0
53855,-117.647058823529,4,2,1,85,0,0
55594,-117.647058823529,4,2,1,50,0,0
56174,-100,4,2,1,85,0,0
60811,-200,4,2,1,85,0,0
61391,-153.846153846153,4,2,1,55,0,0
61971,-117.647058823529,4,2,1,75,0,0
62840,-117.647058823529,4,2,1,65,0,0
63130,-100,4,2,1,65,0,0
63710,-100,4,2,1,75,0,0
64290,-100,4,2,1,85,0,0
65449,-100,4,2,1,85,0,1
72406,-100,4,2,1,75,0,1
72840,-100,4,2,1,55,0,1
72913,-100,4,2,1,75,0,1
73275,-100,4,2,1,70,0,1
73565,-100,4,2,1,65,0,1
73855,-100,4,2,1,60,0,1
74145,-80,4,2,1,85,0,1
74724,-100,4,2,1,85,0,1
84000,-153.846153846154,4,2,1,75,0,0
90666,-153.846153846153,4,2,1,75,0,0
90956,-153.846153846153,4,2,1,75,0,0
92116,-153.846153846153,4,2,1,75,0,0
93275,-117.647058823529,4,2,3,75,0,0
94145,-117.647058823529,4,2,3,75,0,0
94434,-117.647058823529,4,2,3,75,0,0
95014,-117.647058823529,4,2,3,75,0,0
95594,-117.647058823529,4,2,3,75,0,0
96029,-117.647058823529,4,2,3,75,0,0
96463,-117.647058823529,4,2,3,75,0,0
97043,-117.647058823529,4,2,3,75,0,0
97913,-117.647058823529,4,2,3,75,0,0
99362,-117.647058823529,4,2,3,75,0,0
100232,-117.647058823529,4,2,3,75,0,0
101101,-117.647058823529,4,2,3,75,0,0
101971,-117.647058823529,4,2,1,65,0,0
102550,-117.647058823529,4,2,1,75,0,0
103565,-117.647058823529,4,2,1,75,0,0
104000,-117.647058823529,4,2,1,75,0,0
104869,-117.647058823529,4,2,1,75,0,0
107188,-117.647058823529,4,2,3,75,0,0
110377,-117.647058823529,4,2,3,75,0,0
110666,-117.647058823529,4,2,3,75,0,0
111826,-200,4,2,1,85,0,0
112406,-153.846153846153,4,2,1,65,0,0
112985,-117.647058823529,4,2,1,55,0,0
114145,-117.647058823529,4,2,1,65,0,0
114724,-117.647058823529,4,2,1,75,0,0
115304,-117.647058823529,4,2,1,85,0,0
116463,-100,4,2,1,85,0,1
123420,-100,4,2,1,65,0,1
123855,-100,4,2,1,45,0,1
123927,-100,4,2,1,65,0,1
124579,-100,4,2,1,55,0,1
125159,-79.9999999999999,4,2,1,85,0,1
125739,-100,4,2,1,85,0,1
135014,-200,4,2,1,95,0,0
135304,-100,4,2,1,45,0,0
144290,-117.647058823529,4,2,1,85,0,0
153275,-117.647058823529,4,2,3,85,0,0
153565,-86.9565217391303,4,2,1,85,0,1
154434,-76.9230769230769,4,2,1,85,0,1
160521,-100,4,2,1,85,0,0
160811,-100,4,2,1,65,0,0
161101,-100,4,2,1,75,0,0
161391,-100,4,2,1,85,0,0
162840,-100,4,2,1,85,0,1
169797,-100,4,2,1,65,0,1
170232,-100,4,2,1,55,0,1
170304,-100,4,2,1,65,0,1
170956,-100,4,2,1,55,0,1
171536,-79.9999999999999,4,2,1,85,0,1
172116,-100,4,2,1,85,0,1
180232,-100,4,2,1,65,0,1
181391,-100,4,2,1,75,0,0
189797,-100,4,2,1,65,0,0
190377,-100,4,2,1,55,0,0
190666,-100,4,2,1,75,0,0
201101,-100,4,2,1,65,0,0
201681,-100,4,2,1,55,0,0
202261,-100,4,2,1,45,0,0
202840,-100,4,2,1,35,0,0
203420,-100,4,2,1,30,0,0
204000,-100,4,2,1,25,0,0
205232,-100,4,2,1,20,0,0

[Colours]
Combo1 : 62,123,225
Combo2 : 254,71,67
Combo3 : 242,131,64
Combo4 : 225,64,169

[HitObjects]
168,100,14435,5,2,0:0:0:0:
156,172,14579,2,0,L|84:168,1,60.0000022888184,2|0,0:0|0:0,0:0:0:0:
168,100,14869,1,2,0:0:0:0:
160,248,15014,2,0,P|160:272|168:308,1,60.0000022888184,2|0,0:0|0:0,0:0:0:0:
168,100,15304,1,2,0:0:0:0:
232,200,15449,2,0,L|291:196,1,60.0000022888184,2|0,0:0|0:0,0:0:0:0:
384,280,15739,1,2,0:0:0:0:
332,328,15884,2,0,L|272:331,1,60.0000022888184,2|0,0:0|0:0,0:0:0:0:
388,128,16174,1,2,0:0:0:0:
388,128,16463,1,2,0:0:0:0:
388,128,16753,5,2,0:0:0:0:
328,172,16898,2,0,P|312:120|320:96,1,60.0000022888184,2|0,0:0|0:0,0:0:0:0:
416,60,17188,1,2,0:0:0:0:
460,120,17333,2,0,P|458:149|444:175,1,60.0000022888184,2|0,0:0|0:0,0:0:0:0:
344,244,17623,1,2,0:0:0:0:
272,236,17768,2,0,L|208:232,1,60.0000022888184,2|0,0:0|0:0,0:0:0:0:
344,244,18058,1,2,0:0:0:0:
388,300,18203,2,0,L|452:296,1,60.0000022888184,2|0,0:0|0:0,0:0:0:0:
259,360,18492,1,2,0:0:0:0:
259,360,18782,1,2,0:0:0:0:
259,360,19072,5,2,0:0:0:0:
191,336,19217,2,0,L|119:340,1,60.0000022888184,2|0,0:0|0:0,0:0:0:0:
231,218,19507,1,2,0:0:0:0:
231,218,19652,2,0,P|242:246|244:276,1,60.0000022888184,2|0,0:0|0:0,0:0:0:0:
116,154,19942,1,2,0:0:0:0:
116,154,20087,2,0,P|143:142|173:141,1,60.0000022888184,2|0,0:0|0:0,0:0:0:0:
62,296,20377,1,2,0:0:0:0:
62,296,20521,2,0,P|50:268|49:238,1,60.0000022888184,2|0,0:0|0:0,0:0:0:0:
164,52,20811,1,2,0:0:0:0:
164,52,21101,1,2,0:0:0:0:
164,52,21391,5,2,0:0:0:0:
208,108,21536,2,0,L|284:104,1,60.0000022888184,2|0,0:0|0:0,0:0:0:0:
164,52,21826,1,2,0:0:0:0:
124,112,21971,2,0,P|100:84|92:52,1,60.0000022888184,2|0,0:0|0:0,0:0:0:0:
348,84,22261,1,2,0:0:0:0:
348,84,22406,2,0,P|368:62|379:34,1,60.0000022888184,2|0,0:0|0:0,0:0:0:0:
316,160,22695,1,2,0:0:0:0:
324,232,22840,2,0,L|332:296,1,60.0000022888184,2|0,0:0|0:0,0:0:0:0:
472,216,23130,1,2,0:0:0:0:
472,216,23420,1,2,0:0:0:0:
288,344,23710,5,0,0:0:0:0:
372,120,24000,1,2,0:0:0:0:
416,344,24290,1,0,0:0:0:0:
256,200,24579,2,0,B|212:168|156:182|156:182|144:204,1,120,2|0,0:0|0:0,0:0:0:0:
128,336,25159,2,0,B|172:368|227:353|227:353|240:332,1,120,2|0,0:0|0:0,0:0:0:0:
188,260,25739,2,0,L|200:168,1,80,2|2,0:0|0:0,0:0:0:0:
212,108,26174,1,2,0:0:0:0:
88,48,26463,1,2,0:0:0:0:
88,48,26608,1,2,0:0:0:0:
64,176,26898,6,0,L|68:228,1,40,2|2,0:0|0:0,0:0:0:0:
196,271,27188,2,0,L|200:232,1,40,2|0,0:0|0:0,0:0:0:0:
124,268,27478,1,2,0:0:0:0:
148,336,27623,1,0,0:0:0:0:
220,348,27768,1,2,0:0:0:0:
280,308,27913,2,0,P|288:272|288:212,1,80,0|0,0:0|0:0,0:0:0:0:
232,92,28348,5,0,0:0:0:0:
172,320,28637,1,2,0:0:0:0:
336,176,28927,1,0,0:0:0:0:
44,240,29217,2,0,P|19:200|37:121,1,120,2|0,0:0|0:0,0:0:0:0:
244,111,29797,2,0,P|269:151|251:230,1,120,2|0,0:0|0:0,0:0:0:0:
104,176,30377,2,0,L|188:172,1,80,2|0,0:0|0:0,0:0:0:0:
382,150,30956,5,2,0:0:0:0:
280,312,31246,1,0,0:0:0:0:
500,208,31536,1,2,0:0:0:0:
300,28,31826,1,0,0:0:0:0:
392,328,32116,1,2,0:0:0:0:
220,128,32406,2,0,L|216:44,1,80,0|2,0:0|0:0,0:0:0:0:
36,148,32985,5,2,0:0:0:0:
88,248,33130,2,0,P|156:252|224:200,2,136.000002593994,2|2|2,0:0|0:0|0:0,0:0:0:0:
36,148,34000,1,2,0:0:0:0:
148,52,34145,2,0,L|144:136,1,80,8|0,0:0|0:0,0:0:0:0:
216,164,34724,1,0,0:0:0:0:
296,148,35014,1,0,0:0:0:0:
396,320,35304,5,2,0:0:0:0:
468,240,35449,2,0,L|460:96,2,136.000002593994,2|2|2,0:0|0:0|0:0,0:0:0:0:
304,184,36319,1,2,0:0:0:0:
208,132,36463,2,0,P|196:156|200:212,1,80,8|0,0:0|0:0,0:0:0:0:
304,184,37043,1,2,0:0:0:0:
424,208,37188,1,2,0:0:0:0:
344,288,37333,2,0,L|256:280,1,68.0000012969971,2|2,0:0|0:0,0:0:0:0:
424,208,37623,5,2,0:0:0:0:
376,108,37768,2,0,L|224:92,2,136.000002593994,2|2|2,0:0|0:0|0:0,0:0:0:0:
424,208,38637,1,2,0:0:0:0:
344,288,38782,6,0,P|340:336|352:376,2,80,8|0|2,0:0|0:0|0:0,0:0:0:0:
384,164,39507,1,0,0:0:0:0:
436,220,39652,2,0,L|484:216,1,40,0|0,0:0|0:0,0:0:0:0:
316,200,39942,5,2,0:0:0:0:
232,272,40087,2,0,P|164:272|104:240,2,136.000002593994,2|2|2,0:0|0:0|0:0,0:0:0:0:
316,200,40956,1,2,0:0:0:0:
392,324,41101,6,0,L|400:236,1,80,8|2,0:0|0:0,0:0:0:0:
264,80,41681,2,0,L|256:159,1,80,8|8,0:0|0:0,0:0:0:0:
212,216,42043,1,8,0:0:0:0:
196,200,42116,2,0,P|180:192|160:184,1,40,8|0,0:0|0:0,0:0:0:0:
260,272,42261,6,0,P|312:268|340:248,1,80,2|2,0:0|0:0,0:0:0:0:
436,128,42550,2,0,L|452:212,1,80,8|2,0:0|0:0,0:0:0:0:
260,48,42840,2,0,L|248:136,1,80,0|2,0:0|0:0,0:0:0:0:
184,252,43130,6,0,P|144:236|104:236,1,80,8|0,0:0|0:0,0:0:0:0:
344,344,43710,2,0,L|424:336,1,80,8|0,0:0|0:0,0:0:0:0:
416,84,44290,2,0,L|336:92,1,80,8|2,0:0|0:0,0:0:0:0:
144,44,44724,5,2,0:0:0:0:
280,28,44869,1,8,0:0:0:0:
220,152,45014,2,0,P|220:204|224:232,2,80,2|0|2,0:0|0:0|0:0,0:0:0:0:
124,44,45449,2,0,L|32:32,1,80,8|0,0:0|0:0,0:0:0:0:
340,156,45739,2,0,L|419:166,1,80
124,168,46029,2,0,L|32:180,1,80,8|0,0:0|0:0,0:0:0:0:
328,40,46319,2,0,L|420:28,1,80
236,107,46608,2,0,B|244:136|244:136|244:160|244:160|248:192,1,80,8|0,0:0|0:0,0:0:0:0:
184,304,46898,5,2,0:0:0:0:
112,224,47043,1,2,0:0:0:0:
72,328,47188,2,0,L|156:340,1,80,8|2,0:0|0:0,0:0:0:0:
296,184,47478,2,0,L|212:196,1,80,0|2,0:0|0:0,0:0:0:0:
424,280,47768,6,0,P|432:236|428:200,1,80,8|0,0:0|0:0,0:0:0:0:
83,201,48348,2,0,P|80:240|88:280,1,80,8|0,0:0|0:0,0:0:0:0:
256,128,48927,2,0,L|256:48,1,80,8|2,0:0|0:0,0:0:0:0:
160,84,49362,5,2,0:0:0:0:
196,204,49507,1,8,0:0:0:0:
336,188,49652,2,0,P|364:184|408:148,1,80,2|0,0:0|0:0,0:0:0:0:
304,24,50087,2,0,L|296:88,1,60,8|2,0:0|0:0,0:0:0:0:
292,112,50377,1,8,0:0:0:0:
220,224,50521,1,2,0:0:0:0:
344,188,50666,1,2,0:0:0:0:
208,112,50811,1,2,0:0:0:0:
304,264,50956,2,0,B|308:292|308:292|300:316|300:316|295:342,1,80,8|2,0:0|0:0,0:0:0:0:
396,256,51536,6,0,B|435:196|416:140|416:140|452:160|500:144,2,204.000003890991,6|2|2,0:0|0:0|0:0,0:0:0:0:
312,316,52550,2,0,P|248:324|184:296,1,136.000002593994,8|2,0:0|0:0,0:0:0:0:
208,144,52985,1,2,0:0:0:0:
208,144,53275,2,0,P|272:136|336:164,1,136.000002593994,8|0,0:0|0:0,0:0:0:0:
328,348,53855,2,0,P|220:368|140:300,2,204.000003890991,2|2|2,0:0|0:0|0:0,0:0:0:0:
436,248,54869,6,0,L|444:160,1,68.0000012969971,8|0,0:0|0:0,0:0:0:0:
336,105,55159,1,2,0:0:0:0:
324,100,55304,2,0,L|332:12,1,68.0000012969971,8|0,0:0|0:0,0:0:0:0:
200,12,55594,1,8,0:0:0:0:
188,20,55666,1,8,0:0:0:0:
176,32,55739,1,8,0:0:0:0:
168,48,55811,1,8,0:0:0:0:
164,64,55884,2,8,L|128:52,1,34.0000006484985
216,120,56029,2,8,P|228:108|240:88,1,34.0000006484985
140,140,56174,5,2,0:0:0:0:
140,140,56319,2,0,L|56:128,1,80,2|8,0:0|0:0,0:0:0:0:
104,320,56608,2,0,P|188:340|244:292,1,160
352,84,57043,1,8,0:0:0:0:
408,180,57188,2,8,L|400:340,1,160,8|0,0:0|0:0,0:0:0:0:
268,360,57623,2,0,P|228:360|192:340,1,80,8|2,0:0|0:0,0:0:0:0:
212,116,57913,1,2,0:0:0:0:
212,116,58058,2,0,P|156:120|132:136,1,80,2|8,0:0|0:0,0:0:0:0:
194,341,58348,1,0,0:0:0:0:
124,136,58492,5,2,0:0:0:0:
276,204,58637,2,0,L|268:288,1,80,2|8,0:0|0:0,0:0:0:0:
40,216,58927,1,0,0:0:0:0:
116,264,59072,2,0,L|124:180,1,80
264,100,59362,1,8,0:0:0:0:
344,128,59507,2,0,P|388:128|428:92,1,80,8|0,0:0|0:0,0:0:0:0:
264,100,59797,5,0,0:0:0:0:
80,40,59942,1,8,0:0:0:0:
240,16,60087,1,0,0:0:0:0:
136,108,60232,2,0,L|148:204,1,80,2|2,0:0|0:0,0:0:0:0:
384,164,60521,2,0,L|374:84,1,80,8|0,0:0|0:0,0:0:0:0:
264,200,60811,6,0,L|268:244,1,40,6|0,0:0|0:0,0:0:0:0:
156,336,61101,2,0,P|132:324|116:320,1,40,8|0,0:0|0:0,0:0:0:0:
208,136,61391,6,0,P|232:124|256:120,1,51.999997619629,2|2,0:0|0:0,0:0:0:0:
452,136,61681,2,0,L|456:84,1,51.999997619629,0|2,0:0|0:0,0:0:0:0:
348,272,61971,6,0,L|356:200,1,68.0000012969971,2|2,0:0|0:0,0:0:0:0:
208,40,62261,2,0,L|200:112,1,68.0000012969971,2|2,0:0|0:0,0:0:0:0:
136,272,62550,6,0,P|108:252|64:244,1,68.0000012969971,8|2,0:0|0:0,0:0:0:0:
340,168,62840,2,0,P|336:128|312:92,1,68.0000012969971,2|2,0:0|0:0,0:0:0:0:
216,44,63130,5,2,0:0:0:0:
60,128,63275,1,0,0:0:0:0:
235,153,63420,1,2,0:0:0:0:
105,26,63565,1,0,0:0:0:0:
135,202,63710,5,2,0:0:0:0:
135,202,63855,1,2,0:0:0:0:
376,155,64000,1,2,0:0:0:0:
376,155,64145,1,2,0:0:0:0:
457,53,64290,5,2,0:0:0:0:
282,212,64434,1,2,0:0:0:0:
480,240,64579,1,2,0:0:0:0:
328,48,64724,1,2,0:0:0:0:
282,212,64869,6,8,L|274:276,2,53.3333333333333,8|8|8,0:0|0:0|0:0,0:0:0:0:
137,112,65159,2,8,L|144:60,2,53.3333333333333,8|8|8,0:0|0:0|0:0,0:0:0:0:
204,172,65449,5,6,0:0:0:0:
127,310,65594,1,2,0:0:0:0:
269,256,65739,1,2,0:0:0:0:
118,210,65884,1,2,0:0:0:0:
220,338,66029,2,0,P|304:350|360:298,1,160,8|2,0:0|0:0,0:0:0:0:
328,148,66463,2,0,L|344:236,1,80,2|0,0:0|0:0,0:0:0:0:
328,136,66753,1,2,0:0:0:0:
256,32,66898,1,2,0:0:0:0:
168,108,67043,1,2,0:0:0:0:
240,208,67188,6,0,L|236:296,1,80,8|2,0:0|0:0,0:0:0:0:
80,304,67478,1,2,0:0:0:0:
160,212,67623,1,2,0:0:0:0:
188,344,67768,2,0,P|220:364|265:355,1,80,2|2,0:0|0:0,0:0:0:0:
60,300,68058,1,2,0:0:0:0:
152,192,68203,1,2,0:0:0:0:
236,288,68348,2,0,P|256:216|232:128,1,160,8|2,0:0|0:0,0:0:0:0:
76,44,68782,2,0,L|80:128,1,80,2|0,0:0|0:0,0:0:0:0:
104,240,69072,1,2,0:0:0:0:
152,56,69217,1,2,0:0:0:0:
236,148,69362,1,2,0:0:0:0:
32,160,69507,6,0,P|79:161|123:141,1,80,8|2,0:0|0:0,0:0:0:0:
222,40,69797,1,2,0:0:0:0:
276,169,69942,2,0,L|281:267,1,80,2|2,0:0|0:0,0:0:0:0:
308,336,70232,1,2,0:0:0:0:
366,207,70377,1,2,0:0:0:0:
200,232,70521,1,2,0:0:0:0:
399,300,70666,2,0,P|438:297|484:283,1,80,8|0,0:0|0:0,0:0:0:0:
206,320,70956,2,0,P|167:323|121:337,1,80,2|2,0:0|0:0,0:0:0:0:
281,219,71246,2,0,L|265:136,1,80,0|2,0:0|0:0,0:0:0:0:
44,192,71536,5,2,0:0:0:0:
176,156,71681,1,2,0:0:0:0:
84,80,71826,1,8,0:0:0:0:
116,240,71971,1,2,0:0:0:0:
176,64,72116,1,2,0:0:0:0:
0,112,72261,1,2,0:0:0:0:
144,176,72406,5,8,0:0:0:0:
160,188,72478,1,2,0:0:0:0:
184,192,72550,1,2,0:0:0:0:
204,192,72623,1,2,0:0:0:0:
224,188,72695,1,2,0:0:0:0:
244,180,72768,1,2,0:0:0:0:
280,185,72840,5,8,0:0:0:0:
292,169,72913,1,2,0:0:0:0:
300,149,72985,1,2,0:0:0:0:
304,129,73058,1,2,0:0:0:0:
304,109,73130,1,2,0:0:0:0:
296,93,73203,1,2,0:0:0:0:
271,62,73275,5,10,0:0:0:0:
251,62,73348,1,2,0:0:0:0:
231,62,73420,1,2,0:0:0:0:
211,62,73492,1,2,0:0:0:0:
192,63,73565,2,0,L|184:3,3,40,2|2|2|2,0:0|0:0|0:0|0:0,0:0:0:0:
171,138,73855,2,0,L|219:146,3,40,2|2|2|2,0:0|0:0|0:0|0:0,0:0:0:0:
100,92,74145,6,0,P|88:136|92:212,1,100,8|2,0:0|0:0,0:0:0:0:
424,190,74434,2,0,P|424:140|412:92,1,100,8|2,0:0|0:0,0:0:0:0:
304,364,74724,5,6,0:0:0:0:
315,155,74869,1,2,0:0:0:0:
188,296,75014,1,2,0:0:0:0:
359,236,75159,1,2,0:0:0:0:
197,107,75304,2,0,P|169:101|84:182,1,160,8|2,0:0|0:0,0:0:0:0:
160,264,75739,6,0,L|168:172,1,80,2|0,0:0|0:0,0:0:0:0:
56,264,76029,1,2,0:0:0:0:
116,356,76174,1,2,0:0:0:0:
116,356,76319,1,2,0:0:0:0:
264,232,76463,2,0,L|272:140,1,80,8|2,0:0|0:0,0:0:0:0:
468,280,76753,1,2,0:0:0:0:
320,332,76898,1,2,0:0:0:0:
400,164,77043,6,0,L|408:84,1,80,2|2,0:0|0:0,0:0:0:0:
224,112,77333,1,2,0:0:0:0:
224,112,77478,1,2,0:0:0:0:
128,204,77623,2,0,P|96:144|112:40,1,160,8|2,0:0|0:0,0:0:0:0:
304,24,78058,2,0,L|308:104,1,80,2|0,0:0|0:0,0:0:0:0:
348,200,78348,1,2,0:0:0:0:
464,100,78492,1,2,0:0:0:0:
312,120,78637,1,2,0:0:0:0:
444,232,78782,5,8,0:0:0:0:
388,48,78927,2,0,L|392:136,1,80,2|2,0:0|0:0,0:0:0:0:
356,264,79217,1,2,0:0:0:0:
468,348,79362,2,0,P|488:308|488:240,1,80,2|2,0:0|0:0,0:0:0:0:
344,128,79652,2,0,L|248:124,1,80,2|2,0:0|0:0,0:0:0:0:
188,336,79942,2,0,L|284:340,1,80,8|0,0:0|0:0,0:0:0:0:
52,288,80232,1,2,0:0:0:0:
188,336,80377,1,2,0:0:0:0:
52,288,80521,6,0,P|40:240|44:204,1,80,0|2,0:0|0:0,0:0:0:0:
304,60,80811,2,0,P|305:99|294:138,1,80,2|2,0:0|0:0,0:0:0:0:
180,224,81101,2,0,L|180:81,1,120,8|0,0:0|0:0,0:0:0:0:
180,64,81391,1,2,0:0:0:0:
286,28,81536,1,2,0:0:0:0:
400,56,81681,5,8,0:0:0:0:
428,156,81826,1,2,0:0:0:0:
328,128,81971,1,2,0:0:0:0:
472,88,82116,1,8,0:0:0:0:
360,204,82261,1,2,0:0:0:0:
320,48,82406,1,2,0:0:0:0:
472,172,82550,2,0,B|480:232|460:272|460:272|440:264,1,120,8|2,0:0|0:0,0:0:0:0:
416,284,82840,5,8,0:0:0:0:
260,320,82985,1,8,0:0:0:0:
116,296,83130,2,0,B|104:240|104:216|104:216|124:188|124:188|120:164|116:124,1,160,2|8,0:0|0:0,0:0:0:0:
260,104,83565,1,8,0:0:0:0:
232,244,83710,1,8,0:0:0:0:
232,244,84000,5,2,0:0:0:0:
268,136,84145,1,2,0:0:0:0:
344,216,84290,2,0,B|368:264|361:297|361:297|340:316,1,103.999995239258,8|0,0:0|0:0,0:0:0:0:
425,143,84869,2,0,L|432:40,1,103.999995239258,8|0,0:0|0:0,0:0:0:0:
86,143,85449,2,0,L|80:40,1,103.999995239258,8|0,0:0|0:0,0:0:0:0:
168,216,86029,2,0,B|144:264|150:297|150:297|172:316,1,103.999995239258,8|2,0:0|0:0,0:0:0:0:
408,344,86463,6,0,L|344:340,1,51.999997619629,2|8,0:0|0:0,0:0:0:0:
352,240,86753,1,0,0:0:0:0:
352,240,86898,2,0,L|284:232,1,51.999997619629
200,208,87188,1,8,0:0:0:0:
288,144,87333,1,0,0:0:0:0:
228,304,87478,1,0,0:0:0:0:
364,216,87623,2,0,L|296:208,1,51.999997619629,0|8,0:0|0:0,0:0:0:0:
200,208,87913,1,0,0:0:0:0:
328,312,88058,1,0,0:0:0:0:
200,204,88203,2,0,P|192:176|196:148,2,51.999997619629,0|8|0,0:0|0:0|0:0,0:0:0:0:
104,324,88637,5,2,0:0:0:0:
216,304,88782,1,2,0:0:0:0:
88,324,88927,2,0,L|84:216,1,103.999995239258,8|0,0:0|0:0,0:0:0:0:
312,216,89507,2,0,L|308:112,1,103.999995239258,8|0,0:0|0:0,0:0:0:0:
164,48,90087,2,0,P|120:40|56:64,1,103.999995239258,8|0,0:0|0:0,0:0:0:0:
88,260,90666,2,0,P|132:268|196:244,1,103.999995239258,8|2,0:0|0:0,0:0:0:0:
320,60,91101,5,2,0:0:0:0:
320,60,91246,2,0,L|328:128,1,51.999997619629,8|0,0:0|0:0,0:0:0:0:
368,208,91536,2,0,B|424:220|455:189|455:189|460:156,1,103.999995239258,0|8,0:0|0:0,0:0:0:0:
324,324,92116,2,0,B|268:336|237:305|237:305|232:272,1,103.999995239258,0|8,0:0|0:0,0:0:0:0:
128,160,92550,2,0,L|132:268,1,103.999995239258
48,120,92985,1,8,0:0:0:0:
140,60,93130,1,0,0:0:0:0:
220,148,93275,6,0,P|260:148|292:112,1,68.0000012969971,6|6,0:0|0:0,0:0:0:0:
356,60,93565,1,8,0:0:0:0:
420,140,93710,2,0,L|416:220,1,68.0000012969971,4|0,0:0|0:0,0:0:0:0:
340,276,94000,1,4,0:0:0:0:
496,208,94145,2,0,L|492:288,1,68.0000012969971,12|0,0:0|0:0,0:0:0:0:
300,248,94434,2,0,L|304:328,1,68.0000012969971,0|4,0:0|0:0,0:0:0:0:
204,336,94724,1,12,0:0:0:0:
132,264,94869,1,0,0:0:0:0:
148,164,95014,5,6,0:0:0:0:
320,136,95159,1,2,0:0:0:0:
208,240,95304,1,12,0:0:0:0:
256,64,95449,1,4,0:0:0:0:
288,256,95594,6,0,L|280:168,1,68.0000012969971,2|6,0:0|0:0,0:0:0:0:
164,40,95884,1,8,0:0:0:0:
68,80,96029,2,0,P|62:122|72:156,1,68.0000012969971,4|0,0:0|0:0,0:0:0:0:
156,200,96319,1,4,0:0:0:0:
240,144,96463,2,8,P|247:111|240:76,1,68.0000012969971,12|0,0:0|0:0,0:0:0:0:
156,112,96753,1,0,0:0:0:0:
60,212,96898,1,4,0:0:0:0:
88,44,97043,1,8,0:0:0:0:
208,192,97188,1,4,0:0:0:0:
88,124,97333,6,0,L|16:116,1,68.0000012969971,2|6,0:0|0:0,0:0:0:0:
212,264,97623,2,0,L|140:256,1,68.0000012969971,8|4,0:0|0:0,0:0:0:0:
300,272,97913,1,2,0:0:0:0:
384,240,98058,1,6,0:0:0:0:
428,164,98203,1,8,0:0:0:0:
472,240,98348,2,0,L|468:316,1,68.0000012969971,4|0,0:0|0:0,0:0:0:0:
280,176,98637,2,0,P|276:128|280:100,1,68.0000012969971,4|8,0:0|0:0,0:0:0:0:
344,284,98927,2,0,B|288:276|288:276|256:280|256:280|192:272,1,136.000002593994,4|4,0:0|0:0,0:0:0:0:
68,124,99362,6,0,P|68:84|60:56,1,68.0000012969971,8|4,0:0|0:0,0:0:0:0:
136,260,99652,2,0,L|216:244,1,68.0000012969971,2|6,0:0|0:0,0:0:0:0:
328,92,99942,2,0,L|324:176,1,68.0000012969971,8|4,0:0|0:0,0:0:0:0:
360,336,100232,1,2,0:0:0:0:
448,336,100377,2,0,P|456:304|456:264,1,68.0000012969971,6|8,0:0|0:0,0:0:0:0:
360,336,100666,2,0,P|300:316|228:324,1,136.000002593994,4|4,0:0|0:0,0:0:0:0:
88,364,101101,2,0,B|80:279|80:279|64:264,1,102.000001945496,8|2,0:0|0:0,0:0:0:0:
72,228,101391,5,8,0:0:0:0:
128,104,101536,1,2,0:0:0:0:
244,168,101681,1,2,0:0:0:0:
188,292,101826,1,2,0:0:0:0:
64,148,101971,1,2,0:0:0:0:
160,216,102116,1,2,0:0:0:0:
220,88,102261,1,2,0:0:0:0:
284,252,102406,1,2,0:0:0:0:
216,80,102550,6,0,B|284:80|320:32|320:32|344:72|400:80,2,204.000003890991,6|2|2,0:0|0:0|0:0,0:0:0:0:
168,208,103565,2,0,L|180:348,1,136.000002593994,8|2,0:0|0:0,0:0:0:0:
179,343,104000,1,2,0:0:0:0:
456,272,104290,2,0,L|460:136,1,136.000002593994,8|0,0:0|0:0,0:0:0:0:
320,336,104869,2,0,P|218:349|166:251,2,204.000003890991,2|2|2,0:0|0:0|0:0,0:0:0:0:
256,264,105884,6,0,L|252:120,1,136.000002593994,8|2,0:0|0:0,0:0:0:0:
40,60,106319,2,0,L|43:195,1,136.000002593994,8|8,0:0|0:0,0:0:0:0:
80,276,106705,6,0,L|136:260,1,45.3333341979981,8|2,0:0|0:0,0:0:0:0:
200,304,106898,1,2,0:0:0:0:
200,304,106995,2,0,P|200:332|196:352,1,45.3333341979981,2|2,0:0|0:0,0:0:0:0:
112,352,107188,5,2,0:0:0:0:
200,216,107333,2,0,L|288:220,1,68.0000012969971,2|0,0:0|0:0,0:0:0:0:
116,208,107623,1,4,0:0:0:0:
216,96,107768,1,12,0:0:0:0:
272,240,107913,1,6,0:0:0:0:
216,96,108058,2,0,P|208:56|208:16,1,68.0000012969971,2|2,0:0|0:0,0:0:0:0:
216,96,108492,5,4,0:0:0:0:
364,48,108637,1,4,0:0:0:0:
280,168,108782,1,4,0:0:0:0:
280,4,108927,2,0,L|288:84,1,68.0000012969971,2|6,0:0|0:0,0:0:0:0:
136,96,109217,2,0,L|144:176,1,68.0000012969971,0|4,0:0|0:0,0:0:0:0:
172,240,109507,5,2,0:0:0:0:
404,188,109652,1,6,0:0:0:0:
404,188,109942,1,4,0:0:0:0:
364,348,110087,1,12,0:0:0:0:
488,248,110232,1,4,0:0:0:0:
322,250,110377,1,2,0:0:0:0:
138,64,110521,1,6,0:0:0:0:
224,276,110811,5,4,0:0:0:0:
64,184,110956,1,4,0:0:0:0:
240,160,111101,1,4,0:0:0:0:
124,284,111246,2,0,L|128:360,1,68.0000012969971,8|6,0:0|0:0,0:0:0:0:
240,160,111536,2,0,L|244:236,1,68.0000012969971,0|4,0:0|0:0,0:0:0:0:
252,352,111826,6,0,P|272:340|304:332,1,40,6|0,0:0|0:0,0:0:0:0:
400,176,112116,2,0,P|424:184|440:196,1,40,8|0,0:0|0:0,0:0:0:0:
240,200,112406,6,0,L|236:144,1,51.999997619629,2|2,0:0|0:0,0:0:0:0:
452,56,112695,2,0,L|456:108,1,51.999997619629,0|2,0:0|0:0,0:0:0:0:
416,336,112985,6,0,L|344:328,1,68.0000012969971,2|2,0:0|0:0,0:0:0:0:
112,227,113275,2,0,L|180:220,1,68.0000012969971,2|2,0:0|0:0,0:0:0:0:
312,60,113565,2,0,P|324:108|320:140,1,68.0000012969971,2|2,0:0|0:0,0:0:0:0:
149,366,113855,2,0,P|137:318|141:286,1,68.0000012969971,2|2,0:0|0:0,0:0:0:0:
129,117,114145,5,2,0:0:0:0:
332,136,114290,1,2,0:0:0:0:
197,254,114434,1,2,0:0:0:0:
264,32,114579,1,2,0:0:0:0:
296,224,114724,1,2,0:0:0:0:
296,224,114869,1,2,0:0:0:0:
177,60,115014,1,2,0:0:0:0:
177,60,115159,1,2,0:0:0:0:
44,208,115304,5,2,0:0:0:0:
184,160,115449,1,2,0:0:0:0:
60,88,115594,1,2,0:0:0:0:
124,300,115739,1,2,0:0:0:0:
260,196,115884,5,8,0:0:0:0:
260,196,115980,2,8,L|312:184,1,45.3333341979981
424,280,116174,1,8,0:0:0:0:
424,280,116270,2,8,P|428:308|432:344,1,45.3333341979981
320,292,116463,5,6,0:0:0:0:
192,256,116608,1,2,0:0:0:0:
352,212,116753,1,2,0:0:0:0:
248,360,116898,1,2,0:0:0:0:
272,180,117043,2,0,B|269:155|268:128|268:128|288:72|288:72|288:48|284:16,1,160,8|2,0:0|0:0,0:0:0:0:
160,188,117478,6,0,L|152:96,1,80,2|0,0:0|0:0,0:0:0:0:
72,224,117768,1,2,0:0:0:0:
232,248,117913,1,2,0:0:0:0:
100,336,118058,1,2,0:0:0:0:
180,196,118203,2,0,L|172:112,1,80,8|2,0:0|0:0,0:0:0:0:
240,52,118492,1,2,0:0:0:0:
344,52,118637,1,2,0:0:0:0:
424,120,118782,6,0,L|431:199,1,80,2|2,0:0|0:0,0:0:0:0:
312,312,119072,1,2,0:0:0:0:
432,372,119217,1,2,0:0:0:0:
357,216,119362,2,0,P|285:207|217:268,1,160,8|2,0:0|0:0,0:0:0:0:
56,360,119797,2,0,L|136:344,1,80,2|0,0:0|0:0,0:0:0:0:
136,208,120087,1,2,0:0:0:0:
216,352,120232,1,2,0:0:0:0:
44,272,120377,1,2,0:0:0:0:
224,236,120521,6,0,P|228:180|220:152,1,80,8|2,0:0|0:0,0:0:0:0:
112,36,120811,1,2,0:0:0:0:
84,204,120956,1,2,0:0:0:0:
200,80,121101,2,0,P|236:68|284:68,1,80,2|2,0:0|0:0,0:0:0:0:
464,216,121391,2,0,L|476:304,1,80,2|2,0:0|0:0,0:0:0:0:
164,156,121681,2,0,L|152:244,1,80,8|0,0:0|0:0,0:0:0:0:
340,32,121971,2,0,L|344:124,1,80,2|2,0:0|0:0,0:0:0:0:
344,256,122261,5,0,0:0:0:0:
452,144,122406,1,2,0:0:0:0:
416,328,122550,1,2,0:0:0:0:
284,176,122695,1,2,0:0:0:0:
468,244,122840,2,0,L|376:236,1,80,8|2,0:0|0:0,0:0:0:0:
200,284,123130,1,2,0:0:0:0:
304,296,123275,1,2,0:0:0:0:
100,304,123420,5,8,0:0:0:0:
84,292,123492,1,2,0:0:0:0:
72,276,123565,1,2,0:0:0:0:
64,256,123637,1,2,0:0:0:0:
60,236,123710,1,2,0:0:0:0:
60,216,123782,1,2,0:0:0:0:
49,182,123855,5,8,0:0:0:0:
57,162,123927,1,2,0:0:0:0:
69,146,124000,1,2,0:0:0:0:
85,134,124072,1,2,0:0:0:0:
101,122,124145,1,2,0:0:0:0:
121,118,124217,1,2,0:0:0:0:
154,130,124290,5,10,0:0:0:0:
159,149,124362,1,2,0:0:0:0:
163,169,124434,1,2,0:0:0:0:
167,189,124507,1,2,0:0:0:0:
172,208,124579,2,0,P|200:204|228:188,3,40,2|2|2|2,0:0|0:0|0:0|0:0,0:0:0:0:
272,100,124869,2,0,P|244:104|216:120,3,40,2|2|2|2,0:0|0:0|0:0|0:0,0:0:0:0:
296,180,125159,6,0,L|408:184,1,100,8|2,0:0|0:0,0:0:0:0:
283,347,125449,2,0,L|184:344,1,100,8|2,0:0|0:0,0:0:0:0:
440,343,125739,6,0,P|440:304|434:264,1,80,6|2,0:0|0:0,0:0:0:0:
384,92,126029,1,2,0:0:0:0:
248,164,126174,1,2,0:0:0:0:
296,320,126319,2,0,L|128:312,1,160,8|2,0:0|0:0,0:0:0:0:
24,216,126753,2,0,L|16:128,1,80,2|0,0:0|0:0,0:0:0:0:
80,32,127043,1,2,0:0:0:0:
160,208,127188,1,2,0:0:0:0:
188,60,127333,1,2,0:0:0:0:
32,216,127478,2,0,L|24:128,1,80,8|2,0:0|0:0,0:0:0:0:
116,36,127768,1,2,0:0:0:0:
116,36,127913,1,2,0:0:0:0:
88,300,128058,6,0,P|136:300|176:280,1,80,2|2,0:0|0:0,0:0:0:0:
256,200,128348,1,2,0:0:0:0:
376,248,128492,1,2,0:0:0:0:
308,320,128637,2,0,L|320:156,1,160,8|2,0:0|0:0,0:0:0:0:
424,292,129072,2,0,L|428:204,1,80,2|0,0:0|0:0,0:0:0:0:
220,132,129362,1,2,0:0:0:0:
172,224,129507,1,2,0:0:0:0:
200,324,129652,1,2,0:0:0:0:
296,364,129797,6,0,L|384:360,1,80,8|2,0:0|0:0,0:0:0:0:
235,230,130087,1,2,0:0:0:0:
323,284,130232,1,2,0:0:0:0:
148,296,130377,2,0,P|132:257|139:192,1,80,2|2,0:0|0:0,0:0:0:0:
239,57,130666,2,0,P|237:96|222:133,1,80,2|2,0:0|0:0,0:0:0:0:
40,236,130956,2,0,L|32:140,1,80,8|0,0:0|0:0,0:0:0:0:
330,80,131246,2,0,L|338:176,1,80,2|2,0:0|0:0,0:0:0:0:
416,284,131536,5,0,0:0:0:0:
248,216,131681,1,2,0:0:0:0:
420,184,131826,1,2,0:0:0:0:
312,328,131971,1,2,0:0:0:0:
324,124,132116,2,0,L|408:112,1,80,8|2,0:0|0:0,0:0:0:0:
188,148,132406,1,2,0:0:0:0:
188,148,132550,1,2,0:0:0:0:
96,40,132695,6,0,L|180:28,1,80,8|2,0:0|0:0,0:0:0:0:
276,12,132985,1,2,0:0:0:0:
472,192,133130,2,0,L|392:192,1,80,8|2,0:0|0:0,0:0:0:0:
284,192,133420,1,2,0:0:0:0:
96,344,133565,2,0,B|184:340|184:340|224:324|224:324,1,120,8|2,0:0|0:0,0:0:0:0:
240,316,133855,5,8,0:0:0:0:
352,224,134000,1,8,0:0:0:0:
156,160,134145,1,2,0:0:0:0:
156,160,134434,5,8,0:0:0:0:
388,96,134579,1,8,0:0:0:0:
336,260,134724,1,8,0:0:0:0:
200,32,134869,1,8,0:0:0:0:
224,296,135014,6,0,B|224:324|240:344|240:344|264:352|280:344,1,80,2|0,3:0|0:0,0:0:0:0:
116,288,144290,5,2,0:0:0:0:
184,240,144434,2,0,L|188:168,1,68.0000012969971,2|0,0:0|0:0,0:0:0:0:
32,36,144724,1,2,0:0:0:0:
32,36,144869,2,0,L|28:103,1,68.0000012969971,2|0,0:0|0:0,0:0:0:0:
88,324,145159,2,0,P|128:324|168:304,1,68.0000012969971,2|0,0:0|0:0,0:0:0:0:
320,208,145449,2,0,L|387:215,1,68.0000012969971,2|0,0:0|0:0,0:0:0:0:
252,256,145739,5,2,0:0:0:0:
204,192,145884,1,2,0:0:0:0:
216,112,146029,1,2,0:0:0:0:
284,64,146174,1,2,0:0:0:0:
364,76,146319,1,2,0:0:0:0:
424,132,146463,1,2,0:0:0:0:
428,124,146536,1,2,0:0:0:0:
432,116,146608,6,0,L|424:184,1,68.0000012969971,2|0,0:0|0:0,0:0:0:0:
336,308,146898,1,2,0:0:0:0:
204,208,147043,2,0,P|164:184|128:184,1,68.0000012969971,2|0,0:0|0:0,0:0:0:0:
64,352,147333,1,2,0:0:0:0:
64,352,147478,2,0,L|56:284,1,68.0000012969971,2|0,0:0|0:0,0:0:0:0:
300,216,147768,2,0,L|292:148,1,68.0000012969971,2|0,0:0|0:0,0:0:0:0:
116,48,148058,5,2,0:0:0:0:
84,124,148203,1,2,0:0:0:0:
88,204,148348,1,2,0:0:0:0:
124,276,148492,1,2,0:0:0:0:
196,316,148637,1,2,0:0:0:0:
276,320,148782,1,2,0:0:0:0:
280,328,148855,1,2,0:0:0:0:
284,336,148927,6,0,L|280:256,1,68.0000012969971,2|0,0:0|0:0,0:0:0:0:
156,144,149217,1,2,0:0:0:0:
80,320,149362,2,0,P|124:320|152:300,1,68.0000012969971,2|0,0:0|0:0,0:0:0:0:
432,320,149652,1,2,0:0:0:0:
432,320,149797,2,0,P|388:320|360:300,1,68.0000012969971,2|0,0:0|0:0,0:0:0:0:
120,80,150087,2,0,L|128:164,1,68.0000012969971,2|0,0:0|0:0,0:0:0:0:
184,28,150377,5,2,0:0:0:0:
264,20,150521,1,2,0:0:0:0:
340,44,150666,1,2,0:0:0:0:
392,108,150811,1,2,0:0:0:0:
412,188,150956,1,2,0:0:0:0:
392,268,151101,1,2,0:0:0:0:
400,272,151174,1,2,0:0:0:0:
408,276,151246,6,0,L|328:268,1,68.0000012969971,2|2,0:0|0:0,0:0:0:0:
68,348,151536,2,0,L|148:340,1,68.0000012969971,2|2,0:0|0:0,0:0:0:0:
420,252,151826,2,0,L|340:244,1,68.0000012969971,2|2,0:0|0:0,0:0:0:0:
48,320,152116,2,0,L|128:312,1,68.0000012969971,2|2,0:0|0:0,0:0:0:0:
432,220,152406,5,8,0:0:0:0:
404,216,152478,1,8,0:0:0:0:
372,212,152550,1,8,0:0:0:0:
340,208,152623,1,8,0:0:0:0:
308,204,152695,2,0,L|308:244,1,34.0000006484985,2|0,0:0|0:0,0:0:0:0:
244,348,152840,5,8,0:0:0:0:
276,352,152913,1,8,0:0:0:0:
308,348,152985,1,8,0:0:0:0:
336,336,153058,1,8,0:0:0:0:
360,320,153130,2,0,L|360:268,1,34.0000006484985,2|0,0:0|0:0,0:0:0:0:
240,152,153275,6,0,L|240:208,1,34.0000006484985,12|12,0:0|0:0,0:0:0:0:
344,280,153420,2,0,L|344:246,1,34.0000006484985,6|4,0:0|0:0,0:0:0:0:
212,140,153565,6,0,L|212:248,1,92.0000017547608,12|2,0:0|0:0,0:0:0:0:
112,192,153855,1,8,0:0:0:0:
304,112,154000,1,2,0:0:0:0:
280,252,154145,1,8,0:0:0:0:
168,72,154290,1,2,0:0:0:0:
180,264,154434,6,0,L|184:368,1,103.999995239258,8|2,0:0|0:0,0:0:0:0:
444,200,154724,2,0,L|440:96,1,103.999995239258,8|2,0:0|0:0,0:0:0:0:
72,96,155014,2,0,L|68:200,1,103.999995239258,8|2,0:0|0:0,0:0:0:0:
328,368,155304,2,0,L|332:264,1,103.999995239258,8|2,0:0|0:0,0:0:0:0:
292,64,155594,2,0,P|240:48|176:52,1,103.999995239258,8|2,0:0|0:0,0:0:0:0:
144,208,155884,5,8,0:0:0:0:
304,316,156029,1,2,0:0:0:0:
308,144,156174,1,8,0:0:0:0:
144,328,156319,1,2,0:0:0:0:
340,260,156463,1,8,0:0:0:0:
212,124,156608,1,2,0:0:0:0:
224,336,156753,6,0,L|332:340,1,103.999995239258,8|2,0:0|0:0,0:0:0:0:
440,112,157043,2,0,L|332:108,1,103.999995239258,8|2,0:0|0:0,0:0:0:0:
64,284,157333,2,0,L|60:172,1,103.999995239258,8|2,0:0|0:0,0:0:0:0:
368,68,157623,2,0,L|364:171,1,103.999995239258,8|2,0:0|0:0,0:0:0:0:
28,256,157913,2,0,L|24:128,1,103.999995239258,8|2,0:0|0:0,0:0:0:0:
487,152,158203,2,0,L|484:256,1,103.999995239258,8|2,0:0|0:0,0:0:0:0:
324,168,158492,5,8,0:0:0:0:
156,280,158637,1,2,0:0:0:0:
304,348,158782,1,8,0:0:0:0:
176,156,158927,1,2,0:0:0:0:
216,344,159072,1,8,0:0:0:0:
388,252,159217,1,2,0:0:0:0:
232,240,159362,6,0,L|120:232,1,103.999995239258,8|2,0:0|0:0,0:0:0:0:
340,40,159652,2,0,L|444:48,1,103.999995239258,8|2,0:0|0:0,0:0:0:0:
220,108,159942,1,8,0:0:0:0:
60,192,160087,1,2,0:0:0:0:
200,240,160232,1,8,0:0:0:0:
116,68,160377,1,2,0:0:0:0:
120,252,160521,6,0,P|176:316|260:296,1,160,12|2,0:0|0:0,0:0:0:0:
392,128,160956,1,2,0:0:0:0:
392,128,161101,5,2,0:0:0:0:
404,240,161246,1,2,0:0:0:0:
256,112,161391,5,2,0:0:0:0:
208,296,161536,1,2,0:0:0:0:
160,36,161681,5,8,0:0:0:0:
160,36,161777,2,8,L|124:80,1,53.3333333333333
56,252,161971,1,8,0:0:0:0:
56,252,162067,2,8,P|56:292|60:316,1,53.3333333333333
224,200,162261,1,8,0:0:0:0:
224,200,162357,2,8,P|240:232|252:264,1,53.3333333333333
144,240,162550,1,8,0:0:0:0:
140,192,162647,1,8,0:0:0:0:
156,148,162744,1,8,0:0:0:0:
192,116,162840,6,0,L|288:120,1,80,6|2,0:0|0:0,0:0:0:0:
452,132,163130,1,2,0:0:0:0:
336,28,163275,1,2,0:0:0:0:
308,200,163420,2,0,P|304:288|332:360,1,160,8|2,0:0|0:0,0:0:0:0:
152,344,163855,2,0,L|68:340,1,80,2|0,0:0|0:0,0:0:0:0:
228,252,164145,1,2,0:0:0:0:
76,148,164290,1,2,0:0:0:0:
120,248,164434,1,2,0:0:0:0:
232,124,164579,6,0,L|148:120,1,80,8|2,0:0|0:0,0:0:0:0:
72,24,164869,1,2,0:0:0:0:
72,24,165014,1,2,0:0:0:0:
40,200,165159,2,0,P|40:244|56:288,1,80,2|2,0:0|0:0,0:0:0:0:
112,104,165449,1,2,0:0:0:0:
240,116,165594,1,2,0:0:0:0:
300,228,165739,2,0,L|464:216,1,160,8|2,0:0|0:0,0:0:0:0:
328,344,166174,2,0,L|420:336,1,80,2|0,0:0|0:0,0:0:0:0:
208,224,166463,1,2,0:0:0:0:
348,192,166608,1,2,0:0:0:0:
228,360,166753,1,2,0:0:0:0:
88,288,166898,6,0,P|76:252|76:208,1,80,8|2,0:0|0:0,0:0:0:0:
120,92,167188,1,2,0:0:0:0:
248,76,167333,1,2,0:0:0:0:
360,140,167478,2,0,L|356:52,1,80,2|2,0:0|0:0,0:0:0:0:
340,240,167768,1,2,0:0:0:0:
456,168,167913,1,2,0:0:0:0:
428,324,168058,2,0,L|424:236,1,80,8|0,0:0|0:0,0:0:0:0:
200,304,168348,2,0,P|240:316|288:320,1,80,2|2,0:0|0:0,0:0:0:0:
360,61,168637,2,0,P|354:101|348:140,1,80,0|2,0:0|0:0,0:0:0:0:
52,271,168927,2,0,P|48:235|48:183,1,80,2|2,0:0|0:0,0:0:0:0:
156,116,169217,5,8,0:0:0:0:
332,144,169362,1,2,0:0:0:0:
204,240,169507,1,2,0:0:0:0:
280,52,169652,1,2,0:0:0:0:
96,40,169797,5,10,0:0:0:0:
78,49,169869,1,2,0:0:0:0:
66,65,169942,1,2,0:0:0:0:
56,82,170014,1,2,0:0:0:0:
51,101,170087,1,2,0:0:0:0:
46,120,170159,1,2,0:0:0:0:
24,144,170232,5,10,0:0:0:0:
26,164,170304,1,2,0:0:0:0:
30,183,170377,1,2,0:0:0:0:
38,201,170449,1,2,0:0:0:0:
49,217,170521,1,2,0:0:0:0:
65,228,170594,1,2,0:0:0:0:
101,231,170666,5,10,0:0:0:0:
117,211,170739,1,2,0:0:0:0:
129,191,170811,1,2,0:0:0:0:
145,171,170884,1,2,0:0:0:0:
158,157,170956,2,0,L|202:161,3,40,2|2|2|2,0:0|0:0|0:0|0:0,0:0:0:0:
239,243,171246,2,0,L|195:239,3,40,2|2|2|2,0:0|0:0|0:0|0:0,0:0:0:0:
208,320,171536,6,0,L|96:316,1,100,8|2,0:0|0:0,0:0:0:0:
296,48,171826,2,0,L|184:44,1,100,8|2,0:0|0:0,0:0:0:0:
436,60,172116,5,6,0:0:0:0:
268,144,172261,1,2,0:0:0:0:
448,188,172406,1,2,0:0:0:0:
364,80,172550,1,2,0:0:0:0:
252,212,172695,2,0,P|180:220|96:172,1,160,8|2,0:0|0:0,0:0:0:0:
64,328,173130,2,0,L|48:244,1,80,2|0,0:0|0:0,0:0:0:0:
74,133,173420,1,2,0:0:0:0:
224,80,173565,1,2,0:0:0:0:
133,213,173710,1,2,0:0:0:0:
128,55,173855,5,8,0:0:0:0:
229,181,174000,1,2,0:0:0:0:
74,132,174145,1,2,0:0:0:0:
224,80,174290,1,2,0:0:0:0:
252,280,174434,2,0,P|304:280|336:260,1,80,2|2,0:0|0:0,0:0:0:0:
404,200,174724,1,2,0:0:0:0:
404,200,174869,1,2,0:0:0:0:
136,272,175014,2,0,L|124:108,1,160,8|2,0:0|0:0,0:0:0:0:
360,44,175449,6,0,L|368:136,1,80,2|0,0:0|0:0,0:0:0:0:
296,232,175739,1,2,0:0:0:0:
448,204,175884,1,2,0:0:0:0:
280,124,176029,1,2,0:0:0:0:
380,272,176174,2,0,L|388:364,1,80,8|2,0:0|0:0,0:0:0:0:
268,304,176463,1,2,0:0:0:0:
140,304,176608,1,2,0:0:0:0:
25,361,176753,6,0,B|-16:308|12:237|12:237|44:224,1,160,2|2,0:0|0:0,0:0:0:0:
80,104,177188,1,2,0:0:0:0:
187,175,177333,2,0,P|207:127|203:91,1,80,8|0,0:0|0:0,0:0:0:0:
40,260,177623,2,0,L|48:352,1,80,2|2,0:0|0:0,0:0:0:0:
256,128,177913,2,0,L|256:40,1,80,0|2,0:0|0:0,0:0:0:0:
472,260,178203,2,0,L|464:352,1,80,2|2,0:0|0:0,0:0:0:0:
340,308,178492,1,8,0:0:0:0:
216,168,178637,1,2,0:0:0:0:
400,168,178782,1,2,0:0:0:0:
220,296,178927,1,2,0:0:0:0:
104,192,179072,6,0,L|92:104,1,80,8|2,0:0|0:0,0:0:0:0:
40,248,179362,1,2,0:0:0:0:
336,256,179507,6,0,L|348:168,1,80,8|2,0:0|0:0,0:0:0:0:
400,312,179797,1,2,0:0:0:0:
196,240,179942,2,0,P|216:152|292:144,1,160,8|8,0:0|0:0,0:0:0:0:
356,164,180328,5,8,0:0:0:0:
356,164,180425,1,8,0:0:0:0:
356,164,180521,2,8,L|412:168,1,53.3333333333333
456,240,180715,2,8,P|460:272|456:316,1,53.3333333333333
288,297,180908,2,8,P|288:270|292:244,1,53.3333333333333
372,280,181101,1,8,0:0:0:0:
372,280,181198,1,8,0:0:0:0:
372,280,181294,1,8,0:0:0:0:
372,280,181391,6,0,L|380:188,1,80,6|2,0:0|0:0,0:0:0:0:
140,104,181681,2,0,L|132:196,1,80,2|2,0:0|0:0,0:0:0:0:
392,288,181971,2,0,L|398:208,1,80,2|2,0:0|0:0,0:0:0:0:
120,96,182261,2,0,L|113:175,1,80,2|2,0:0|0:0,0:0:0:0:
408,296,182550,6,0,L|414:216,1,80,8|2,0:0|0:0,0:0:0:0:
224,68,182840,1,2,0:0:0:0:
104,88,182985,2,0,L|97:167,1,80,8|2,0:0|0:0,0:0:0:0:
290,189,183275,2,0,P|251:160|218:126,1,80,2|2,0:0|0:0,0:0:0:0:
220,304,183565,1,2,0:0:0:0:
220,304,183710,6,0,L|312:292,1,80,6|2,0:0|0:0,0:0:0:0:
292,80,184000,2,0,L|200:92,1,80,2|2,0:0|0:0,0:0:0:0:
216,320,184290,2,0,L|308:308,1,80,2|2,0:0|0:0,0:0:0:0:
296,64,184579,2,0,L|204:76,1,80,2|2,0:0|0:0,0:0:0:0:
212,336,184869,2,0,L|304:324,1,80,8|2,0:0|0:0,0:0:0:0:
408,92,185159,1,2,0:0:0:0:
300,48,185304,2,0,L|208:60,1,80,8|2,0:0|0:0,0:0:0:0:
104,292,185594,1,2,0:0:0:0:
204,352,185739,2,0,L|296:340,1,80,8|2,0:0|0:0,0:0:0:0:
404,324,186029,6,0,P|416:284|416:228,1,80,6|2,0:0|0:0,0:0:0:0:
93,245,186319,2,0,P|96:285|108:324,1,80,2|2,0:0|0:0,0:0:0:0:
424,320,186608,2,0,P|435:281|438:241,1,80,2|2,0:0|0:0,0:0:0:0:
73,241,186898,2,0,P|76:281|88:320,1,80,2|2,0:0|0:0,0:0:0:0:
332,344,187188,1,8,0:0:0:0:
440,316,187333,2,0,P|451:277|454:237,1,80,2|2,0:0|0:0,0:0:0:0:
128,172,187623,1,8,0:0:0:0:
57,237,187768,2,0,P|60:277|76:320,1,80,2|2,0:0|0:0,0:0:0:0:
256,344,188058,1,2,0:0:0:0:
256,344,188203,1,2,0:0:0:0:
368,144,188348,6,0,L|376:56,1,80,6|2,0:0|0:0,0:0:0:0:
136,64,188637,2,0,L|144:144,1,80,2|2,0:0|0:0,0:0:0:0:
388,148,188927,2,0,L|396:60,1,80,2|2,0:0|0:0,0:0:0:0:
116,68,189217,2,0,L|124:148,1,80,2|2,0:0|0:0,0:0:0:0:
256,344,189507,2,0,L|256:248,1,80,8|2,0:0|0:0,0:0:0:0:
316,136,189797,6,0,L|308:84,3,40,8|8|8|0,0:0|0:0|0:0|0:0,0:0:0:0:
336,144,190087,1,2,0:0:0:0:
352,156,190159,1,2,0:0:0:0:
368,172,190232,1,2,0:0:0:0:
376,192,190304,1,2,0:0:0:0:
380,212,190377,1,2,0:0:0:0:
380,232,190449,1,2,0:0:0:0:
376,252,190521,1,2,0:0:0:0:
368,272,190594,1,2,0:0:0:0:
356,288,190666,6,0,L|268:292,1,80,6|2,0:0|0:0,0:0:0:0:
72,280,190956,2,0,P|64:244|64:188,1,80,2|2,0:0|0:0,0:0:0:0:
449,201,191246,2,0,P|448:240|440:280,1,80,2|2,0:0|0:0,0:0:0:0:
48,280,191536,2,0,P|40:244|40:188,1,80,2|2,0:0|0:0,0:0:0:0:
407,126,191826,1,8,0:0:0:0:
473,201,191971,2,0,P|472:240|464:280,1,80,2|2,0:0|0:0,0:0:0:0:
128,308,192261,1,8,0:0:0:0:
28,280,192406,2,0,P|20:244|20:188,1,80,2|2,0:0|0:0,0:0:0:0:
256,64,192695,1,2,0:0:0:0:
256,64,192840,1,2,0:0:0:0:
364,76,192985,6,0,P|406:78|452:80,1,80,6|2,0:0|0:0,0:0:0:0:
148,76,193275,2,0,P|107:78|60:80,1,80,2|2,0:0|0:0,0:0:0:0:
304,200,193565,1,2,0:0:0:0:
392,208,193710,2,0,L|464:260,1,80,8|2,0:0|0:0,0:0:0:0:
55,254,194000,1,2,0:0:0:0:
55,254,194145,2,0,L|120:208,1,80,8|2,0:0|0:0,0:0:0:0:
408,196,194434,1,2,0:0:0:0:
408,196,194579,2,0,L|472:242,1,80,8|2,0:0|0:0,0:0:0:0:
39,242,194869,1,2,0:0:0:0:
39,242,195014,2,0,L|104:196,1,80,8|2,0:0|0:0,0:0:0:0:
248,88,195304,5,6,0:0:0:0:
388,96,195449,1,2,0:0:0:0:
248,188,195594,1,2,0:0:0:0:
332,32,195739,1,2,0:0:0:0:
344,168,195884,1,2,0:0:0:0:
264,28,196029,1,2,0:0:0:0:
192,140,196174,1,2,0:0:0:0:
312,112,196319,1,2,0:0:0:0:
172,48,196463,6,0,L|80:44,1,80,8|2,0:0|0:0,0:0:0:0:
280,224,196753,1,2,0:0:0:0:
280,224,196898,2,0,L|188:220,1,80,8|2,0:0|0:0,0:0:0:0:
400,352,197188,1,2,0:0:0:0:
400,352,197333,1,8,0:0:0:0:
400,352,197478,1,2,0:0:0:0:
400,352,197623,6,0,B|344:268|468:200|380:120,2,240,6|8|8,0:0|0:0|0:0,0:0:0:0:
289,229,198782,5,2,0:0:0:0:
201,233,199217,5,2,0:0:0:0:
117,237,199652,5,2,0:0:0:0:
36,240,199942,5,6,0:0:0:0:
256,192,200014,12,0,205232,0:0:0:0:
