osu file format v12

[General]
AudioFilename: liar.mp3
AudioLeadIn: 0
PreviewTime: 64819
Countdown: 0
SampleSet: None
StackLeniency: 0.7
Mode: 0
LetterboxInBreaks: 1
WidescreenStoryboard: 0

[Editor]
DistanceSpacing: 1
BeatDivisor: 4
GridSize: 8

[Metadata]
Title:Liar
TitleUnicode:Liar
Artist:ONE OK ROCK
ArtistUnicode:ONE OK ROCK
Creator:L i d a N
Version:LdN
Source:
Tags:
BeatmapID:322196
BeatmapSetID:126866

[Difficulty]
HPDrainRate:7
CircleSize:4
OverallDifficulty:8
ApproachRate:9
SliderMultiplier:1.6
SliderTickRate:1

[Events]
//Background and Video events
0,0,"bg.jpg",0,0
//Break Periods
//Storyboard Layer 0 (Background)
//Storyboard Layer 1 (Fail)
//Storyboard Layer 2 (Pass)
//Storyboard Layer 3 (Foreground)
//Storyboard Sound Samples
//Background Colour Transformations
3,100,163,162,255

[TimingPoints]
477,289.832669938556,4,3,1,55,1,0
41923,-100,4,3,1,45,0,0
42212,-95.2380952380952,4,3,1,55,0,0
65399,-95.2380952380952,4,3,1,55,0,1
83948,-100,4,3,1,55,0,0
102498,-95.2380952380952,4,3,1,55,0,0
116410,-95.2380952380952,4,3,1,55,0,1
134959,-100,4,3,1,55,0,0
153508,-90.9090909090909,4,3,1,55,0,0
162783,-95.2380952380952,4,3,1,55,0,1
181332,-95.2380952380952,4,3,1,55,0,0

[Colours]
Combo1 : 128,64,0
Combo2 : 128,0,3
Combo3 : 207,165,165

[HitObjects]
64,114,14388,1,0,0:0:0:0:
141,95,14533,1,0,0:0:0:0:
291,150,14823,1,0,0:0:0:0:
367,172,14968,1,0,0:0:0:0:
500,260,15258,1,0,0:0:0:0:
429,297,15403,1,0,0:0:0:0:
272,328,15693,1,0,0:0:0:0:
192,318,15838,1,0,0:0:0:0:
64,221,16127,2,0,P|45:142|101:95,1,160
257,70,16707,5,0,0:0:0:0:
336,62,16852,1,0,0:0:0:0:
489,108,17142,1,0,0:0:0:0:
503,186,17287,1,0,0:0:0:0:
383,293,17577,1,0,0:0:0:0:
305,314,17722,1,0,0:0:0:0:
176,219,18011,1,0,0:0:0:0:
97,201,18156,1,0,0:0:0:0:
225,104,18446,2,0,P|307:110|333:185,1,160
320,334,19026,5,0,0:0:0:0:
247,368,19171,1,0,0:0:0:0:
116,275,19461,1,0,0:0:0:0:
41,247,19605,1,0,0:0:0:0:
158,138,19895,1,0,0:0:0:0:
235,118,20040,1,0,0:0:0:0:
388,162,20330,1,0,0:0:0:0:
465,180,20475,1,0,0:0:0:0:
357,61,20765,2,0,P|283:33|194:55,1,160
75,141,21344,5,0,0:0:0:0:
21,200,21489,1,0,0:0:0:0:
156,285,21779,1,0,0:0:0:0:
232,307,21924,1,0,0:0:0:0:
380,246,22214,1,0,0:0:0:0:
441,194,22359,1,0,0:0:0:0:
336,72,22649,1,0,0:0:0:0:
260,44,22794,1,0,0:0:0:0:
100,42,23083,2,0,P|38:87|39:178,1,160
92,314,23663,5,0,0:0:0:0:
142,375,23808,1,0,0:0:0:0:
301,360,24098,1,0,0:0:0:0:
377,336,24243,2,0,P|437:288|423:208,1,160
375,150,24678,2,0,P|328:90|340:7,1,160
258,21,25112,2,0,P|171:3|91:21,2,160
400,94,25982,5,0,0:0:0:0:
461,145,26127,1,0,0:0:0:0:
340,250,26417,1,0,0:0:0:0:
261,263,26561,1,0,0:0:0:0:
121,184,26851,1,0,0:0:0:0:
54,139,26996,1,0,0:0:0:0:
47,59,27141,1,0,0:0:0:0:
104,3,27286,1,0,0:0:0:0:
182,18,27431,2,0,P|221:26|264:26,1,80
338,48,27721,2,0,P|370:71|396:111,1,80
453,336,28300,6,0,P|368:360|285:336,1,160
238,292,28735,1,0,0:0:0:0:
166,255,28880,2,0,P|98:234|4:259,1,160
22,173,29315,2,0,P|49:120|28:19,1,160
112,18,29750,2,0,B|156:7|228:36|281:23,2,160
191,156,30619,5,0,0:0:0:0:
262,191,30764,1,0,0:0:0:0:
280,268,30909,1,0,0:0:0:0:
226,327,31054,1,0,0:0:0:0:
146,334,31199,2,0,P|74:308|49:231,1,160
78,158,31634,2,0,P|107:80|68:2,1,160
158,1,32068,2,0,P|239:16|323:6,2,160
26,92,32938,5,0,0:0:0:0:
6,169,33083,1,0,0:0:0:0:
42,240,33228,1,0,0:0:0:0:
118,264,33373,1,0,0:0:0:0:
196,252,33517,1,0,0:0:0:0:
256,200,33662,2,0,P|322:156|406:162,1,160
467,203,34097,1,8,0:0:0:0:
496,277,34242,5,0,0:0:0:0:
460,348,34387,1,0,0:0:0:0:
380,360,34532,1,0,0:0:0:0:
307,325,34677,2,0,P|267:308|224:302,1,80
200,227,34967,2,0,P|191:186|200:142,1,80
229,75,35256,5,0,0:0:0:0:
287,19,35401,2,0,P|365:12|427:71,2,160
229,75,36126,1,0,0:0:0:0:
151,93,36271,1,0,0:0:0:0:
76,63,36416,1,8,0:0:0:0:
21,121,36561,1,0,0:0:0:0:
42,197,36706,2,0,P|50:241|49:287,1,80
109,329,36995,1,4,0:0:0:0:
187,314,37140,2,0,P|230:310|290:318,1,80,0|0,0:0|0:0,0:0:0:0:
343,336,37430,1,0,0:0:0:0:
412,295,37575,5,0,0:0:0:0:
447,223,37720,2,0,P|423:150|337:142,2,160
367,212,38445,2,0,P|335:240|294:254,1,80
222,272,38734,1,8,0:0:0:0:
143,255,38879,1,0,0:0:0:0:
79,205,39024,2,0,P|43:179|5:163,1,80
45,92,39314,2,0,P|72:64|114:44,1,80
186,25,39604,1,0,0:0:0:0:
265,35,39749,1,0,0:0:0:0:
327,84,39894,5,0,0:0:0:0:
356,158,40039,2,0,P|363:236|316:303,2,160
327,84,40763,1,0,0:0:0:0:
388,32,40908,1,0,0:0:0:0:
462,60,41053,2,8,P|505:129|491:219,1,160,8|0,0:0|0:0,0:0:0:0:
441,261,41488,1,0,0:0:0:0:
482,329,41633,2,8,P|402:361|322:339,1,160,8|0,0:0|0:0,0:0:0:0:
305,315,41995,2,0,L|284:302,4,20
269,291,42212,5,0,0:0:0:0:
196,251,42357,1,0,0:0:0:0:
112,254,42502,1,8,0:0:0:0:
36,216,42647,2,0,P|15:135|45:49,1,167.999994873047
104,2,43082,1,8,0:0:0:0:
184,26,43227,2,0,P|259:43|354:32,1,167.999994873047
430,9,43662,2,0,P|486:79|480:169,1,167.999994873047,8|0,0:0|0:0,0:0:0:0:
443,226,44096,1,0,0:0:0:0:
490,295,44241,2,0,P|415:339|318:334,1,167.999994873047,8|0,0:0|0:0,0:0:0:0:
254,316,44676,5,0,0:0:0:0:
195,256,44821,1,8,0:0:0:0:
170,175,44966,2,0,P|208:97|292:81,1,167.999994873047
345,134,45401,1,8,0:0:0:0:
413,85,45545,1,0,0:0:0:0:
472,143,45690,2,0,P|499:195|474:298,1,167.999994873047,0|8,0:0|0:0,0:0:0:0:
398,260,46125,1,0,0:0:0:0:
328,306,46270,2,0,P|242:319|154:304,1,167.999994873047,0|8,0:0|0:0,0:0:0:0:
93,258,46705,1,0,0:0:0:0:
49,185,46850,5,0,0:0:0:0:
85,109,46995,1,0,0:0:0:0:
168,99,47140,1,8,0:0:0:0:
232,151,47284,2,0,P|311:180|382:141,1,167.999994873047
341,68,47719,2,0,P|309:44|257:33,1,83.9999974365235,8|0,0:0|0:0,0:0:0:0:
182,37,48009,2,0,P|124:75|127:186,1,167.999994873047,0|8,0:0|0:0,0:0:0:0:
155,242,48444,1,0,0:0:0:0:
226,285,48589,2,0,P|270:300|315:304,1,83.9999974365235
371,248,48879,2,0,P|410:221|453:213,1,83.9999974365235,8|0,0:0|0:0,0:0:0:0:
384,154,49168,5,0,0:0:0:0:
305,123,49313,1,0,0:0:0:0:
227,156,49458,1,8,0:0:0:0:
144,173,49603,2,0,P|75:143|102:67,1,167.999994873047
172,26,50038,1,8,0:0:0:0:
251,53,50183,1,0,0:0:0:0:
322,8,50328,5,4,0:0:0:0:
404,22,50473,1,0,0:0:0:0:
459,84,50618,1,0,0:0:0:0:
449,166,50762,1,0,0:0:0:0:
379,212,50907,2,0,P|310:266|288:347,1,167.999994873047,8|0,0:0|0:0,0:0:0:0:
212,302,51342,1,0,0:0:0:0:
140,257,51487,6,0,P|93:183|134:116,1,167.999994873047
212,130,51922,2,8,P|299:141|381:106,1,167.999994873047,8|0,0:0|0:0,0:0:0:0:
438,59,52357,1,0,0:0:0:0:
315,33,52501,1,8,0:0:0:0:
231,43,52646,1,0,0:0:0:0:
147,31,52791,1,0,0:0:0:0:
78,79,52936,2,0,P|35:157|51:240,2,167.999994873047,8|0|0,0:0|0:0|0:0,0:0:0:0:
147,31,53661,1,8,0:0:0:0:
221,70,53806,6,0,P|304:100|389:86,1,167.999994873047
461,63,54240,2,0,P|507:145|494:229,1,167.999994873047,8|0,0:0|0:0,0:0:0:0:
456,288,54675,1,0,0:0:0:0:
338,329,54820,2,0,P|244:310|154:326,1,167.999994873047,8|0,0:0|0:0,0:0:0:0:
98,359,55255,2,0,P|48:288|68:195,1,167.999994873047,8|0,0:0|0:0,0:0:0:0:
69,193,55617,1,0,0:0:0:0:
81,176,55690,1,0,0:0:0:0:
96,161,55762,1,0,0:0:0:0:
113,149,55835,1,0,0:0:0:0:
132,142,55907,1,0,0:0:0:0:
152,139,55979,1,0,0:0:0:0:
173,140,56052,1,0,0:0:0:0:
193,144,56124,6,0,L|276:185,1,83.9999974365235
339,137,56414,1,8,0:0:0:0:
418,163,56559,2,0,P|466:235|454:334,1,167.999994873047
396,366,56994,1,8,0:0:0:0:
276,338,57139,2,0,P|227:270|295:215,1,167.999994873047
358,198,57574,1,8,0:0:0:0:
417,138,57718,1,0,0:0:0:0:
387,59,57863,1,0,0:0:0:0:
303,46,58008,1,0,0:0:0:0:
231,89,58153,1,8,0:0:0:0:
147,77,58298,1,0,0:0:0:0:
72,114,58443,6,0,P|59:158|58:207,1,83.9999974365235
79,277,58733,1,8,0:0:0:0:
147,326,58878,2,0,P|221:348|329:327,1,167.999994873047,0|0,0:0|0:0,0:0:0:0:
381,290,59313,1,8,0:0:0:0:
323,178,59457,2,0,P|246:130|154:155,1,167.999994873047
97,180,59892,1,8,0:0:0:0:
16,155,60037,1,0,0:0:0:0:
49,77,60182,2,0,P|80:47|122:30,1,83.9999974365235
201,26,60472,1,8,0:0:0:0:
281,49,60617,1,0,0:0:0:0:
365,49,60762,6,0,P|408:38|453:35,1,83.9999974365235
476,114,61052,2,0,P|484:159|483:211,1,83.9999974365235,8|0,0:0|0:0,0:0:0:0:
410,237,61341,1,0,0:0:0:0:
337,279,61486,2,0,P|250:297|177:272,1,167.999994873047,8|0,0:0|0:0,0:0:0:0:
119,209,61921,1,0,0:0:0:0:
98,127,62066,1,0,0:0:0:0:
135,51,62211,1,0,0:0:0:0:
218,42,62356,1,0,0:0:0:0:
276,102,62501,2,0,P|285:146|272:188,1,83.9999974365235,8|0,0:0|0:0,0:0:0:0:
218,250,62791,2,0,P|209:294|222:336,1,83.9999974365235,0|0,0:0|0:0,0:0:0:0:
292,289,63080,6,0,P|336:284|377:294,1,83.9999974365235
442,242,63370,2,0,P|458:204|459:152,1,83.9999974365235,0|0,0:0|0:0,0:0:0:0:
407,95,63660,1,8,0:0:0:0:
338,46,63805,2,0,P|255:31|209:106,1,167.999994873047
188,172,64240,2,0,P|172:214|140:246,1,83.9999974365235
101,170,64530,2,0,P|58:153|15:149,1,83.9999974365235,8|0,0:0|0:0,0:0:0:0:
103,56,64819,5,8,0:0:0:0:
128,43,64916,1,8,0:0:0:0:
155,35,65013,1,8,0:0:0:0:
182,38,65109,1,8,0:0:0:0:
205,52,65206,1,8,0:0:0:0:
219,75,65302,1,8,0:0:0:0:
230,100,65399,6,0,P|239:140|231:187,1,83.9999974365235
308,213,65689,1,0,0:0:0:0:
373,160,65834,1,0,0:0:0:0:
453,137,65979,2,0,P|505:206|485:289,1,167.999994873047,8|0,0:0|0:0,0:0:0:0:
418,323,66413,2,0,P|332:323|257:356,1,167.999994873047
183,314,66848,1,0,0:0:0:0:
127,251,66993,1,0,0:0:0:0:
137,167,67138,1,8,0:0:0:0:
188,100,67283,1,0,0:0:0:0:
269,79,67428,1,0,0:0:0:0:
346,111,67573,1,0,0:0:0:0:
383,185,67718,5,0,0:0:0:0:
360,266,67863,1,0,0:0:0:0:
279,289,68008,1,0,0:0:0:0:
213,236,68152,1,0,0:0:0:0:
244,158,68297,2,0,P|252:74|177:39,1,167.999994873047,8|0,0:0|0:0,0:0:0:0:
104,17,68732,2,0,P|66:93|83:187,1,167.999994873047
124,242,69167,1,0,0:0:0:0:
196,284,69312,1,0,0:0:0:0:
275,255,69457,2,0,P|351:216|445:231,1,167.999994873047,8|0,0:0|0:0,0:0:0:0:
494,279,69891,1,0,0:0:0:0:
507,196,70036,5,0,0:0:0:0:
488,113,70181,1,0,0:0:0:0:
412,75,70326,1,0,0:0:0:0:
333,105,70471,1,0,0:0:0:0:
313,186,70616,2,0,P|277:255|192:284,1,167.999994873047,8|0,0:0|0:0,0:0:0:0:
126,332,71051,2,0,P|102:252|126:170,1,167.999994873047
179,108,71486,1,0,0:0:0:0:
255,74,71630,1,0,0:0:0:0:
333,105,71775,1,8,0:0:0:0:
380,174,71920,1,0,0:0:0:0:
362,256,72065,2,0,P|309:323|216:306,1,167.999994873047
213,310,72427,5,0,0:0:0:0:
193,302,72500,1,0,0:0:0:0:
172,299,72572,1,0,0:0:0:0:
150,301,72645,1,0,0:0:0:0:
130,307,72717,1,0,0:0:0:0:
112,318,72790,2,0,L|75:341,5,41.9999987182618
55,339,73225,5,0,0:0:0:0:
34,336,73297,1,0,0:0:0:0:
20,319,73369,1,0,0:0:0:0:
16,298,73442,1,0,0:0:0:0:
16,277,73514,2,0,L|19:232,7,41.9999987182618
24,214,74094,2,8,P|63:144|149:124,1,167.999994873047
222,154,74529,1,0,0:0:0:0:
294,197,74674,5,0,0:0:0:0:
377,201,74819,1,0,0:0:0:0:
440,146,74963,1,0,0:0:0:0:
443,62,75108,1,0,0:0:0:0:
375,12,75253,2,0,P|283:-5|206:9,1,167.999994873047,8|0,0:0|0:0,0:0:0:0:
137,50,75688,1,0,0:0:0:0:
96,123,75833,1,0,0:0:0:0:
110,205,75978,1,0,0:0:0:0:
171,261,76123,1,0,0:0:0:0:
254,266,76268,1,0,0:0:0:0:
323,218,76413,2,0,P|395:173|485:179,1,167.999994873047,8|0,0:0|0:0,0:0:0:0:
443,98,76847,1,0,0:0:0:0:
371,54,76992,5,0,0:0:0:0:
289,73,77137,1,8,0:0:0:0:
242,142,77282,1,0,0:0:0:0:
176,194,77427,1,0,0:0:0:0:
95,169,77572,1,8,0:0:0:0:
68,89,77717,1,0,0:0:0:0:
113,18,77862,1,0,0:0:0:0:
195,3,78007,1,0,0:0:0:0:
252,63,78152,2,0,P|268:107|270:154,1,83.9999974365235
257,226,78441,1,0,0:0:0:0:
280,306,78586,1,0,0:0:0:0:
358,336,78731,2,0,P|434:328|452:240,1,167.999994873047,8|0,0:0|0:0,0:0:0:0:
423,171,79166,1,0,0:0:0:0:
353,124,79311,6,0,P|311:109|263:113,1,83.9999974365235
194,144,79601,2,0,P|143:150|97:140,1,83.9999974365235
38,187,79891,2,0,P|13:271|61:338,1,167.999994873047,8|0,0:0|0:0,0:0:0:0:
122,382,80325,1,0,0:0:0:0:
202,357,80470,1,0,0:0:0:0:
283,377,80615,1,0,0:0:0:0:
354,333,80760,2,0,P|401:271|377:182,1,167.999994873047,0|8,0:0|0:0,0:0:0:0:
329,121,81195,1,0,0:0:0:0:
214,77,81340,1,0,0:0:0:0:
193,75,81412,1,0,0:0:0:0:
172,79,81485,1,0,0:0:0:0:
153,89,81557,1,0,0:0:0:0:
136,102,81630,6,0,P|93:160|102:257,1,167.999994873047,8|0,0:0|0:0,0:0:0:0:
120,334,82064,2,0,P|200:359|285:343,1,167.999994873047,8|0,0:0|0:0,0:0:0:0:
353,299,82499,1,8,0:0:0:0:
391,224,82644,1,0,0:0:0:0:
356,147,82789,1,8,0:0:0:0:
240,192,82934,1,8,0:0:0:0:
158,214,83079,1,0,0:0:0:0:
78,186,83224,1,0,0:0:0:0:
48,107,83369,1,8,0:0:0:0:
48,107,83514,1,8,0:0:0:0:
48,107,83658,1,8,0:0:0:0:
189,32,83948,5,0,0:0:0:0:
267,16,84093,1,0,0:0:0:0:
341,44,84238,1,8,0:0:0:0:
370,118,84383,1,0,0:0:0:0:
330,187,84528,2,0,P|293:265|294:348,1,160,0|8,0:0|0:0,0:0:0:0:
217,305,84963,2,0,P|137:279|49:285,1,160
31,208,85397,2,0,P|12:121|44:51,2,160,8|0|8,0:0|0:0|0:0,0:0:0:0:
131,333,86267,5,0,0:0:0:0:
164,260,86412,1,0,0:0:0:0:
238,230,86557,1,8,0:0:0:0:
317,234,86702,1,0,0:0:0:0:
381,281,86847,2,0,P|460:279|471:190,1,160,0|8,0:0|0:0,0:0:0:0:
427,153,87281,2,0,P|382:89|390:3,1,160,0|0,0:0|0:0,0:0:0:0:
308,23,87716,2,0,P|222:37|139:25,2,160,8|0|8,0:0|0:0|0:0,0:0:0:0:
461,71,88586,5,0,0:0:0:0:
496,142,88731,1,0,0:0:0:0:
462,214,88875,1,8,0:0:0:0:
384,235,89020,1,0,0:0:0:0:
309,205,89165,2,0,P|226:189|152:240,1,160,0|8,0:0|0:0,0:0:0:0:
83,221,89600,2,0,P|33:158|44:79,1,160
121,73,90035,2,0,P|197:75|273:31,2,160,8|0|8,0:0|0:0|0:0,0:0:0:0:
80,227,90904,5,0,0:0:0:0:
59,304,91049,1,0,0:0:0:0:
116,360,91194,1,8,0:0:0:0:
191,333,91339,1,0,0:0:0:0:
237,267,91484,2,0,P|287:197|369:197,1,160,0|8,0:0|0:0,0:0:0:0:
423,235,91919,2,0,P|433:151|366:107,1,160
302,132,92353,2,0,P|223:148|139:128,2,160,8|0|8,0:0|0:0|0:0,0:0:0:0:
175,32,93223,5,0,0:0:0:0:
99,59,93368,1,0,0:0:0:0:
64,130,93513,2,0,P|52:169|56:219,1,80,8|0,0:0|0:0,0:0:0:0:
80,283,93803,2,0,P|152:320|234:296,1,160,0|8,0:0|0:0,0:0:0:0:
211,223,94237,2,0,P|200:156|272:91,1,160
338,113,94672,2,0,P|409:133|492:100,1,160,8|0,0:0|0:0,0:0:0:0:
457,223,95107,1,0,0:0:0:0:
399,278,95252,2,0,P|324:309|242:272,1,160,8|0,0:0|0:0,0:0:0:0:
203,220,95687,5,0,0:0:0:0:
140,170,95831,1,8,0:0:0:0:
60,181,95976,1,0,0:0:0:0:
20,114,96121,2,0,P|1:73|-9:31,1,80
72,48,96411,1,8,0:0:0:0:
146,19,96556,2,0,P|215:7|299:47,1,160
282,122,96991,2,0,P|270:191|299:286,1,160,8|0,0:0|0:0,0:0:0:0:
181,230,97426,1,0,0:0:0:0:
125,172,97570,2,0,P|86:102|134:29,1,160,8|0,0:0|0:0,0:0:0:0:
200,55,98005,5,0,0:0:0:0:
260,2,98150,1,8,0:0:0:0:
324,49,98295,1,0,0:0:0:0:
350,124,98440,2,0,P|358:171|352:216,1,80
337,281,98730,1,8,0:0:0:0:
272,328,98875,2,0,P|190:338|129:294,1,160
108,218,99309,2,0,P|59:148|-15:127,1,160,8|0,0:0|0:0,0:0:0:0:
93,64,99744,1,0,0:0:0:0:
165,30,99889,2,0,P|245:20|323:76,1,160,8|0,0:0|0:0,0:0:0:0:
357,124,100324,5,0,0:0:0:0:
323,196,100469,1,8,0:0:0:0:
346,272,100614,1,0,0:0:0:0:
301,338,100759,1,0,0:0:0:0:
221,328,100904,2,0,P|176:323|138:330,1,80,0|8,0:0|0:0,0:0:0:0:
71,291,101193,1,0,0:0:0:0:
35,219,101338,1,8,0:0:0:0:
83,106,101483,1,8,0:0:0:0:
157,135,101628,1,4,0:0:0:0:
230,103,101773,1,4,0:0:0:0:
309,115,101918,1,4,0:0:0:0:
309,115,102063,1,4,0:0:0:0:
309,115,102208,1,4,0:0:0:0:
309,115,102353,1,4,0:0:0:0:
309,115,102498,6,0,P|354:154|355:274,1,167.999994873047
313,324,102932,1,0,0:0:0:0:
232,348,103077,2,8,P|147:362|81:304,1,167.999994873047,8|0,0:0|0:0,0:0:0:0:
128,195,103512,2,0,P|164:120|129:23,1,167.999994873047,8|0,0:0|0:0,0:0:0:0:
220,4,103947,1,0,0:0:0:0:
300,28,104092,1,0,0:0:0:0:
382,12,104237,2,0,P|455:52|460:145,1,167.999994873047,8|0,0:0|0:0,0:0:0:0:
437,208,104671,1,0,0:0:0:0:
354,191,104816,6,0,P|267:181|193:229,1,167.999994873047
147,286,105251,1,0,0:0:0:0:
224,318,105396,2,0,P|306:343|395:326,1,167.999994873047,8|0,0:0|0:0,0:0:0:0:
461,292,105831,1,8,0:0:0:0:
500,217,105976,1,0,0:0:0:0:
426,116,106121,1,0,0:0:0:0:
353,74,106265,2,8,P|271:56|178:80,1,167.999994873047,8|0,0:0|0:0,0:0:0:0:
164,85,106652,1,0,0:0:0:0:
141,101,106748,1,0,0:0:0:0:
124,124,106845,1,0,0:0:0:0:
110,148,106942,1,0,0:0:0:0:
101,174,107038,1,0,0:0:0:0:
100,202,107135,5,0,0:0:0:0:
138,276,107280,2,0,P|183:311|300:297,1,167.999994873047
364,266,107715,1,8,0:0:0:0:
410,196,107860,1,0,0:0:0:0:
390,114,108004,1,0,0:0:0:0:
318,70,108149,2,0,P|231:51|148:73,1,167.999994873047
84,115,108584,1,0,0:0:0:0:
45,189,108729,2,0,P|37:229|38:281,1,83.9999974365235,0|8,0:0|0:0,0:0:0:0:
100,328,109019,2,0,P|186:357|265:325,1,167.999994873047
320,277,109454,5,0,0:0:0:0:
353,200,109599,2,0,P|359:121|283:67,1,167.999994873047
211,57,110033,1,8,0:0:0:0:
131,85,110178,1,0,0:0:0:0:
102,164,110323,1,0,0:0:0:0:
137,240,110468,2,0,P|192:299|274:306,1,167.999994873047
358,289,110903,1,0,0:0:0:0:
422,235,111048,1,0,0:0:0:0:
424,150,111193,1,8,0:0:0:0:
373,83,111337,2,0,P|324:60|221:112,1,167.999994873047
196,182,111772,5,0,0:0:0:0:
213,264,111917,1,0,0:0:0:0:
164,332,112062,2,0,P|107:358|9:326,1,167.999994873047,8|0,0:0|0:0,0:0:0:0:
30,245,112497,1,0,0:0:0:0:
25,161,112642,1,0,0:0:0:0:
81,99,112787,2,0,P|126:70|246:96,1,167.999994873047,8|0,0:0|0:0,0:0:0:0:
294,144,113221,1,8,0:0:0:0:
335,216,113366,1,0,0:0:0:0:
413,245,113511,1,8,0:0:0:0:
487,206,113656,1,0,0:0:0:0:
501,123,113801,1,0,0:0:0:0:
448,57,113946,1,0,0:0:0:0:
367,32,114091,6,0,P|326:24|272:33,1,83.9999974365235
211,71,114381,2,0,P|169:83|112:85,1,83.9999974365235,8|0,0:0|0:0,0:0:0:0:
55,127,114671,2,0,P|39:166|39:215,1,83.9999974365235
60,288,114960,1,0,0:0:0:0:
127,337,115105,1,8,0:0:0:0:
210,330,115250,2,0,P|257:322|309:329,1,83.9999974365235
373,297,115540,2,0,P|392:260|394:214,1,83.9999974365235,8|0,0:0|0:0,0:0:0:0:
309,126,115830,5,8,0:0:0:0:
281,118,115927,1,8,0:0:0:0:
253,117,116023,1,8,0:0:0:0:
228,130,116120,1,8,0:0:0:0:
210,151,116216,1,8,0:0:0:0:
204,178,116313,1,8,0:0:0:0:
206,205,116410,6,0,P|213:250|205:294,1,83.9999974365235
154,353,116699,1,0,0:0:0:0:
72,372,116844,1,0,0:0:0:0:
15,309,116989,2,0,P|-6:229|23:138,1,167.999994873047,8|0,0:0|0:0,0:0:0:0:
84,98,117424,2,0,B|123:77|171:97|171:97|216:96|256:54,1,167.999994873047
312,22,117859,1,0,0:0:0:0:
395,11,118004,1,0,0:0:0:0:
464,58,118149,1,8,0:0:0:0:
465,141,118293,1,0,0:0:0:0:
416,209,118438,1,0,0:0:0:0:
331,209,118583,1,0,0:0:0:0:
260,162,118728,5,0,0:0:0:0:
199,103,118873,1,0,0:0:0:0:
114,101,119018,1,0,0:0:0:0:
48,153,119163,1,0,0:0:0:0:
39,236,119308,2,0,P|46:288|147:344,1,167.999994873047,8|0,0:0|0:0,0:0:0:0:
220,328,119743,2,0,B|264:311|299:333|299:333|360:319|362:262,1,167.999994873047,0|0,0:0|0:0,0:0:0:0:
388,200,120177,1,0,0:0:0:0:
372,117,120322,1,0,0:0:0:0:
305,65,120467,2,0,B|263:49|218:60|218:60|179:67|128:53,1,167.999994873047,8|0,0:0|0:0,0:0:0:0:
58,30,120902,1,0,0:0:0:0:
37,111,121047,5,0,0:0:0:0:
44,194,121192,1,0,0:0:0:0:
116,237,121337,1,0,0:0:0:0:
193,204,121482,1,0,0:0:0:0:
237,132,121627,2,0,P|291:83|393:77,1,167.999994873047,8|0,0:0|0:0,0:0:0:0:
465,57,122061,2,0,B|490:103|479:146|479:146|451:179|451:229,1,167.999994873047
456,299,122496,1,0,0:0:0:0:
395,357,122641,1,0,0:0:0:0:
311,349,122786,1,8,0:0:0:0:
249,291,122931,1,0,0:0:0:0:
212,215,123076,2,0,P|144:160|54:189,1,167.999994873047
53,189,123438,5,0,0:0:0:0:
40,205,123510,1,0,0:0:0:0:
33,225,123583,1,0,0:0:0:0:
29,245,123655,1,0,0:0:0:0:
31,265,123728,1,0,0:0:0:0:
40,283,123800,2,0,L|58:322,5,41.9999987182618
77,327,124235,5,0,0:0:0:0:
95,337,124308,1,0,0:0:0:0:
115,342,124380,1,0,0:0:0:0:
135,343,124452,1,0,0:0:0:0:
155,338,124525,1,0,0:0:0:0:
173,328,124597,1,0,0:0:0:0:
189,314,124670,2,0,L|222:287,5,41.9999987182618
237,273,125105,2,8,P|283:245|393:273,1,167.999994873047
444,332,125539,1,0,0:0:0:0:
487,260,125684,5,0,0:0:0:0:
496,176,125829,1,0,0:0:0:0:
439,114,125974,1,0,0:0:0:0:
355,110,126119,1,0,0:0:0:0:
290,163,126264,2,0,P|221:205|137:194,1,167.999994873047,8|0,0:0|0:0,0:0:0:0:
67,148,126699,1,0,0:0:0:0:
14,213,126844,1,0,0:0:0:0:
32,294,126988,1,0,0:0:0:0:
98,345,127133,1,0,0:0:0:0:
180,329,127278,1,0,0:0:0:0:
250,282,127423,2,0,P|324:251|410:275,1,167.999994873047,8|0,0:0|0:0,0:0:0:0:
480,232,127858,1,0,0:0:0:0:
461,150,128003,5,0,0:0:0:0:
397,94,128148,1,8,0:0:0:0:
312,91,128293,1,0,0:0:0:0:
252,149,128438,1,0,0:0:0:0:
269,231,128583,2,0,P|236:308|156:300,1,167.999994873047,8|0,0:0|0:0,0:0:0:0:
98,250,129017,1,0,0:0:0:0:
52,179,129162,1,0,0:0:0:0:
65,96,129307,1,0,0:0:0:0:
122,34,129452,1,0,0:0:0:0:
205,39,129597,1,0,0:0:0:0:
275,84,129742,2,0,P|310:105|363:104,1,83.9999974365235,8|0,0:0|0:0,0:0:0:0:
428,71,130032,1,0,0:0:0:0:
486,130,130177,1,0,0:0:0:0:
510,210,130322,5,0,0:0:0:0:
480,288,130466,1,0,0:0:0:0:
403,322,130611,1,0,0:0:0:0:
326,287,130756,1,0,0:0:0:0:
270,224,130901,2,8,P|201:181|118:186,1,167.999994873047,8|0,0:0|0:0,0:0:0:0:
45,231,131336,1,0,0:0:0:0:
26,312,131481,1,0,0:0:0:0:
99,352,131626,1,0,0:0:0:0:
174,315,131771,1,0,0:0:0:0:
209,238,131916,1,0,0:0:0:0:
265,175,132061,2,0,P|330:137|433:156,1,167.999994873047,8|0,0:0|0:0,0:0:0:0:
492,188,132495,1,0,0:0:0:0:
387,254,132640,6,0,P|328:283|228:257,1,167.999994873047,8|0,0:0|0:0,0:0:0:0:
188,188,133075,2,0,P|121:143|32:159,1,167.999994873047,8|0,0:0|0:0,0:0:0:0:
46,71,133510,2,0,B|89:61|126:36|126:36|168:21|223:33,1,167.999994873047,8|0,0:0|0:0,0:0:0:0:
282,62,133944,1,0,0:0:0:0:
339,123,134089,1,0,0:0:0:0:
328,206,134234,1,0,0:0:0:0:
208,250,134379,1,8,0:0:0:0:
126,229,134524,1,8,0:0:0:0:
94,150,134669,1,8,0:0:0:0:
127,72,134814,1,8,0:0:0:0:
203,38,134959,6,0,P|291:26|359:50,1,160
412,106,135394,1,0,0:0:0:0:
474,252,135683,1,0,0:0:0:0:
325,312,135973,1,0,0:0:0:0:
230,183,136263,2,0,P|155:146|76:180,1,160
23,119,136698,2,0,P|11:182|79:250,1,160
223,299,137278,5,0,0:0:0:0:
298,322,137422,2,0,P|378:327|433:273,2,160
318,162,138292,2,0,P|261:105|176:100,1,160
165,100,138654,1,0,0:0:0:0:
147,110,138727,1,0,0:0:0:0:
76,200,138872,1,0,0:0:0:0:
71,219,138944,1,0,0:0:0:0:
68,239,139017,2,0,P|65:281|69:322,1,80
140,283,139306,1,0,0:0:0:0:
215,255,139451,1,4,0:2:0:0:
286,290,139596,6,0,P|328:304|372:305,1,80
483,198,140031,1,0,0:0:0:0:
412,54,140321,1,0,0:0:0:0:
269,126,140611,5,0,0:0:0:0:
249,131,140683,1,0,0:0:0:0:
228,129,140756,1,0,0:0:0:0:
202,121,140852,1,0,0:0:0:0:
175,118,140949,1,0,0:0:0:0:
148,121,141045,1,0,0:0:0:0:
125,135,141142,1,0,0:0:0:0:
108,156,141239,1,0,0:0:0:0:
98,180,141335,1,0,0:0:0:0:
99,206,141432,1,0,0:0:0:0:
104,231,141528,1,0,0:0:0:0:
118,253,141625,1,0,0:0:0:0:
134,273,141722,2,0,L|168:315,2,53.3333333333333,0|0|4,0:0|0:0|0:2,0:0:0:0:
211,253,142060,6,0,P|274:228|358:261,1,160
476,365,142639,1,2,0:0:0:0:
318,333,142929,1,0,0:0:0:0:
377,184,143219,1,0,0:0:0:0:
255,80,143509,1,8,0:0:0:0:
139,52,143654,1,0,0:0:0:0:
64,142,143799,1,0,0:0:0:0:
60,161,143871,1,0,0:0:0:0:
62,180,143944,2,0,P|70:228|67:272,1,80,4|0,0:0|0:0,0:0:0:0:
138,299,144234,5,0,0:0:0:0:
213,325,144378,2,0,P|293:335|358:270,1,160
375,211,144813,1,0,0:0:0:0:
351,134,144958,1,0,0:0:0:0:
284,89,145103,2,0,B|246:75|202:83|202:83|157:90|110:78,1,160
51,112,145538,1,0,0:0:0:0:
12,182,145683,1,0,0:0:0:0:
44,254,145828,2,0,P|91:297|197:290,1,160
251,256,146262,2,0,P|286:236|331:225,1,80
344,223,146480,1,0,0:0:0:0:
363,225,146552,6,0,P|445:227|495:159,1,160
468,96,146987,2,0,B|422:76|387:88|387:88|346:98|296:88,1,160
230,84,147422,2,0,P|170:107|142:200,1,160
162,269,147856,1,0,0:0:0:0:
224,319,148001,1,0,0:0:0:0:
291,276,148146,1,0,0:0:0:0:
299,196,148291,2,0,P|272:125|191:94,1,160
118,92,148726,1,0,0:0:0:0:
98,95,148798,1,0,0:0:0:0:
79,102,148871,6,0,P|51:132|69:247,1,160
113,305,149306,2,0,P|137:333|155:376,1,80
211,316,149595,1,0,0:0:0:0:
281,276,149740,2,0,P|333:209|298:134,1,160
249,92,150175,1,0,0:0:0:0:
269,14,150320,1,0,0:0:0:0:
348,2,150465,1,0,0:0:0:0:
412,48,150610,2,0,P|450:125|440:215,1,160
412,270,151045,1,0,0:0:0:0:
402,287,151117,1,0,0:0:0:0:
388,301,151189,1,0,0:0:0:0:
319,341,151334,6,0,P|242:357|160:330,1,160
113,272,151769,1,0,0:0:0:0:
87,196,151914,1,0,0:0:0:0:
113,120,152059,1,0,0:0:0:0:
185,86,152204,1,0,0:0:0:0:
258,117,152349,5,8,0:0:0:0:
279,131,152421,1,8,0:0:0:0:
295,142,152494,1,8,0:0:0:0:
269,300,152784,1,8,0:0:0:0:
250,293,152856,1,8,0:0:0:0:
231,285,152928,2,0,P|154:263|60:285,1,160,8|8,0:0|0:0,0:0:0:0:
107,102,153508,5,8,0:0:0:0:
177,49,153653,1,0,0:0:0:0:
264,53,153798,1,8,0:0:0:0:
329,112,153943,1,0,0:0:0:0:
347,198,154088,2,8,B|351:244|364:286|364:286|348:329|292:348,1,176.000005371094
224,304,154523,1,0,0:0:0:0:
142,334,154667,2,8,P|69:328|34:234,1,176.000005371094
73,163,155102,1,0,0:0:0:0:
59,75,155247,2,8,P|133:24|244:40,1,176.000005371094
292,71,155682,1,0,0:0:0:0:
355,131,155827,5,8,0:0:0:0:
327,259,155972,1,0,0:0:0:0:
391,318,156117,1,8,0:0:0:0:
476,297,156262,1,0,0:0:0:0:
505,214,156406,1,8,0:0:0:0:
485,128,156551,1,0,0:0:0:0:
424,64,156696,2,0,P|351:45|261:88,1,176.000005371094,8|8,0:0|0:0,0:0:0:0:
206,153,157131,1,0,0:0:0:0:
153,223,157276,2,8,B|121:260|110:296|110:296|84:331|27:338,1,176.000005371094
2,253,157711,1,0,0:0:0:0:
43,175,157856,2,8,P|75:96|44:10,1,176.000005371094
134,19,158290,6,0,P|181:27|228:22,1,88.000002685547,0|8,0:0|0:0,0:0:0:0:
307,5,158580,1,0,0:0:0:0:
387,40,158725,1,8,0:0:0:0:
427,118,158870,1,0,0:0:0:0:
399,201,159015,1,8,0:0:0:0:
326,250,159160,1,2,0:0:0:0:
242,223,159305,2,0,P|197:214|150:219,1,88.000002685547,8|0,0:0|0:0,0:0:0:0:
77,174,159595,2,0,P|66:132|78:80,1,88.000002685547,8|0,0:0|0:0,0:0:0:0:
120,14,159884,1,8,0:0:0:0:
206,0,160029,1,0,0:0:0:0:
287,33,160174,1,8,0:0:0:0:
318,115,160319,1,0,0:0:0:0:
278,193,160464,6,0,B|234:217|227:261|227:261|207:305|152:325,1,176.000005371094,8|0,0:0|0:0,0:0:0:0:
80,348,160899,1,0,0:0:0:0:
7,297,161044,1,0,0:0:0:0:
3,209,161189,1,0,0:0:0:0:
52,136,161334,1,0,0:0:0:0:
138,117,161479,1,0,0:0:0:0:
216,156,161623,5,8,0:0:0:0:
232,170,161720,1,8,0:0:0:0:
255,187,161817,1,8,0:0:0:0:
280,200,161913,1,8,0:0:0:0:
309,203,162010,1,8,0:0:0:0:
337,195,162107,1,8,0:0:0:0:
363,182,162203,1,8,0:0:0:0:
385,163,162300,1,8,0:0:0:0:
410,149,162396,1,8,0:0:0:0:
439,146,162493,1,8,0:0:0:0:
466,157,162590,1,8,0:0:0:0:
484,179,162686,1,8,0:0:0:0:
492,205,162783,6,0,P|501:249|496:296,1,83.9999974365235
463,365,163073,1,0,0:0:0:0:
379,352,163218,1,0,0:0:0:0:
295,354,163362,2,8,P|209:354|154:284,1,167.999994873047,8|0,0:0|0:0,0:0:0:0:
196,221,163797,2,0,P|223:142|190:61,1,167.999994873047
126,15,164232,1,0,0:0:0:0:
42,7,164377,1,0,0:0:0:0:
15,86,164522,1,8,0:0:0:0:
58,157,164667,1,0,0:0:0:0:
141,149,164812,1,0,0:0:0:0:
205,94,164957,1,0,0:0:0:0:
281,61,165101,5,0,0:0:0:0:
364,67,165246,1,0,0:0:0:0:
431,116,165391,1,0,0:0:0:0:
457,195,165536,1,0,0:0:0:0:
437,276,165681,2,0,P|400:346|313:358,1,167.999994873047,8|0,0:0|0:0,0:0:0:0:
252,306,166116,2,0,B|213:283|173:283|173:283|123:296|79:280,1,167.999994873047
23,230,166551,1,0,0:0:0:0:
1,148,166696,1,0,0:0:0:0:
48,79,166840,1,8,0:0:0:0:
125,45,166985,1,0,0:0:0:0:
205,68,167130,1,0,0:0:0:0:
261,130,167275,1,0,0:0:0:0:
259,214,167420,5,0,0:0:0:0:
199,272,167565,1,0,0:0:0:0:
115,262,167710,1,0,0:0:0:0:
82,184,167855,1,0,0:0:0:0:
138,121,168000,2,0,P|190:106|322:120,1,167.999994873047,8|0,0:0|0:0,0:0:0:0:
360,174,168435,2,0,B|385:207|423:232|423:232|443:279|432:324,1,167.999994873047
364,357,168869,1,0,0:0:0:0:
286,325,169014,1,0,0:0:0:0:
264,243,169159,1,8,0:0:0:0:
281,160,169304,1,0,0:0:0:0:
338,98,169449,1,0,0:0:0:0:
285,32,169594,1,0,0:0:0:0:
202,50,169739,5,0,0:0:0:0:
181,53,169811,1,0,0:0:0:0:
159,54,169884,1,0,0:0:0:0:
138,53,169956,1,0,0:0:0:0:
117,49,170029,1,0,0:0:0:0:
96,51,170101,1,0,0:0:0:0:
77,61,170174,2,0,L|38:86,5,41.9999987182618
27,98,170608,5,0,0:0:0:0:
17,117,170681,1,0,0:0:0:0:
14,137,170753,1,0,0:0:0:0:
14,158,170826,1,0,0:0:0:0:
16,178,170898,1,0,0:0:0:0:
22,198,170971,1,0,0:0:0:0:
30,217,171043,2,0,L|50:262,5,41.9999987182618
53,275,171478,6,0,P|73:313|79:359,1,83.9999974365235,8|0,0:0|0:0,0:0:0:0:
186,291,171768,2,0,P|172:250|173:203,1,83.9999974365235,8|0,0:0|0:0,0:0:0:0:
193,128,172057,5,0,0:0:0:0:
245,62,172202,1,2,0:0:0:0:
326,42,172347,1,0,0:0:0:0:
406,66,172492,1,0,0:0:0:0:
455,133,172637,2,0,P|482:226|455:306,1,167.999994873047,8|0,0:0|0:0,0:0:0:0:
381,269,173072,1,0,0:0:0:0:
300,244,173217,1,0,0:0:0:0:
217,258,173362,1,0,0:0:0:0:
155,315,173507,1,0,0:0:0:0:
73,335,173652,1,0,0:0:0:0:
15,274,173796,2,0,P|-7:187|24:102,1,167.999994873047,8|0,0:0|0:0,0:0:0:0:
65,46,174231,1,0,0:0:0:0:
145,69,174376,5,0,0:0:0:0:
215,23,174521,1,8,0:0:0:0:
290,60,174666,1,0,0:0:0:0:
314,140,174811,1,0,0:0:0:0:
271,212,174956,2,0,P|258:286|325:363,1,167.999994873047,8|0,0:0|0:0,0:0:0:0:
393,374,175391,1,0,0:0:0:0:
460,324,175535,1,0,0:0:0:0:
425,247,175680,1,0,0:0:0:0:
457,169,175825,1,0,0:0:0:0:
412,97,175970,1,0,0:0:0:0:
338,55,176115,2,0,B|291:42|251:51|251:51|207:65|161:57,1,167.999994873047,8|0,0:0|0:0,0:0:0:0:
92,28,176550,1,0,0:0:0:0:
54,103,176695,5,0,0:0:0:0:
34,184,176840,1,0,0:0:0:0:
86,249,176985,1,0,0:0:0:0:
165,222,177130,1,0,0:0:0:0:
205,148,177274,2,0,P|252:92|354:75,1,167.999994873047,8|0,0:0|0:0,0:0:0:0:
424,89,177709,1,0,0:0:0:0:
482,148,177854,1,0,0:0:0:0:
468,230,177999,1,8,0:0:0:0:
397,275,178144,1,0,0:0:0:0:
317,247,178289,1,0,0:0:0:0:
267,179,178434,2,0,P|196:133|113:146,1,167.999994873047,8|0,0:0|0:0,0:0:0:0:
45,189,178869,1,0,0:0:0:0:
49,272,179013,6,0,P|90:332|190:328,1,167.999994873047,8|0,0:0|0:0,0:0:0:0:
244,281,179448,2,0,B|282:247|313:253|313:253|360:242|372:190,1,167.999994873047,8|0,0:0|0:0,0:0:0:0:
421,122,179883,2,8,P|348:107|288:187,1,167.999994873047
279,188,180269,1,0,0:0:0:0:
260,208,180366,1,0,0:0:0:0:
234,219,180463,1,0,0:0:0:0:
206,223,180559,1,0,0:0:0:0:
178,219,180656,1,0,0:0:0:0:
152,206,180752,1,0,0:0:0:0:
135,182,180849,1,0,0:0:0:0:
125,155,180946,1,0,0:0:0:0:
124,127,181042,1,0,0:0:0:0:
130,99,181139,1,0,0:0:0:0:
148,78,181235,1,0,0:0:0:0:
169,60,181332,6,0,P|206:39|251:32,1,83.9999974365235
326,58,181622,2,0,P|375:63|413:61,1,83.9999974365235
477,111,181912,2,0,P|491:161|487:201,1,83.9999974365235
464,273,182202,1,0,0:0:0:0:
398,325,182347,1,0,0:0:0:0:
318,301,182491,2,0,P|238:283|136:306,1,167.999994873047,8|0,0:0|0:0,0:0:0:0:
74,271,182926,2,0,P|40:207|61:116,1,167.999994873047,8|0,0:0|0:0,0:0:0:0:
132,73,183361,2,0,P|165:41|188:7,1,83.9999974365235
243,73,183651,6,0,P|249:116|249:164,1,83.9999974365235
229,238,183941,2,0,P|186:249|143:242,1,83.9999974365235
102,172,184230,2,0,P|66:139|25:121,1,83.9999974365235
94,64,184520,1,0,0:0:0:0:
168,25,184665,1,0,0:0:0:0:
251,31,184810,2,0,P|324:58|347:153,1,167.999994873047,8|0,0:0|0:0,0:0:0:0:
320,217,185245,2,0,B|291:250|293:292|293:292|306:326|271:378,1,167.999994873047,8|0,0:0|0:0,0:0:0:0:
212,315,185680,2,0,P|136:279|52:297,1,167.999994873047,8|0,0:0|0:0,0:0:0:0:
19,219,186114,5,0,0:0:0:0:
31,135,186259,2,0,P|37:90|35:46,1,83.9999974365235
120,54,186549,2,0,P|165:60|210:56,1,83.9999974365235
284,34,186839,1,0,0:0:0:0:
358,72,186984,1,0,0:0:0:0:
389,149,187129,2,0,P|402:229|357:311,1,167.999994873047,8|0,0:0|0:0,0:0:0:0:
280,302,187563,2,0,B|230:289|197:304|197:304|159:318|105:303,1,167.999994873047,8|0,0:0|0:0,0:0:0:0:
40,264,187998,1,0,0:0:0:0:
25,181,188143,1,0,0:0:0:0:
85,122,188288,6,0,P|129:114|173:125,1,83.9999974365235
222,185,188578,2,0,P|263:200|314:198,1,83.9999974365235
386,214,188868,2,0,P|409:183|423:138,1,83.9999974365235
405,57,189158,1,0,0:0:0:0:
334,12,189302,1,0,0:0:0:0:
254,37,189447,2,8,P|171:59|85:45,1,167.999994873047
27,103,189882,1,0,0:0:0:0:
3,183,190027,5,0,0:0:0:0:
0,204,190100,1,0,0:0:0:0:
4,224,190172,1,0,0:0:0:0:
10,243,190244,1,0,0:0:0:0:
18,262,190317,1,0,0:0:0:0:
30,278,190389,1,0,0:0:0:0:
47,290,190462,1,0,0:0:0:0:
66,298,190534,1,0,0:0:0:0:
87,298,190607,6,0,P|132:296|174:300,1,83.9999974365235
251,324,190897,2,0,P|296:331|350:328,1,83.9999974365235
384,262,191186,2,0,P|399:223|400:171,1,83.9999974365235
316,179,191476,2,0,P|271:184|220:180,1,83.9999974365235
162,134,191766,2,0,P|133:93|204:20,1,167.999994873047,8|0,0:0|0:0,0:0:0:0:
284,32,192201,2,0,B|325:51|363:47|363:47|414:59|444:108,1,167.999994873047,8|0,0:0|0:0,0:0:0:0:
470,169,192636,1,0,0:0:0:0:
473,252,192780,1,0,0:0:0:0:
416,313,192925,6,0,P|377:335|332:343,1,83.9999974365235
259,313,193215,2,0,P|204:305|163:308,1,83.9999974365235
100,344,193505,1,0,0:0:0:0:
35,290,193650,2,0,B|13:244|27:206|27:206|43:159|40:114,1,167.999994873047,8|0,0:0|0:0,0:0:0:0:
78,50,194085,1,8,0:0:0:0:
155,17,194230,1,0,0:0:0:0:
235,42,194375,1,0,0:0:0:0:
211,122,194519,1,8,0:0:0:0:
288,154,194664,1,0,0:0:0:0:
308,235,194809,1,0,0:0:0:0:
268,309,194954,1,8,0:0:0:0:
189,339,195099,1,0,0:0:0:0:
112,304,195244,6,0,P|72:280|33:272,1,83.9999974365235
43,187,195534,2,0,P|53:141|47:96,1,83.9999974365235
115,51,195824,2,0,P|159:35|212:32,1,83.9999974365235
274,62,196114,1,0,0:0:0:0:
349,27,196258,1,0,0:0:0:0:
424,63,196403,2,0,P|452:107|453:221,1,167.999994873047,8|0,0:0|0:0,0:0:0:0:
402,287,196838,2,0,B|358:301|315:295|315:295|284:291|229:321,1,167.999994873047,8|0,0:0|0:0,0:0:0:0:
162,352,197273,1,0,0:0:0:0:
78,341,197418,1,0,0:0:0:0:
58,333,197490,1,0,0:0:0:0:
45,316,197563,6,0,P|25:275|61:154,1,167.999994873047,8|0,0:0|0:0,0:0:0:0:
125,204,197997,2,0,P|202:226|316:192,1,167.999994873047,8|0,0:0|0:0,0:0:0:0:
306,127,198432,2,0,P|360:166|344:274,1,167.999994873047,8|4,0:0|0:0,0:0:0:0:
115,335,199157,1,4,0:0:0:0:
47,91,199592,1,4,0:0:0:0:
184,187,199881,1,4,0:2:0:0:
256,192,199954,12,0,210315,0:0:0:0:
