osu file format v12

[General]
AudioFilename: Kanzen kankaku Dreamer.mp3
AudioLeadIn: 0
PreviewTime: 73166
Countdown: 0
SampleSet: Normal
StackLeniency: 0.7
Mode: 0
LetterboxInBreaks: 1

[Editor]
Bookmarks: 2129,86427
DistanceSpacing: 1.5
BeatDivisor: 4
GridSize: 4

[Metadata]
Title:Kanzen Kankaku Dreamer
TitleUnicode:完全感覚Dreamer
Artist:ONE OK ROCK
ArtistUnicode:ONE OK ROCK
Creator:remy11
Version:Insane
Source:
Tags:inaba-tan guy
BeatmapID:146011
BeatmapSetID:46983

[Difficulty]
HPDrainRate:7
CircleSize:4
OverallDifficulty:7
ApproachRate:9
SliderMultiplier:2
SliderTickRate:1

[Events]
//Background and Video events
0,0,"ONE OK ROCK.jpg",0,0
//Break Periods
2,93392,102897
//Storyboard Layer 0 (Background)
//Storyboard Layer 1 (Fail)
//Storyboard Layer 2 (Pass)
//Storyboard Layer 3 (Foreground)
//Storyboard Sound Samples
//Background Colour Transformations
3,100,163,162,255

[TimingPoints]
2445,315.789473684211,4,1,2,60,1,0
52971,-133.333333333333,4,1,2,50,0,0
68602,-200,4,1,2,50,0,0
69076,-133.333333333333,4,1,2,50,0,0
69866,-200,4,1,2,50,0,0
70339,-133.333333333333,4,1,2,50,0,0
73181,-100,4,1,2,70,0,1
93392,-100,4,1,2,60,0,0
113287,-100,4,1,2,50,0,0
116129,-100,4,1,2,60,0,0
133813,-133.333333333333,4,1,2,50,0,0
149445,-200,4,1,2,50,0,0
149918,-133.333333333333,4,1,2,50,0,0
150708,-200,4,1,2,50,0,0
151181,-133.333333333333,4,1,2,50,0,0
154023,-100,4,1,2,70,0,1
174234,-100,4,1,2,70,0,0

[Colours]
Combo1 : 240,5,5
Combo2 : 255,128,255
Combo3 : 255,128,0

[HitObjects]
48,112,2445,1,0,0:0:0:0:
48,112,2602,2,0,B|64:56|120:40,1,100
160,136,2918,1,0,0:0:0:0:
160,136,3076,2,0,B|144:192|88:208,1,100
164,292,3392,2,0,B|208:268|232:212,1,100
328,248,3708,2,0,B|376:272|376:272|440:224|424:136,1,200
425,142,4181,1,0,0:0:0:0:
344,52,4339,1,0,0:0:0:0:
316,56,4417,1,0,0:0:0:0:
288,60,4496,1,0,0:0:0:0:
260,64,4575,1,0,0:0:0:0:
232,68,4654,1,0,0:0:0:0:
204,72,4733,1,0,0:0:0:0:
176,76,4812,1,0,0:0:0:0:
148,192,4971,6,0,B|124:240|124:240|172:304|260:288,1,200
324,216,5445,2,0,B|372:192|372:192|436:240|420:328,2,200
268,136,6234,2,0,P|276:84|252:40,1,100
156,60,6550,2,0,P|112:74|81:116,1,100
52,220,6866,1,0,0:0:0:0:
52,220,6945,1,0,0:0:0:0:
52,220,7023,1,0,0:0:0:0:
52,220,7102,1,0,0:0:0:0:
52,220,7181,1,0,0:0:0:0:
52,220,7260,1,0,0:0:0:0:
52,220,7339,1,0,0:0:0:0:
120,296,7497,6,0,B|200:232|312:272,1,200,4|8,0:0|0:0,0:0:0:0:
400,232,7971,1,0,0:0:0:0:
336,152,8129,1,0,0:0:0:0:
400,72,8287,1,0,0:0:0:0:
304,48,8445,1,8,0:0:0:0:
208,72,8602,6,0,B|144:40|88:72|88:72|64:144,1,200
152,192,9076,2,0,B|160:240|112:288,1,100,8|0,0:0|0:0,0:0:0:0:
192,352,9392,2,2,B|240:360|288:312,1,100
272,216,9708,1,10,0:0:0:0:
368,248,9866,1,2,0:0:0:0:
472,240,10023,6,0,B|504:176|472:120|472:120|400:96,1,200,6|8,0:0|0:0,0:0:0:0:
328,32,10497,1,0,0:0:0:0:
256,96,10655,1,0,0:0:0:0:
168,48,10813,2,0,B|120:64|104:128,1,100,0|8,0:0|0:0,0:0:0:0:
168,200,11129,1,0,0:0:0:0:
72,224,11287,6,0,B|56:272|104:320,1,100,0|0,0:0|0:0,0:0:0:0:
192,344,11602,2,0,B|240:360|288:312,1,100,8|0,0:0|0:0,0:0:0:0:
368,256,11918,2,2,B|424:272|424:328,2,100,2|2|10,0:0|0:0|0:0,0:0:0:0:
368,256,12392,1,2,0:0:0:0:
440,184,12550,6,0,B|472:120|440:64|440:64|368:40,1,200,4|8,0:0|0:0,0:0:0:0:
272,56,13023,1,0,0:0:0:0:
232,152,13181,1,0,0:0:0:0:
280,240,13339,1,0,0:0:0:0:
224,320,13497,1,8,0:0:0:0:
128,288,13655,6,0,B|72:264|48:224|40:168|64:120,1,200
128,48,14129,2,0,B|176:32|216:80,1,100,8|0,0:0|0:0,0:0:0:0:
176,176,14445,1,2,0:0:0:0:
176,176,14523,1,0,0:0:0:0:
176,176,14602,1,2,0:0:0:0:
264,128,14760,2,2,B|264:72,2,50,10|0|2,0:0|0:0|0:0,0:0:0:0:
352,176,15076,6,0,B|416:168|432:112,2,100,0|0|8,0:0|0:0|0:0,0:0:0:0:
352,280,15550,2,0,B|416:288|432:344,2,100
272,336,16023,1,8,0:0:0:0:
176,336,16181,1,0,0:0:0:0:
80,320,16339,6,0,B|40:272|64:224,1,100
208,48,16655,2,0,B|248:96|226:141,1,100
208,48,16971,1,0,0:0:0:0:
304,48,17129,1,0,0:0:0:0:
328,48,17208,1,0,0:0:0:0:
352,48,17287,1,8,0:0:0:0:
376,48,17366,1,0,0:0:0:0:
400,48,17445,1,0,0:0:0:0:
424,48,17523,1,0,0:0:0:0:
448,48,17602,6,0,B|496:144|496:144|448:224,1,200,4|8,0:0|0:0,0:0:0:0:
392,312,18076,1,0,0:0:0:0:
344,232,18234,1,0,0:0:0:0:
280,312,18392,1,0,0:0:0:0:
224,232,18550,1,8,0:0:0:0:
168,312,18708,1,0,0:0:0:0:
112,232,18866,6,0,B|8:232,1,100,0|0,0:0|0:0,0:0:0:0:
48,56,19181,2,0,B|152:56,1,100,8|0,0:0|0:0,0:0:0:0:
248,56,19497,1,2,0:0:0:0:
248,56,19576,1,0,0:0:0:0:
248,56,19655,1,2,0:0:0:0:
352,56,19813,2,2,B|400:28,2,50,10|0|2,0:0|0:0|0:0,0:0:0:0:
400,144,20129,6,0,B|432:192|432:192|392:288|320:264,1,200,4|8,0:0|0:0,0:0:0:0:
232,232,20602,1,0,0:0:0:0:
116,312,20760,1,0,0:0:0:0:
160,180,20918,1,0,0:0:0:0:
204,312,21076,1,8,0:0:0:0:
88,232,21234,1,0,0:0:0:0:
56,136,21392,6,0,B|88:96|64:40,1,100,0|0,0:0|0:0,0:0:0:0:
168,56,21708,2,0,B|208:24|264:48,1,100,8|0,0:0|0:0,0:0:0:0:
360,32,22023,1,2,0:0:0:0:
376,128,22181,1,2,0:0:0:0:
488,64,22339,1,10,0:0:0:0:
312,160,22497,1,2,0:0:0:0:
373,238,22655,6,0,B|320:348|205:286,1,200,4|8,0:0|0:0,0:0:0:0:
112,320,23129,2,0,B|56:296|104:240|104:240|56:152,1,200
32,56,23602,1,8,0:0:0:0:
128,96,23760,1,0,0:0:0:0:
224,112,23918,6,0,B|328:112,1,100,0|0,0:0|0:0,0:0:0:0:
384,192,24234,2,0,B|280:192,1,100,8|0,0:0|0:0,0:0:0:0:
312,40,24550,2,2,B|360:32|424:40,1,100
488,264,24866,2,2,B|440:272|376:264,1,100,10|2,0:0|0:0,0:0:0:0:
288,264,25181,6,0,B|240:288|224:344,1,100,0|0,0:0|0:0,0:0:0:0:
128,312,25497,2,0,B|80:288|64:232,1,100,8|0,0:0|0:0,0:0:0:0:
160,200,25813,1,0,0:0:0:0:
96,120,25971,1,0,0:0:0:0:
152,40,26129,2,0,B|256:40,1,100,8|0,0:0|0:0,0:0:0:0:
304,128,26445,6,2,B|320:176,2,50
208,128,26760,2,2,B|192:176,2,50,10|2|2,0:0|0:0|0:0,0:0:0:0:
336,224,27076,2,2,B|376:256,2,50
176,224,27392,2,2,B|136:256,2,50,10|2|2,0:0|0:0|0:0,0:0:0:0:
256,304,27708,5,0,0:0:0:0:
256,80,28023,1,0,0:0:0:0:
368,192,28339,1,0,0:0:0:0:
144,192,28655,1,0,0:0:0:0:
144,80,28971,5,0,0:0:0:0:
144,304,29287,1,0,0:0:0:0:
368,304,29602,1,0,0:0:0:0:
368,80,29918,1,0,0:0:0:0:
202,112,30234,6,0,B|211:169|256:192,1,100,0|0,0:0|2:2,0:0:0:0:
176,245,30550,2,0,B|232:238|256:192,1,100,0|0,0:1|2:2,0:0:0:0:
310,271,30866,2,0,B|303:216|256:192,1,100,0|0,0:0|2:2,0:0:0:0:
334,137,31181,2,0,B|279:145|256:192,1,100,0|0,0:0|2:2,0:0:0:0:
256,192,31497,12,0,32445,0:0:0:0:
80,160,32760,6,0,B|64:280|184:320,1,200,4|8,0:0|0:0,0:0:0:0:
256,256,33234,1,0,0:0:0:0:
312,336,33392,1,0,0:0:0:0:
400,280,33550,1,0,0:0:0:0:
456,200,33708,2,0,B|472:80|352:40,1,200,8|0,0:0|0:0,0:0:0:0:
304,128,34181,5,0,0:0:0:0:
256,40,34339,1,8,0:0:0:0:
184,104,34497,1,0,0:0:0:0:
80,104,34655,2,2,B|48:144|64:208,1,100
64,296,34971,2,2,B|104:264|168:280,1,100,10|2,0:0|0:0,0:0:0:0:
216,192,35287,6,0,B|264:224|264:224|232:296|336:328,1,200,0|8,0:0|0:0,0:0:0:0:
400,256,35760,1,0,0:0:0:0:
496,216,35918,1,0,0:0:0:0:
440,136,36076,1,0,0:0:0:0:
392,48,36234,2,0,B|332:88|332:88|360:152|276:184,1,200,8|0,0:0|0:0,0:0:0:0:
200,120,36708,5,0,0:0:0:0:
144,40,36866,1,8,0:0:0:0:
88,120,37023,1,0,0:0:0:0:
72,216,37181,2,2,B|56:264|96:320,1,100
184,352,37497,2,2,B|200:304|160:248,1,100,10|2,0:0|0:0,0:0:0:0:
256,216,37813,6,0,B|312:248|320:304,1,100
317,291,38129,1,8,0:0:0:0:
396,228,38287,2,0,B|452:196|452:147,1,100
451,150,38602,1,0,0:0:0:0:
400,64,38760,2,0,B|352:32|296:40,1,100,8|0,0:0|0:0,0:0:0:0:
216,88,39076,5,0,0:0:0:0:
128,136,39234,2,2,B|72:136|40:80,2,100,2|10|2,0:0|0:0|0:0,0:0:0:0:
128,240,39708,2,2,B|72:240|40:296,2,100,2|2|10,0:0|0:0|0:0,0:0:0:0:
224,272,40181,1,0,0:0:0:0:
312,328,40339,6,0,B|440:332|456:216,1,200,0|8,0:0|0:0,0:0:0:0:
356,192,40813,5,0,0:0:0:0:
256,56,40971,1,0,0:0:0:0:
356,128,41129,5,0,0:0:0:0:
256,127,41287,1,8,0:0:0:0:
356,56,41445,5,0,0:0:0:0:
256,192,41602,1,0,0:0:0:0:
168,144,41760,6,2,B|112:136|80:88,1,100,2|10,0:0|0:0,0:0:0:0:
72,192,42076,1,0,0:0:0:0:
160,240,42234,2,2,B|152:296|104:328,2,100,2|2|10,0:0|0:0|0:0,0:0:0:0:
352,296,42866,6,0,B|408:280|432:232,1,100
429,237,43102,1,0,0:0:0:0:
429,237,43181,1,8,0:0:0:0:
408,136,43339,2,0,B|352:152|328:200,2,100
352,56,43813,5,8,0:0:0:0:
256,32,43971,1,0,0:0:0:0:
264,128,44129,1,0,0:0:0:0:
168,144,44287,1,0,0:0:0:0:
208,232,44445,1,8,0:0:0:0:
112,216,44602,1,0,0:0:0:0:
40,144,44760,5,2,0:0:0:0:
40,144,44839,1,2,0:0:0:0:
40,144,44918,2,2,B|40:88|104:64,1,100,2|10,0:0|0:0,0:0:0:0:
192,40,45234,1,2,0:0:0:0:
288,64,45392,2,0,B|384:88|400:160|400:160|368:200,1,200,0|8,0:0|0:0,0:0:0:0:
424,280,45866,5,0,0:0:0:0:
344,344,46023,1,0,0:0:0:0:
304,256,46181,1,0,0:0:0:0:
224,312,46339,2,0,B|128:288|112:216|112:216|144:176,1,200,8|0,0:0|0:0,0:0:0:0:
144,80,46813,2,0,B|88:64|40:104,2,100,0|8|0,0:0|0:0|0:0,0:0:0:0:
232,40,47287,5,2,0:0:0:0:
232,40,47366,1,2,0:0:0:0:
232,40,47445,1,2,0:0:0:0:
296,120,47602,2,2,B|256:168,2,50,10|2|2,0:0|0:0|0:0,0:0:0:0:
376,56,47918,2,0,B|504:88|464:208,1,200,0|8,0:0|0:0,0:0:0:0:
368,184,48392,2,0,B|336:312|216:272,1,200
152,200,48866,6,0,B|112:160|48:168,2,100,8|0|0,0:0|0:0|0:0,0:0:0:0:
224,128,49339,2,2,B|184:88|192:24,2,100,2|10|2,0:0|0:0|0:0,0:0:0:0:
328,120,49813,2,2,B|336:64,2,50
424,152,50129,5,8,0:0:0:0:
416,176,50208,1,0,0:0:0:0:
408,200,50287,1,0,0:0:0:0:
400,224,50366,1,0,0:0:0:0:
392,248,50445,2,0,B|352:336|352:336|288:360|256:312,1,200,0|8,0:0|0:0,0:0:0:0:
216,224,50918,5,0,0:0:0:0:
144,336,51076,1,0,0:0:0:0:
32,272,51234,1,0,0:0:0:0:
88,152,51392,1,8,0:0:0:0:
120,240,51550,5,0,0:0:0:0:
16,184,51708,1,0,0:0:0:0:
32,88,51866,1,0,0:0:0:0:
120,48,52023,2,8,B|168:72|184:128,1,100,8|0,0:0|0:0,0:0:0:0:
264,56,52339,5,0,0:0:0:0:
288,56,52418,1,0,0:0:0:0:
312,56,52497,1,0,0:0:0:0:
336,56,52576,1,0,0:0:0:0:
360,56,52655,1,8,0:0:0:0:
384,56,52734,1,0,0:0:0:0:
408,56,52813,1,0,0:0:0:0:
464,152,52971,6,0,B|448:232|448:232|376:248,1,149.999995529652,4|8,0:0|0:0,0:0:0:0:
368,176,53445,2,0,B|288:192|288:192|272:264,1,149.999995529652
232,320,53918,1,8,0:0:0:0:
184,264,54076,1,0,0:0:0:0:
112,288,54234,2,0,B|68:300|60:344,2,74.9999977648259,0|0|8,0:0|0:0|0:0,0:0:0:0:
72,224,54708,2,0,B|24:240|-8:216,2,74.9999977648259
60,148,55181,5,8,0:0:0:0:
112,96,55339,1,0,0:0:0:0:
176,56,55497,2,0,B|256:32|328:88,1,149.999995529652,4|8,0:0|0:0,0:0:0:0:
304,152,55971,2,0,B|384:176|456:120,2,149.999995529652
248,104,56760,6,2,B|216:128|208:176,1,74.9999977648259
248,232,57076,2,2,B|224:264|176:272,1,74.9999977648259,10|2,0:0|0:0,0:0:0:0:
112,256,57392,2,2,B|80:232|72:184,1,74.9999977648259
112,128,57708,2,2,B|144:104|152:56,1,74.9999977648259,10|2,0:0|0:0,0:0:0:0:
224,48,58023,6,0,B|288:40|288:40|360:104,1,149.999995529652,4|8,0:0|0:0,0:0:0:0:
368,168,58497,1,0,0:0:0:0:
368,168,58655,1,0,0:0:0:0:
296,184,58813,1,0,0:0:0:0:
296,184,58971,1,8,0:0:0:0:
264,256,59129,1,0,0:0:0:0:
264,256,59287,6,0,B|288:328|392:344,2,149.999995529652,0|8|0,0:0|0:0|0:0,0:0:0:0:
192,232,60076,1,0,0:0:0:0:
120,248,60234,1,8,0:0:0:0:
72,192,60392,1,0,0:0:0:0:
256,192,60550,12,0,62760,0:0:0:0:
192,128,63076,6,0,B|112:128|56:56,2,149.999995529652,4|8|0,0:0|0:0|0:0,0:0:0:0:
192,128,64023,1,8,0:0:0:0:
344,128,64339,2,0,B|424:128|480:200,2,149.999995529652,0|8|0,0:0|0:0|0:0,0:0:0:0:
344,128,65287,1,8,0:0:0:0:
256,248,65602,6,0,B|168:264|120:192,1,149.999995529652,4|8,0:0|0:0,0:0:0:0:
208,148,66076,2,0,B|128:132|120:28,2,149.999995529652
280,128,66866,6,2,B|312:96|360:96,1,74.9999977648259
416,120,67181,2,2,B|448:152|448:200,1,74.9999977648259,10|2,0:0|0:0,0:0:0:0:
408,248,67497,2,2,B|376:280|328:280,1,74.9999977648259
264,272,67813,2,2,B|232:240|232:192,1,74.9999977648259,10|2,0:0|0:0,0:0:0:0:
184,144,68129,6,0,B|136:152|112:176,2,74.9999977648259,4|0|8,0:0|0:0|0:0,0:0:0:0:
224,80,68602,2,0,B|336:80,1,100
392,120,69076,1,8,0:0:0:0:
352,184,69234,1,0,0:0:0:0:
392,248,69392,6,0,B|432:248|472:224,2,74.9999977648259,4|0|8,0:0|0:0|0:0,0:0:0:0:
320,248,69866,2,0,B|216:248,1,100
144,264,70339,1,8,0:0:0:0:
112,200,70497,1,0,0:0:0:0:
256,192,70655,12,4,72550,0:0:0:0:
256,192,72708,5,4,0:0:0:0:
72,40,73181,6,0,B|120:56|144:112,1,100,6|0,0:0|0:0,0:0:0:0:
56,160,73497,2,0,B|72:208|128:232,1,100,8|0,0:0|0:0,0:0:0:0:
216,264,73813,2,0,B|200:312|144:336,2,100,0|0|8,0:0|0:0|0:0,0:0:0:0:
216,264,74287,1,0,0:0:0:0:
272,176,74445,1,0,0:0:0:0:
272,72,74602,1,0,0:0:0:0:
368,176,74760,5,8,0:0:0:0:
368,280,74918,1,0,0:0:0:0:
272,320,75076,2,0,B|224:328|176:296,1,100,0|0,0:0|0:0,0:0:0:0:
208,200,75392,2,0,B|160:192|112:224,1,100,8|0,0:0|0:0,0:0:0:0:
97,235,75629,1,0,0:0:0:0:
80,246,75708,1,2,0:0:0:0:
28,137,75866,5,0,0:0:0:0:
128,72,76023,2,0,B|232:32|312:120,2,200
309,117,76971,1,0,0:0:0:0:
240,192,77129,1,0,0:0:0:0:
184,276,77287,6,0,B|264:356|367:318,2,200,8|0|8,0:0|0:0|0:0,0:0:0:0:
367,317,78234,1,2,0:0:0:0:
432,128,78550,5,8,0:0:0:0:
368,56,78708,1,0,0:0:0:0:
320,144,78866,1,0,0:0:0:0:
320,144,79023,1,0,0:0:0:0:
264,64,79181,2,0,B|152:64,2,100,8|0|0,0:0|0:0|0:0,0:0:0:0:
200,144,79655,2,0,B|188:196|160:236,1,100,0|8,0:0|0:0,0:0:0:0:
100,132,79971,2,0,B|44:140|4:160,1,100,0|0,0:0|0:0,0:0:0:0:
60,268,80287,5,0,0:0:0:0:
144,320,80445,1,8,0:0:0:0:
240,280,80602,1,0,0:0:0:0:
336,240,80760,2,0,B|384:208|384:208|376:56,1,200,6|8,0:0|0:0,0:0:0:0:
464,128,81234,5,4,0:0:0:0:
304,144,81392,1,0,0:0:0:0:
128,48,81550,1,4,0:0:0:0:
128,48,81708,1,8,0:0:0:0:
52,116,81866,2,0,B|88:220|88:220|168:268,1,200,0|0,0:0|0:0,0:0:0:0:
248,208,82339,2,0,B|264:160,2,50,10|2|2,0:0|0:0|0:0,0:0:0:0:
296,296,82655,2,0,B|320:352,2,50,2|2|2,0:0|0:0|0:0,0:0:0:0:
384,248,82971,5,8,0:0:0:0:
400,224,83050,1,0,0:0:0:0:
416,200,83129,1,0,0:0:0:0:
432,176,83208,1,0,0:0:0:0:
448,152,83287,6,0,B|392:56|392:56|304:32,1,200,6|8,0:0|0:0,0:0:0:0:
306,32,83760,1,0,0:0:0:0:
160,56,83918,1,0,0:0:0:0:
160,56,84076,1,0,0:0:0:0:
64,232,84234,1,8,0:0:0:0:
64,232,84392,1,0,0:0:0:0:
176,192,84550,2,0,P|280:220|272:304,2,200,0|8|0,0:0|0:0|0:0,0:0:0:0:
277,296,85497,1,8,0:0:0:0:
307,108,85813,6,0,B|295:163|256:192,1,100,2|0,0:0|0:0,0:0:0:0:
339,243,86129,2,0,B|284:231|256:192,1,100,8|0,0:0|0:0,0:0:0:0:
204,275,86445,2,0,B|216:220|256:192,1,100
172,140,86760,2,0,B|227:152|256:192,1,100,8|0,0:0|0:0,0:0:0:0:
260,196,87076,5,0,0:0:0:0:
260,196,87392,2,8,B|373:230|437:142,1,200,4|0,0:0|0:0,0:0:0:0:
496,56,87866,1,0,0:0:0:0:
400,32,88023,1,8,0:0:0:0:
320,88,88181,1,0,0:0:0:0:
240,32,88339,1,6,0:0:0:0:
160,88,88497,1,0,0:0:0:0:
72,128,88655,6,0,B|8:240|128:288,1,200,8|0,0:0|0:0,0:0:0:0:
216,240,89129,1,0,0:0:0:0:
304,288,89287,1,8,0:0:0:0:
368,212,89445,1,0,0:0:0:0:
384,112,89602,2,0,B|408:64|472:64,2,100,6|2|10,0:0|0:0|0:0,0:0:0:0:
280,120,90076,2,0,B|232:96|232:32,2,100,6|2|2,0:0|0:0|0:0,0:0:0:0:
184,144,90550,1,8,0:0:0:0:
88,152,90708,1,0,0:0:0:0:
160,288,90866,5,6,0:0:0:0:
160,288,90945,1,0,0:0:0:0:
160,288,91023,1,0,0:0:0:0:
160,288,91102,1,0,0:0:0:0:
160,288,91181,1,0,0:0:0:0:
304,248,91339,5,6,0:0:0:0:
304,248,91418,1,0,0:0:0:0:
304,248,91497,1,0,0:0:0:0:
304,248,91576,1,0,0:0:0:0:
304,248,91655,1,0,0:0:0:0:
264,104,91813,5,6,0:0:0:0:
264,104,91892,1,0,0:0:0:0:
264,104,91971,1,0,0:0:0:0:
264,104,92050,1,0,0:0:0:0:
264,104,92129,1,0,0:0:0:0:
120,136,92287,5,6,0:0:0:0:
120,136,92366,1,0,0:0:0:0:
120,136,92445,1,0,0:0:0:0:
120,136,92523,1,0,0:0:0:0:
120,136,92602,1,0,0:0:0:0:
216,208,92760,6,2,B|232:256,2,50,4|2|0,0:0|0:0|0:0,0:0:0:0:
216,208,93076,1,6,0:0:0:0:
43,235,103497,6,0,B|106:337|220:273,1,200,4|8,0:0|0:0,0:0:0:0:
247,181,103971,1,0,0:0:0:0:
346,192,104129,2,0,B|421:259,1,100
367,173,104445,2,0,B|466:179,1,100,8|0,0:0|0:0,0:0:0:0:
374,138,104760,6,0,B|463:94,1,100
383,34,105076,2,0,B|294:78,1,100,8|0,0:0|0:0,0:0:0:0:
192,72,105392,2,2,B|133:84|96:44,2,100,2|2|10,0:0|0:0|0:0,0:0:0:0:
214,170,105866,1,2,0:0:0:0:
311,190,106023,6,0,B|361:317|229:333,1,200,4|8,0:0|0:0,0:0:0:0:
149,276,106497,1,0,0:0:0:0:
64,224,106655,2,0,L|8:224,2,50
100,132,106971,2,0,B|100:80,2,50,8|0|0,0:0|0:0|0:0,0:0:0:0:
200,128,107287,6,2,B|320:168|364:60,1,200,2|10,0:0|0:0,0:0:0:0:
444,120,107760,2,2,B|484:240|376:284,1,200
300,220,108234,1,10,0:0:0:0:
224,288,108392,1,2,0:0:0:0:
140,236,108550,6,0,B|116:188|60:216|60:216|80:112,1,200,4|8,0:0|0:0,0:0:0:0:
164,56,109023,1,0,0:0:0:0:
244,120,109181,2,0,B|328:176,1,100
356,80,109497,2,0,B|440:136,1,100,8|0,0:0|0:0,0:0:0:0:
440,236,109813,6,0,B|428:292|360:296,1,100
272,268,110129,2,0,B|284:212|352:208,1,100,8|0,0:0|0:0,0:0:0:0:
416,140,110445,5,2,0:0:0:0:
360,56,110602,1,2,0:0:0:0:
220,108,110760,1,10,0:0:0:0:
72,76,110918,1,2,0:0:0:0:
256,192,111076,12,0,112971,0:0:0:0:
120,80,113287,6,0,B|72:48,2,50
224,88,113602,2,0,B|296:8|408:48,1,200
406,47,114076,1,0,0:0:0:0:
215,280,114550,2,0,B|287:360|399:320,1,200
397,320,115023,1,0,0:0:0:0:
464,136,115339,5,0,0:0:0:0:
448,40,115497,2,2,B|384:32|352:80,1,100
344,168,115813,2,2,B|280:176|248:128,1,100
192,56,116129,5,0,0:0:0:0:
104,96,116287,1,0,0:0:0:0:
104,200,116445,1,8,0:0:0:0:
168,272,116602,2,0,B|224:328|288:328|288:328|336:280,1,200
416,224,117076,2,0,B|456:256|480:320,2,100,8|0|0,0:0|0:0|0:0,0:0:0:0:
456,128,117550,2,0,B|400:72|336:72|336:72|288:120,1,200
304,216,118023,5,2,0:0:0:0:
208,192,118181,1,2,0:0:0:0:
208,312,118339,1,10,0:0:0:0:
68,260,118497,1,2,0:0:0:0:
64,160,118655,6,0,B|72:96|24:64,2,100,0|0|8,0:0|0:0|0:0,0:0:0:0:
128,80,119129,2,0,B|192:72|224:120,2,100
152,176,119602,2,0,B|144:240|192:272,1,100,8|0,0:0|0:0,0:0:0:0:
264,208,119918,1,0,0:0:0:0:
314,294,120076,1,0,0:0:0:0:
365,208,120234,1,8,0:0:0:0:
365,208,120392,1,0,0:0:0:0:
365,96,120550,6,2,B|405:64,2,50
264,96,120866,2,2,B|224:64,2,50,10|2|2,0:0|0:0|0:0,0:0:0:0:
168,120,121181,6,0,B|112:144|112:144|64:128|64:128|64:232,1,200,0|8,0:0|0:0,0:0:0:0:
32,312,121655,1,0,0:0:0:0:
32,312,121813,1,0,0:0:0:0:
128,336,121971,2,0,B|176:352|216:288,1,100,0|10,0:0|0:0,0:0:0:0:
272,216,122287,6,2,B|320:200|360:264,2,100
272,216,122760,1,10,0:0:0:0:
352,128,122918,2,0,L|456:128,1,100
512,24,123234,2,0,L|408:24,1,100,0|8,0:0|0:0,0:0:0:0:
352,128,123550,1,0,0:0:0:0:
252,64,123708,6,0,B|156:24|156:24|136:120,1,200,0|8,0:0|0:0,0:0:0:0:
112,232,124181,1,0,0:0:0:0:
208,264,124339,2,0,B|256:248|272:184,2,100,0|0|8,0:0|0:0|0:0,0:0:0:0:
288,328,124813,5,0,0:0:0:0:
392,328,124971,1,0,0:0:0:0:
344,240,125129,2,0,B|360:192|424:168,1,100,0|8,0:0|0:0,0:0:0:0:
413,172,125445,1,0,0:0:0:0:
460,32,125602,5,4,0:0:0:0:
236,32,125839,1,4,0:0:0:0:
76,188,126076,1,4,0:0:0:0:
160,312,126234,6,0,B|248:280|216:200|216:200|264:168,1,200,4|8,0:0|0:0,0:0:0:0:
262,168,126708,1,0,0:0:0:0:
488,24,127181,2,0,B|400:56|432:136|432:136|384:168,1,200,8|0,0:0|0:0,0:0:0:0:
385,167,127655,1,0,0:0:0:0:
104,60,128129,6,0,B|176:128,1,100
184,228,128445,2,0,B|80:228,1,100,8|0,0:0|0:0,0:0:0:0:
40,320,128760,6,0,B|88:352|140:360|184:352|232:320,1,200,0|8,0:0|0:0,0:0:0:0:
304,256,129234,1,0,0:0:0:0:
376,328,129392,1,0,0:0:0:0:
416,240,129550,1,0,0:0:0:0:
480,160,129708,6,0,B|416:136|424:64|368:32|320:64,1,200,8|0,0:0|0:0,0:0:0:0:
240,112,130181,1,0,0:0:0:0:
144,72,130339,1,8,0:0:0:0:
152,168,130497,1,0,0:0:0:0:
64,216,130655,2,2,B|32:168,2,50
64,316,130971,5,8,0:0:0:0:
164,316,131129,1,0,0:0:0:0:
164,316,131208,1,0,0:0:0:0:
164,316,131287,2,0,B|264:316|264:316|340:248,1,200
360,152,131760,1,0,0:0:0:0:
360,152,131918,2,0,B|408:176|424:232,2,100,0|0|8,0:0|0:0|0:0,0:0:0:0:
368,48,132392,5,0,0:0:0:0:
271,24,132550,1,0,0:0:0:0:
184,72,132708,1,0,0:0:0:0:
192,168,132866,1,8,0:0:0:0:
264,240,133023,1,0,0:0:0:0:
296,336,133181,2,2,B|244:356|196:336,1,100
16,244,133497,2,2,B|68:224|116:244,1,100
40,64,133813,6,0,B|192:64,1,149.999995529652,4|8,0:0|0:0,0:0:0:0:
312,144,134445,2,0,B|160:144,1,149.999995529652,0|8,0:0|0:0,0:0:0:0:
40,232,135076,2,0,B|192:232,1,149.999995529652,0|8,0:0|0:0,0:0:0:0:
304,328,135708,5,0,0:0:0:0:
440,264,136023,1,8,0:0:0:0:
480,120,136339,2,0,B|448:32|352:64|352:64,1,149.999995529652,4|8,0:0|0:0,0:0:0:0:
368,136,136813,2,0,B|280:176|224:96,1,149.999995529652
176,160,137287,5,8,0:0:0:0:
128,104,137445,1,0,0:0:0:0:
56,80,137602,2,2,B|24:112|32:152,1,74.9999977648259
72,216,137918,2,2,B|40:248|0:248,1,74.9999977648259,10|2,0:0|0:0,0:0:0:0:
48,312,138234,2,2,B|80:344|120:336,1,74.9999977648259
168,280,138550,1,10,0:0:0:0:
232,240,138708,1,2,0:0:0:0:
264,304,138866,6,0,B|320:360|408:336,3,149.999995529652,4|8|0|8,0:0|0:0|0:0|0:0,0:0:0:0:
432,272,139971,1,0,0:0:0:0:
464,208,140129,2,0,B|408:152|432:64,3,149.999995529652,0|8|0|8,0:0|0:0|0:0|0:0,0:0:0:0:
256,192,141392,12,0,143602,0:0:0:0:
128,72,143918,6,0,B|128:160|56:200,1,149.999995529652,4|8,0:0|0:0,0:0:0:0:
112,256,144392,1,0,0:0:0:0:
152,320,144550,2,0,B|240:320|280:248,1,149.999995529652,0|8,0:0|0:0,0:0:0:0:
328,312,145023,1,0,0:0:0:0:
376,256,145181,6,2,B|416:232|456:248,1,74.9999977648259
480,176,145497,2,2,B|504:136|488:96,1,74.9999977648259,10|2,0:0|0:0,0:0:0:0:
448,40,145813,2,2,B|408:16|368:32,1,74.9999977648259
344,96,146129,2,2,B|304:120|264:104,1,74.9999977648259,10|2,0:0|0:0,0:0:0:0:
196,100,146444,6,0,B|108:84|108:84|52:116,1,149.999995529652,4|8,0:0|0:0,0:0:0:0:
104,176,146918,2,0,B|120:264|120:264|88:320,2,149.999995529652
176,184,147708,6,2,B|216:208|216:256,1,74.9999977648259
288,264,148023,2,2,B|328:240|328:192,1,74.9999977648259,10|2,0:0|0:0,0:0:0:0:
400,192,148339,2,2,B|424:152|472:152,1,74.9999977648259
440,80,148655,2,2,B|456:40,2,37.4999988824129,10|2|2,0:0|0:0|0:0,0:0:0:0:
368,72,148971,6,0,B|296:32|216:40,1,149.999995529652,4|8,0:0|0:0,0:0:0:0:
192,104,149445,2,0,B|152:144|88:128,1,100
48,184,149918,1,8,0:0:0:0:
56,256,150076,1,0,0:0:0:0:
96,320,150234,6,0,B|176:352|248:336,1,149.999995529652,4|8,0:0|0:0,0:0:0:0:
240,264,150708,2,0,B|288:224|336:240,1,100
392,200,151181,1,8,0:0:0:0:
392,128,151339,1,0,0:0:0:0:
256,192,151497,12,4,153392,0:0:0:0:
256,192,153550,5,4,0:0:0:0:
104,64,154023,6,0,B|128:112|80:160,1,100,6|0,0:0|0:0,0:0:0:0:
88,256,154339,2,0,B|136:280|184:232,1,100,8|0,0:0|0:0,0:0:0:0:
256,296,154655,1,0,0:0:0:0:
352,328,154813,1,0,0:0:0:0:
352,224,154971,1,8,0:0:0:0:
420,152,155129,1,0,0:0:0:0:
392,56,155287,6,0,B|344:32|288:48,1,100,0|0,0:0|0:0,0:0:0:0:
272,144,155602,2,0,B|224:168|168:152,1,100,8|0,0:0|0:0,0:0:0:0:
80,120,155918,2,0,B|56:168|72:224,1,100,0|0,0:0|0:0,0:0:0:0:
100,312,156234,5,8,0:0:0:0:
200,312,156392,1,0,0:0:0:0:
200,312,156471,1,0,0:0:0:0:
200,312,156550,2,0,B|304:312|304:312|368:232,2,200,2|0|0,0:0|0:0|0:0,0:0:0:0:
40,192,157497,1,0,0:0:0:0:
240,192,157813,1,0,0:0:0:0:
60,104,158129,6,0,B|76:48|124:24,1,100,8|0,0:0|0:0,0:0:0:0:
188,100,158444,2,0,B|244:84|268:36,1,100,0|0,0:0|0:0,0:0:0:0:
368,32,158760,1,8,0:0:0:0:
440,104,158918,1,0,0:0:0:0:
368,176,159076,6,0,B|352:224|400:272,1,100,2|0,0:0|0:0,0:0:0:0:
312,320,159392,2,0,B|264:336|216:288,1,100,8|0,0:0|0:0,0:0:0:0:
120,272,159708,1,0,0:0:0:0:
200,216,159866,1,0,0:0:0:0:
84,188,160023,1,8,0:0:0:0:
132,48,160181,1,0,0:0:0:0:
232,56,160339,6,0,B|280:72|296:136,1,100
352,208,160655,2,0,B|400:192|416:128,1,100,8|0,0:0|0:0,0:0:0:0:
464,224,160971,2,0,B|448:272|384:288,1,100
296,320,161287,5,8,0:0:0:0:
196,320,161444,1,0,0:0:0:0:
196,320,161523,1,0,0:0:0:0:
196,320,161602,2,0,P|96:332|44:256,1,200,6|8,0:0|0:0,0:0:0:0:
84,112,162076,2,0,P|184:100|236:176,1,200,4|4,0:0|0:0,0:0:0:0:
336,240,162550,1,8,0:0:0:0:
408,168,162708,1,4,0:0:0:0:
392,72,162866,6,2,B|424:32,2,50
288,72,163181,2,2,B|256:32,2,50,10|2|2,0:0|0:0|0:0,0:0:0:0:
280,160,163497,1,0,0:0:0:0:
264,176,163576,1,0,0:0:0:0:
248,192,163655,1,0,0:0:0:0:
232,208,163734,1,0,0:0:0:0:
216,224,163813,1,8,0:0:0:0:
200,240,163892,1,0,0:0:0:0:
184,256,163971,1,0,0:0:0:0:
168,272,164050,1,0,0:0:0:0:
152,288,164129,2,0,B|40:280|24:152,1,200,6|8,0:0|0:0,0:0:0:0:
56,64,164602,5,0,0:0:0:0:
152,80,164760,1,0,0:0:0:0:
240,40,164918,1,0,0:0:0:0:
344,40,165076,2,0,B|400:32|440:72,1,100,8|0,0:0|0:0,0:0:0:0:
392,160,165392,2,0,B|384:216|424:256,1,100,0|0,0:0|0:0,0:0:0:0:
320,256,165708,5,8,0:0:0:0:
204,336,165866,1,0,0:0:0:0:
248,204,166023,1,0,0:0:0:0:
292,336,166181,1,0,0:0:0:0:
176,256,166339,1,8,0:0:0:0:
96,192,166497,5,0,0:0:0:0:
96,192,166655,2,0,B|48:160|56:104,1,100,2|0,0:0|0:0,0:0:0:0:
136,40,166971,2,0,B|168:88|224:80,1,100,8|0,0:0|0:0,0:0:0:0:
320,80,167287,2,0,B|424:96|480:208,2,200,0|8|0,0:0|0:0|0:0,0:0:0:0:
312,176,168076,1,0,0:0:0:0:
248,256,168234,6,0,B|304:344|304:344|344:304|400:336,2,200,8|0|8,0:0|0:0|0:0,0:0:0:0:
391,331,169181,1,6,0:0:0:0:
432,136,169497,2,0,B|376:48|376:48|344:84|288:60,2,200,8|0|8,0:0|0:0|0:0,0:0:0:0:
288,60,170444,1,6,0:0:0:0:
88,88,170760,6,0,B|96:144|48:184,1,100,10|6,0:0|0:0,0:0:0:0:
56,280,171076,2,0,B|112:288|152:240,1,100,2|2,0:0|0:0,0:0:0:0:
224,312,171392,1,14,0:0:0:0:
384,56,171708,6,2,B|288:56|312:168|256:192,1,200,6|2,0:0|0:0,0:0:0:0:
120,64,172181,2,2,B|120:160|232:136|256:192,1,200,6|2,0:0|0:0,0:0:0:0:
128,328,172655,2,2,B|224:328|200:216|256:192,1,200,6|2,0:0|0:0,0:0:0:0:
392,320,173129,2,2,B|392:224|280:248|256:192,1,200,6|2,0:0|0:0,0:0:0:0:
257,193,173602,5,4,0:0:0:0:
257,193,173681,1,0,0:0:0:0:
257,193,173760,1,0,0:0:0:0:
257,193,173839,1,0,0:0:0:0:
256,192,173918,1,6,0:0:0:0:
