osu file format v9

[General]
AudioFilename: 03 Dreamer.mp3
AudioLeadIn: 0
PreviewTime: 73154
Countdown: 0
SampleSet: Normal
StackLeniency: 0.7
Mode: 0
LetterboxInBreaks: 1

[Editor]
Bookmarks: 32447,41210,68210,85815,85894,113210,122921,148894,186789,204394
DistanceSpacing: 0.8
BeatDivisor: 4
GridSize: 8

[Metadata]
Title:Kanzen Kankaku Dreamer
Artist:ONE OK ROCK
Creator:QuadaL
Version:Normal
Source:
Tags:

[Difficulty]
HPDrainRate:2
CircleSize:3
OverallDifficulty:0
ApproachRate:3
SliderMultiplier:1.4
SliderTickRate:2

[Events]
//Background and Video events
0,0,"one ok rock.jpg"
//Break Periods
2,51752,66770
//Storyboard Layer 0 (Background)
//Storyboard Layer 1 (Fail)
//Storyboard Layer 2 (Pass)
//Storyboard Layer 3 (Foreground)
//Storyboard Sound Samples
//Background Colour Transformations
3,100,163,162,255

[TimingPoints]
27000,315.789473684211,4,1,0,80,1,0

[Colours]
Combo1 : 128,0,255
Combo2 : 0,0,255
Combo3 : 0,255,0
Combo4 : 240,5,5

[HitObjects]
256,192,32447,1,0
368,192,32763,2,0,B|368:120|272:88,1,140
168,96,33394,1,0
168,96,33710,1,0
168,96,34026,1,0
168,96,34342,2,0,B|104:144|168:224,1,140
163,218,34973,1,0
368,192,35289,6,0,B|368:264|272:296,1,140
168,288,35920,1,0
168,288,36236,1,0
168,288,36552,1,0
168,288,36868,2,0,B|104:240|168:160,1,140
163,165,37499,1,0
256,104,37815,6,0,B|312:144|256:232,1,140
176,304,38447,1,0
176,304,38763,1,0
288,280,39078,1,0
288,280,39394,2,0,B|352:224|280:160,1,140
281,161,40026,1,0
312,56,40342,6,0,B|376:96|312:176,1,140
312,175,40973,1,0
312,175,41289,1,0
312,175,41605,2,0,B|240:224|312:296,1,140
308,292,42236,1,0
308,292,42552,1,0
416,336,42868,6,0,B|480:280|400:192,1,140
416,208,43500,2,0,B|480:152|400:64,1,140
424,83,44131,1,0
424,83,44447,1,0
424,83,44763,2,0,B|376:32|288:88,1,140
296,80,45394,2,0,B|247:28|159:84,1,140
167,79,46026,1,0
167,79,46342,1,0
167,79,46657,6,0,B|96:128|168:200,1,140
168,200,47289,2,0,B|96:248|168:320,1,140
164,316,47921,1,0
164,316,48236,1,0
170,316,48552,2,0,B|98:267|170:195,1,140
168,192,49184,2,0,B|96:143|168:71,1,140
168,72,49815,1,0
168,72,50131,1,0
304,72,50447,6,0,B|384:88|344:176|480:192,1,210
467,190,51078,1,0
467,190,51236,1,0
467,190,51394,1,0
467,190,51552,1,0
256,192,68210,12,0,72473
440,96,73105,6,0,B|440:264,5,140
256,104,75315,1,0
256,104,75631,1,0
256,216,75947,1,0
256,216,76263,1,0
256,216,76579,1,0
72,88,77210,2,0,B|72:240,3,140
184,229,78473,2,0,B|184:77,3,140
407,73,80052,5,0
407,185,80368,1,0
408,297,80684,1,0
408,297,81000,1,0
408,297,81315,2,0,B|331:349|261:289,5,140
204,215,83210,1,0
204,215,83526,1,0
204,215,83842,1,0
204,215,84157,6,0,B|126:156|219:90|225:93,3,140
415,194,85736,1,0
302,194,86052,1,0
189,195,86368,1,0
76,196,86684,1,0
76,196,87315,2,0,B|217:196,1,140
216,196,87947,2,0,B|354:196,1,140
356,196,88578,1,0
173,65,88894,6,0,B|145:102,5,35
95,190,89605,1,0
95,190,89921,1,0
95,190,90236,1,0
93,302,90552,2,0,B|147:347|224:304,1,140
224,308,91184,2,0,B|278:353|355:310,1,140
442,240,91815,1,0
442,240,92131,1,0
309,195,92447,6,0,B|271:195,7,35
