osu file format v9

[General]
AudioFilename: 03 Dreamer.mp3
AudioLeadIn: 0
PreviewTime: 73154
Countdown: 0
SampleSet: Normal
StackLeniency: 0.7
Mode: 0
LetterboxInBreaks: 1

[Editor]
Bookmarks: 32447,41210,68210,85815,85894,113210,122921,148894,186789,204394
DistanceSpacing: 1.1
BeatDivisor: 4
GridSize: 8

[Metadata]
Title:Kanzen Kankaku Dreamer
Artist:ONE OK ROCK
Creator:QuadaL
Version:Hard
Source:
Tags:

[Difficulty]
HPDrainRate:7
CircleSize:3
OverallDifficulty:5
ApproachRate:7
SliderMultiplier:1.4
SliderTickRate:2

[Events]
//Background and Video events
0,0,"one ok rock.jpg"
//Break Periods
2,52542,67310
2,93594,112310
2,133700,147994
2,175226,185889
//Storyboard Layer 0 (Background)
//Storyboard Layer 1 (Fail)
//Storyboard Layer 2 (Pass)
//Storyboard Layer 3 (Foreground)
//Storyboard Sound Samples
//Background Colour Transformations
3,100,163,162,255

[TimingPoints]
27000,315.789473684211,4,1,0,80,1,0

[Colours]
Combo1 : 128,0,255
Combo2 : 0,0,255
Combo3 : 0,255,0
Combo4 : 240,5,5

[HitObjects]
256,192,32447,1,0
104,192,32763,2,0,B|288:192,1,175
88,192,33710,2,0,B|296:192,1,210
88,280,34657,1,0
240,280,34973,1,0
240,128,35289,1,0
464,192,35763,1,0
240,128,36236,1,0
464,192,36710,5,0
320,320,37105,2,0,B|256:192,1,140
112,320,37815,1,0
112,128,38210,1,0
368,40,38763,2,0,B|464:168,1,140
452,152,39236,1,0
464,200,39631,2,0,B|360:312,1,140
176,304,40342,2,0,B|72:192,1,140
80,201,40815,1,0
256,128,41210,5,0
344,256,41526,1,0
344,256,41684,1,0
344,256,42000,1,0
344,256,42473,1,0
160,312,42868,6,0,B|64:160,1,175
256,32,43736,1,0
256,264,44210,1,0
448,72,44763,2,0,B|448:160|376:184,1,140
224,192,45394,2,0,B|288:288|400:312,1,210
160,328,46342,5,0
160,136,46736,1,0
368,232,47210,2,0,B|368:128|280:64,1,175
160,136,47921,5,0
384,72,48394,1,0
440,296,48868,2,0,B|328:272|312:192,1,175
80,56,49815,1,0
80,56,50131,1,0
88,208,50447,2,0,B|240:208,1,140
228,208,50921,1,0
32,208,51315,1,0
228,208,51710,1,0
228,208,51868,5,0
228,208,52026,5,0
228,208,52184,5,0
228,208,52342,5,0
256,192,68210,12,0,72078
256,192,72552,5,0
256,192,72710,1,0
448,64,73184,1,0
448,64,73500,1,0
448,216,73815,1,0
448,216,74131,1,0
320,304,74368,2,0,B|224:304|168:240,1,140
189,261,75000,1,0
192,64,75394,1,0
192,64,75710,2,0,B|336:128,1,140
319,120,76342,1,0
319,120,76657,1,0
80,312,77289,5,0
80,312,77605,1,0
80,312,77921,2,0,B|104:200|112:144,1,140
248,104,78552,1,0
248,256,78868,1,0
248,256,79184,1,0
248,256,79500,2,0,B|368:168,1,140
387,158,80131,1,0
160,304,80526,1,0
160,304,80684,6,0,B|72:200|112:144,1,175
109,147,81236,1,0
109,147,81552,1,0
232,240,81868,1,0
256,48,82263,1,0
256,48,82657,1,0
256,48,82973,1,0
256,200,83289,5,0
408,200,83605,1,0
256,200,83921,1,0
408,200,84236,1,0
408,200,84552,2,0,B|256:200,1,140
256,200,85184,1,0
256,200,85500,1,0
256,200,85815,5,0
256,200,86131,2,0,B|256:344,1,140
256,200,86763,1,0
256,200,87078,1,0
256,200,87394,5,0
256,200,87710,1,0
256,200,88026,1,0
56,16,88578,2,0,B|80:120|176:144,1,175
165,141,89289,1,0
165,141,89605,1,0
165,141,89921,1,0
165,141,90236,1,0
165,141,90552,1,0
312,80,90868,5,0
312,80,91026,1,0
312,80,91184,1,0
376,128,91342,1,0
376,128,91500,1,0
376,128,91657,1,0
376,128,91815,1,0
312,168,91973,1,0
312,168,92131,1,0
312,168,92289,1,0
312,168,92447,1,0
312,168,92605,5,0
312,168,92763,2,0,B|112:288,1,210
131,276,93394,1,0
256,192,113210,5,0
256,192,113605,2,0,B|200:104|128:216,1,140
145,191,114078,1,0
145,191,114473,1,0
145,191,114868,2,0,B|312:320,1,210
311,319,115500,1,0
311,319,115657,1,0
311,319,115815,1,0
311,319,115973,1,0
384,288,116131,6,0,B|432:184|392:112|272:80,1,280
273,80,116921,1,0
273,80,117078,1,0
273,80,117236,1,0
273,80,117394,1,0
136,144,117710,5,0
136,144,118026,1,0
136,144,118342,1,0
192,288,118657,1,0
400,192,119131,1,0
200,80,119605,1,0
400,192,120078,1,0
192,288,120552,1,0
192,288,120868,1,0
192,288,121184,2,0,B|288:320|368:320|416:264,1,210
394,284,121973,5,0
394,284,122131,1,0
394,284,122289,1,0
394,284,122447,1,0
394,284,122605,1,0
394,284,122921,6,0,B|392:152|272:72,1,245
280,77,123710,1,0
280,77,123868,1,0
280,77,124026,1,0
280,77,124184,1,0
96,136,124578,5,0
232,320,125052,1,0
432,200,125526,1,0
432,200,125763,1,0
432,200,126000,1,0
432,200,126236,2,0,B|296:200|368:48,1,210
291,96,126868,1,0
144,128,127184,1,0
216,304,127578,1,0
216,304,127736,1,0
216,304,127894,1,0
216,304,128052,1,0
360,248,128368,5,0
360,248,128684,1,0
360,248,128921,2,0,B|360:96,1,140
361,58,129552,1,0
361,58,129710,1,0
361,58,129868,1,0
361,58,130026,1,0
361,58,130184,1,0
361,58,130578,6,0,B|184:104,1,175
192,101,131289,1,0
64,240,131684,1,0
64,240,131842,1,0
64,240,132000,1,0
64,240,132157,1,0
208,304,132473,1,0
208,304,132631,1,0
208,304,132789,2,0,B|368:216,1,175
361,219,133500,1,0
256,192,148894,12,0,152842
256,192,153394,5,0
256,192,153552,1,0
256,192,154026,1,0
104,192,154342,1,0
176,56,154657,1,0
104,192,154973,1,0
176,56,155289,1,0
256,192,155605,1,0
256,192,155921,1,0
408,192,156236,5,0
328,56,156552,1,0
408,192,156868,1,0
336,328,157184,1,0
408,192,157500,1,0
168,64,158052,1,0
168,64,158368,1,0
168,64,158684,1,0
168,64,159000,1,0
72,184,159315,5,0
160,312,159631,1,0
160,312,159947,1,0
160,312,160263,1,0
256,192,160578,1,0
352,312,160894,1,0
352,312,161210,1,0
456,192,161526,1,0
352,72,161842,1,0
352,72,162078,5,0
352,72,162236,1,0
352,72,162394,1,0
352,72,162552,1,0
352,72,162710,1,0
352,72,162868,1,0
352,72,163184,5,0
352,72,163500,1,0
352,72,163815,1,0
256,192,164131,1,0
256,192,164447,1,0
256,192,164763,2,0,B|88:192,1,140
116,192,165394,5,0
116,192,165710,1,0
256,192,166026,1,0
408,192,166342,1,0
256,192,166657,1,0
256,344,166973,1,0
256,344,167289,1,0
256,192,167605,1,0
256,192,167921,2,0,B|112:192,3,140
256,192,169184,2,0,B|408:192,2,140
256,192,170131,5,0
256,192,170447,1,0
256,192,170763,1,0
256,192,171078,1,0
256,192,171394,1,0
256,40,171710,5,0
256,40,171868,1,0
256,40,172026,1,0
80,192,172500,1,0
80,192,172657,1,0
80,192,172815,1,0
256,344,173289,1,0
256,344,173447,1,0
256,344,173605,1,0
256,112,174078,5,0
256,264,174394,1,0
256,264,174552,1,0
256,264,174710,1,0
256,264,174868,1,0
256,264,175026,1,0
256,192,186789,6,0,B|256:232,55,35
64,192,191526,5,0
64,192,191763,2,0,B|128:192,9,35
216,192,192710,5,0
216,192,193026,2,0,B|256:192,9,35
368,192,193973,5,0
368,192,194289,2,0,B|416:192,25,35
136,192,196815,6,0,B|216:304|384:328,1,280
373,326,197605,1,0
373,326,197763,1,0
373,326,197921,1,0
373,326,198078,2,0,B|336:168|128:192,1,280
159,189,198868,1,0
159,189,199026,1,0
159,189,199184,1,0
159,189,199342,6,0,B|376:104,1,210
355,112,199973,1,0
355,112,200131,1,0
355,112,200289,1,0
355,112,200447,1,0
355,112,200605,1,0
355,112,200763,2,0,B|216:72|128:160,1,245
127,160,201473,1,0
127,160,201631,1,0
127,160,201789,6,0,B|144:280|48:296,1,175
256,192,202657,1,0
360,32,203052,2,0,B|456:112|424:216|432:208,1,175
256,336,203921,1,0
256,192,204394,12,0,206368
256,192,206684,5,0
144,192,206921,1,0
64,192,207078,1,0
176,192,207315,1,0
288,192,207552,1,0
256,192,208026,5,0
256,192,208342,1,0
144,296,208657,1,0
288,360,208973,1,0
400,256,209289,1,0
400,256,209605,2,0,B|472:160|408:104,1,140
128,192,210552,5,0
128,192,210868,1,0
280,192,211184,1,0
280,192,211500,1,0
280,192,211815,2,0,B|136:192,1,140
140,192,212447,1,0
140,192,212763,1,0
140,192,213078,2,0,B|192:264|256:288,1,140
400,288,213710,5,0
400,136,214026,1,0
248,128,214342,1,0
400,136,214657,1,0
400,136,214973,1,0
400,136,215289,2,0,B|384:264|312:240,1,140
331,243,215921,1,0
331,243,216078,1,0
331,243,216236,1,0
331,243,216394,1,0
331,243,216710,5,0
331,243,217026,1,0
331,243,217342,2,0,B|256:104,1,140
264,120,217815,1,0
264,120,217894,1,0
264,120,217973,1,0
264,120,218052,1,0
264,120,218131,1,0
120,64,218447,5,0
40,192,218763,1,0
112,328,219078,1,0
40,192,219394,1,0
192,192,219710,1,0
192,192,220026,2,0,B|288:176|328:104,1,140
312,127,220657,1,0
312,127,220973,2,0,B|280:208|176:208,1,140
205,206,221605,1,0
205,206,221921,2,0,B|248:280|312:320,1,140
297,310,222552,5,0
297,310,222868,1,0
297,310,223184,2,0,B|384:288|440:216,1,140
417,241,223815,1,0
417,241,224131,1,0
417,241,224447,2,0,B|456:152|408:88,1,140
419,106,225078,1,0
419,106,225394,1,0
419,106,225710,2,0,B|328:96|272:40,1,140
290,56,226342,5,0
290,56,226500,1,0
290,56,226657,1,0
290,56,226973,5,0
290,56,227289,1,0
290,56,227605,1,0
290,56,227921,2,0,B|192:48|136:80,1,140
153,71,228552,1,0
153,71,228868,1,0
153,71,229184,1,0
153,71,229500,2,0,B|72:128|48:168,1,140
49,165,230131,5,0
49,165,230447,1,0
49,165,230763,2,0,B|40:256|96:296,1,140
91,292,231394,1,0
91,292,231710,1,0
91,292,232026,2,0,B|144:336|232:336,1,140
221,335,232657,1,0
221,335,232973,1,0
221,335,233289,2,0,B|256:192,1,140
254,199,233921,5,0
254,199,234236,1,0
254,199,234552,2,0,B|320:200,4,35
254,199,235184,1,0
254,199,235500,1,0
104,200,235815,2,0,B|248:200,3,140
254,199,237078,1,0
254,199,237394,1,0
254,199,237710,5,0
254,199,238026,2,0,B|288:200,8,35
254,199,238973,1,0
256,192,239289,12,0,240868
256,192,241184,12,0,242763
256,192,243078,5,0
256,192,243394,1,0
256,192,243631,12,0,245210
256,192,245526,5,0
256,192,245842,1,0
408,192,246157,1,0
408,192,246473,1,0
408,192,246631,1,0
256,192,247026,5,4
256,192,247184,5,4
256,192,247342,5,4
256,192,247500,5,4
256,192,247657,5,4
