osu file format v9

[General]
AudioFilename: 03 Dreamer.mp3
AudioLeadIn: 0
PreviewTime: 73154
Countdown: 0
SampleSet: Normal
StackLeniency: 0.2
Mode: 0
LetterboxInBreaks: 1

[Editor]
Bookmarks: 32447,41210,68210,85815,85894,122921,148894,177000,186789,196736,204394
DistanceSpacing: 1.3
BeatDivisor: 4
GridSize: 8

[Metadata]
Title:Kanzen Kankaku Dreamer
Artist:ONE OK ROCK
Creator:QuadaL
Version:Dreamer
Source:
Tags:

[Difficulty]
HPDrainRate:8
CircleSize:4
OverallDifficulty:8
ApproachRate:8
SliderMultiplier:1.4
SliderTickRate:2

[Events]
//Background and Video events
0,0,"one ok rock.jpg"
//Break Periods
2,52463,67460
2,93278,112460
2,133384,148065
//Storyboard Layer 0 (Background)
//Storyboard Layer 1 (Fail)
//Storyboard Layer 2 (Pass)
//Storyboard Layer 3 (Foreground)
//Storyboard Sound Samples
//Background Colour Transformations
3,100,163,162,255

[TimingPoints]
27000,315.789473684211,4,1,0,80,1,0

[Colours]
Combo1 : 128,0,255
Combo2 : 0,0,255
Combo3 : 0,255,0
Combo4 : 240,5,5

[HitObjects]
256,192,32447,1,0
400,80,32763,1,0
400,80,32842,1,0
400,80,32921,1,0
312,80,33078,1,0
224,80,33236,1,0
152,136,33394,1,0
152,136,33473,1,0
152,136,33552,1,0
80,80,33710,5,0
80,80,33868,1,0
80,168,34026,1,0
80,216,34105,1,0
80,264,34184,1,0
144,328,34342,1,0
232,328,34500,1,0
312,288,34657,1,0
312,288,34736,1,0
312,288,34815,1,0
312,288,34973,5,0
240,232,35131,1,0
312,288,35289,1,0
384,344,35447,1,0
416,312,35526,1,0
448,280,35605,1,0
448,192,35763,1,0
472,104,35921,1,0
400,48,36078,5,0
400,48,36157,1,0
400,48,36236,1,0
472,104,36394,1,0
392,144,36552,1,0
312,96,36710,1,0
272,72,36789,1,0
232,48,36868,1,0
144,72,37026,5,0
80,136,37184,1,0
16,200,37342,1,0
16,200,37500,1,0
48,288,37657,1,0
120,344,37815,1,0
152,312,37894,1,0
184,280,37973,1,0
272,312,38131,5,0
360,344,38289,1,0
448,312,38447,1,0
448,312,38526,1,0
448,312,38605,1,0
480,224,38763,1,0
480,224,38921,1,0
464,136,39078,1,0
464,136,39157,1,0
464,136,39236,1,0
416,56,39394,6,0,B|368:40|320:72,1,70
347,57,39710,1,0
272,112,39868,1,0
240,144,39947,1,0
208,176,40026,1,0
208,176,40184,1,0
136,112,40342,1,0
72,176,40500,1,0
8,240,40657,1,0
96,272,40815,5,0
136,296,40894,1,0
176,320,40973,1,0
256,360,41131,1,0
256,272,41289,1,0
256,224,41368,1,0
256,176,41447,1,0
336,128,41605,1,0
416,88,41763,5,0
448,120,41842,1,0
416,152,41921,1,0
472,224,42078,1,0
416,296,42236,1,0
416,296,42394,1,0
416,296,42552,1,0
328,320,42710,5,0
280,320,42789,1,0
232,320,42868,1,0
144,320,43026,2,0,B|88:312|72:288,1,70
79,296,43342,1,0
32,216,43500,1,0
112,176,43657,1,0
152,160,43736,1,0
192,144,43815,1,0
160,56,43973,5,0
160,56,44131,1,0
192,144,44289,1,0
192,144,44368,1,0
192,144,44447,1,0
224,232,44605,1,0
256,320,44763,1,0
256,320,44921,1,0
256,320,45000,1,0
256,320,45078,1,0
328,264,45236,5,0
264,200,45394,1,0
328,264,45552,1,0
352,304,45631,1,0
376,344,45710,1,0
456,296,45868,1,0
456,208,46026,1,0
456,120,46184,5,0
424,88,46263,1,0
392,56,46342,1,0
304,56,46500,1,0
216,56,46657,1,0
128,56,46815,1,0
88,80,46894,1,0
128,104,46973,1,0
80,184,47131,5,0
120,264,47289,1,0
176,336,47447,1,0
176,336,47526,1,0
176,336,47605,1,0
264,336,47763,1,0
352,312,47921,1,0
432,272,48078,5,0
472,248,48157,1,0
432,224,48236,1,0
480,144,48394,1,0
432,64,48552,1,0
344,64,48710,1,0
296,64,48789,1,0
248,64,48868,1,0
160,64,49026,5,0
160,64,49184,1,0
88,120,49342,1,0
64,160,49421,1,0
40,200,49500,1,0
80,280,49657,1,0
80,280,49815,1,0
152,336,49973,5,0
176,296,50052,1,0
200,256,50131,1,0
160,176,50289,1,0
160,176,50447,1,0
200,96,50605,2,0,B|240:64|280:112,1,70
263,95,50842,1,0
263,95,50921,1,0
304,176,51078,5,0
344,256,51236,1,0
328,296,51315,1,0
312,336,51394,1,0
400,336,51552,1,0
432,248,51710,1,0
464,160,51868,1,0
464,160,51947,5,0
464,160,52026,1,0
464,160,52105,1,0
464,160,52184,1,0
464,160,52263,1,0
256,192,68210,12,0,72236
256,112,72552,5,0
256,272,72710,1,0
96,192,73105,1,0
96,192,73421,1,8
208,48,73736,1,0
248,72,73815,1,0
288,96,73894,1,0
424,128,74131,5,8
336,344,74447,1,0
336,256,74605,1,0
336,168,74763,1,0
336,80,74921,1,0
424,80,75078,1,0
416,264,75394,1,0
416,184,75710,1,0
416,232,75789,1,0
416,280,75868,1,0
336,328,76026,5,0
336,328,76184,1,0
248,328,76342,1,0
248,328,76421,1,0
248,328,76500,1,0
248,328,76578,1,0
248,328,76657,1,0
64,328,76973,5,0
184,192,77289,1,8
64,56,77605,1,0
64,56,77921,1,8
64,56,78236,2,0,B|136:40|208:56,1,140
376,112,78868,1,8
480,264,79184,1,0
440,288,79263,1,0
400,312,79342,1,0
360,288,79421,5,0
320,264,79500,1,0
152,328,79815,1,0
152,328,80131,1,0
152,328,80447,2,0,B|96:280|168:192,1,140
159,203,80842,1,0
159,203,80921,1,0
159,203,81000,1,0
256,48,81157,1,0
256,48,81315,6,0,B|320:88|256:176,1,140
260,169,81710,1,0
260,169,81789,1,0
260,169,81868,1,0
260,169,81947,1,0
260,169,82026,1,0
136,304,82342,1,8
136,304,82657,1,8
136,304,82973,1,8
320,304,83289,5,0
464,192,83605,1,8
320,304,83921,1,0
320,304,84236,1,8
320,304,84552,2,0,B|240:344|184:304,1,140
186,306,84947,1,0
186,306,85026,1,0
128,240,85184,1,8
216,72,85499,5,0
264,72,85578,1,0
312,72,85657,1,0
312,72,85815,1,0
312,72,86131,1,0
448,192,86447,1,0
400,192,86526,1,0
352,192,86605,1,0
352,192,86763,1,0
200,288,87078,1,0
200,288,87394,6,0,B|128:272|80:200,1,140
87,210,87789,1,0
87,210,87868,1,0
88,120,88026,5,0
88,120,88342,1,0
264,80,88657,1,0
312,96,88973,2,0,B|384:112|432:184,1,140
424,173,89368,1,0
424,173,89447,1,0
424,264,89605,1,0
424,264,89921,1,0
424,264,90236,1,0
424,264,90552,1,0
256,328,90868,5,0
256,328,91026,1,0
80,192,91342,1,0
128,192,91421,1,0
176,192,91500,1,0
224,192,91578,1,0
272,192,91657,1,0
320,192,91736,1,0
368,192,91815,1,4
256,336,92289,1,0
256,64,92763,6,0,B|256:112,2,35
256,64,93078,1,4
256,192,113210,6,0,B|296:192,2,35
256,192,113526,1,0
72,192,113842,1,0
256,72,114157,1,0
440,192,114473,1,0
256,312,114789,1,0
256,312,115105,2,0,B|192:312,3,35
256,312,115499,5,0
256,312,115657,1,0
256,312,115815,1,0
256,312,115973,1,0
256,312,116131,1,0
256,192,116447,1,0
440,192,116763,1,0
256,72,117078,1,0
72,192,117394,1,0
256,312,117710,2,0,B|296:312,3,35
256,312,118105,5,0
256,312,118263,1,0
256,312,118421,1,0
256,312,118578,1,0
256,128,118894,1,0
416,40,119210,1,0
416,40,119289,1,0
416,40,119368,1,0
416,128,119526,1,0
416,216,119684,5,0
416,304,119842,1,0
416,216,120000,1,0
416,168,120078,1,0
416,128,120157,1,0
416,40,120315,1,0
416,40,120473,1,0
416,40,120631,2,0,B|328:40,1,70
304,56,120868,5,0
264,72,120947,1,0
184,112,121105,1,0
104,152,121263,2,0,B|64:176|104:208,1,70
128,240,121500,1,0
160,272,121578,1,0
232,320,121736,1,0
232,320,121894,1,0
232,320,122052,1,0
320,320,122210,6,0,B|360:320,2,35
320,272,122526,1,0
320,184,122684,2,0,B|312:144|256:112,1,70
248,96,122921,1,0
208,72,123000,1,0
160,64,123078,1,0
80,104,123236,2,0,B|32:144|96:176,1,70
104,200,123473,1,0
144,224,123552,1,0
224,272,123710,5,0
224,272,123868,1,0
224,272,124026,1,0
224,272,124184,2,0,B|224:312,2,35
224,272,124500,1,0
224,272,124657,1,0
224,360,124815,5,0
304,312,124973,1,0
376,264,125131,1,0
448,208,125289,2,0,B|480:184|448:144,1,70
450,146,125605,2,0,B|384:152,1,35
368,152,125763,2,0,B|328:152,1,35
288,152,125921,2,0,B|248:152,1,35
256,64,126157,6,0,B|232:32|176:72,1,70
160,88,126394,1,0
128,120,126473,1,0
96,152,126552,1,0
88,240,126710,1,0
88,240,126868,1,0
88,240,127026,1,0
120,328,127184,2,0,B|144:368|200:312,1,70
256,280,127500,5,0
304,200,127657,1,0
280,112,127815,2,0,B|240:64|200:64,1,70
160,64,128131,1,0
128,96,128210,1,0
160,128,128289,1,0
232,184,128447,2,0,B|272:224|312:160,1,70
293,184,128763,1,0
376,72,128921,2,0,B|416:64|424:120,1,70
422,111,129157,5,0
408,200,129315,1,0
368,280,129473,1,0
296,336,129631,2,0,B|248:368|216:320,1,70
160,280,129947,1,0
96,216,130105,1,0
80,128,130263,1,0
120,48,130421,2,0,B|160:16|200:64,1,70
216,80,130657,5,0
232,120,130736,1,0
232,168,130815,1,0
176,240,130973,1,0
256,288,131131,2,0,B|296:288,2,35
344,288,131447,1,0
432,264,131605,1,0
480,184,131763,1,0
472,96,131921,6,0,B|432:56|384:64,1,70
320,56,132236,1,0
232,64,132394,2,0,B|168:72|160:112,1,70
104,152,132710,1,0
64,232,132868,5,4
96,264,132947,5,4
136,288,133026,5,4
176,296,133105,5,4
224,304,133184,5,4
256,192,148815,12,0,153000
256,192,153315,6,0,B|304:192,6,35
256,280,153947,2,0,B|200:320|152:272,1,105
80,208,154342,1,0
152,152,154500,1,0
80,104,154657,1,0
152,48,154815,1,0
200,128,154973,1,0
240,48,155131,1,0
280,128,155289,5,0
320,48,155447,1,0
360,128,155605,1,0
400,48,155763,1,0
440,128,155921,1,0
360,288,156236,2,0,B|320:328|280:264,1,70
256,288,156552,2,0,B|216:328|176:264,1,70
152,288,156868,2,0,B|112:328|72:264,1,70
88,200,157184,6,0,B|88:160,4,35
104,112,157815,1,0
168,48,158131,1,0
256,56,158289,2,0,B|200:80|280:120,1,70
328,160,158605,1,0
328,160,158763,1,0
328,160,158921,1,0
408,200,159078,2,0,B|464:232|384:264,1,70
328,296,159394,5,0
328,296,159552,1,0
328,296,159710,1,0
328,296,159868,1,0
328,296,160026,2,0,B|296:336|256:280,1,70
216,224,160342,1,0
216,224,160500,1,0
216,224,160657,1,0
216,224,160815,6,0,B|160:208|232:168,1,70
288,128,161131,1,0
288,128,161289,1,0
288,128,161447,1,0
288,128,161605,1,0
360,80,161763,2,0,B|416:80,4,35
440,128,162236,1,0
440,128,162394,1,0
440,128,162552,1,0
440,128,162710,1,0
464,216,162868,6,0,B|496:240|464:280,1,70
392,328,163184,1,0
392,328,163342,1,0
392,328,163500,1,0
392,328,163657,1,0
304,328,163815,2,0,B|272:352|232:328,1,70
160,288,164131,1,0
96,224,164289,5,0
160,160,164447,1,0
96,96,164605,1,0
160,32,164763,1,0
224,96,164921,1,0
288,32,165078,1,0
352,96,165236,1,0
416,32,165394,1,0
480,96,165552,5,0
480,96,165710,1,0
480,96,165868,1,0
480,96,166026,1,0
464,184,166184,2,0,B|496:208|464:248,1,70
466,245,166500,1,0
296,312,166657,5,0
120,264,166973,1,0
64,88,167289,1,0
240,40,167605,1,0
408,120,167921,2,0,B|456:144|400:184,1,70
412,174,168236,1,0
368,256,168394,1,0
368,256,168552,1,0
288,304,168710,5,0
288,304,168868,1,0
200,312,169026,1,0
200,312,169184,1,0
112,280,169342,1,0
112,280,169500,1,0
64,200,169657,1,0
64,200,169815,1,0
72,112,169973,5,0
72,112,170131,1,0
136,48,170289,1,0
136,48,170447,1,0
224,48,170605,2,0,B|272:48,10,35
384,128,171710,6,0,B|368:160,3,35
336,192,172026,2,0,B|304:224,3,35
272,240,172342,2,0,B|240:256,3,35
200,272,172657,2,0,B|160:280,3,35
256,192,173210,12,0,173605
256,192,177000,5,8
256,192,177157,1,8
256,192,177631,1,8
256,192,178263,1,8
256,192,178421,1,8
256,192,178894,1,8
256,192,179526,5,0
256,192,179684,1,8
256,192,180157,1,8
256,192,180789,1,8
256,192,180947,1,8
256,192,181421,1,0
256,192,182052,1,0
256,192,182210,1,8
256,192,182684,5,0
256,192,183315,1,0
256,192,183473,1,8
256,192,183947,1,0
256,192,184578,1,0
256,192,184736,1,8
256,192,185210,1,0
256,192,186789,12,0,196184
256,192,196736,6,0,B|256:152,3,35
256,64,197289,1,0
304,64,197368,1,0
352,64,197447,1,0
416,128,197605,1,0
480,192,197763,1,0
416,256,197921,1,0
352,320,198078,6,0,B|304:320,3,35
224,320,198473,1,0
176,320,198552,1,0
128,320,198631,1,0
80,248,198868,1,0
8,192,199026,1,0
80,136,199184,1,0
256,80,199342,5,0
256,80,199499,1,0
256,80,199657,1,0
344,104,199815,1,0
344,104,199973,1,0
344,104,200131,1,0
432,128,200289,1,0
432,128,200447,1,0
432,128,200605,1,0
480,208,200763,6,0,B|496:240|472:280,1,70
416,208,201078,2,0,B|432:240|408:280,1,70
352,208,201394,2,0,B|368:240|344:280,1,70,0|0
312,240,201710,1,0
224,240,201868,2,0,B|144:240,1,70
154,240,202184,1,0
154,240,202342,1,0
154,240,202500,1,0
154,240,202657,6,0,B|104:216|168:176,1,70
224,128,202973,1,0
312,96,203131,1,0
400,96,203289,1,0
464,160,203447,1,0
464,160,203605,1,0
464,160,203763,1,0
464,160,203921,1,0
256,192,204394,12,0,206368
128,192,206605,6,0,B|80:192,1,35
256,112,206842,2,0,B|256:72,1,35
384,192,207078,2,0,B|432:192,1,35
256,272,207315,2,0,B|256:312,1,35
256,216,207552,2,0,B|256:176,6,35
96,192,208263,1,0
96,192,208579,1,0
208,48,208894,1,0
248,72,208973,1,0
288,96,209052,1,0
72,192,209289,5,0
176,344,209605,1,0
176,256,209763,1,0
176,168,209921,1,0
176,80,210079,1,0
88,80,210236,1,0
96,264,210552,1,0
96,184,210868,1,0
96,232,210947,1,0
96,280,211026,1,0
176,328,211184,5,0
176,328,211342,1,0
264,328,211500,1,0
264,328,211579,1,0
264,328,211658,1,0
264,328,211736,1,0
264,328,211815,1,0
448,328,212131,5,0
328,192,212447,1,0
448,56,212763,1,0
448,56,213079,1,0
448,56,213394,2,0,B|376:40|304:56,1,140
136,112,214026,1,0
32,264,214342,1,0
72,288,214421,1,0
112,312,214500,1,0
152,288,214579,5,0
192,264,214658,1,0
360,328,214973,1,0
360,328,215289,1,0
360,328,215605,2,0,B|416:280|344:192,1,140
353,203,216000,1,0
353,203,216079,1,0
353,203,216158,1,0
256,48,216315,1,0
256,48,216473,6,0,B|192:88|256:176,1,140
252,169,216868,1,0
252,169,216947,1,0
252,169,217026,1,0
252,169,217105,1,0
252,169,217184,1,0
376,304,217500,1,0
376,304,217815,1,0
376,304,218131,1,0
192,304,218447,5,0
48,192,218763,1,0
192,304,219079,1,0
192,304,219394,1,0
192,304,219710,2,0,B|272:344|328:304,1,140
326,306,220105,1,0
326,306,220184,1,0
448,168,220342,1,0
296,72,220657,5,0
248,72,220736,1,0
200,72,220815,1,0
200,72,220973,1,0
200,72,221289,1,0
64,192,221605,1,0
112,192,221684,1,0
160,192,221763,1,0
160,192,221921,1,0
312,288,222236,1,0
312,288,222552,6,0,B|384:272|432:200,1,140
425,210,222947,1,0
425,210,223026,1,0
424,120,223184,5,0
424,120,223500,1,0
248,80,223815,1,0
200,96,224131,2,0,B|128:112|80:184,1,140
88,173,224526,1,0
88,173,224605,1,0
88,264,224763,1,0
88,264,225079,1,0
88,264,225394,1,0
88,264,225710,1,0
256,336,226026,5,0
256,336,226184,1,0
432,192,226500,1,0
384,192,226579,1,0
336,192,226658,1,0
288,192,226736,1,0
240,192,226815,1,0
192,192,226894,1,0
144,192,226973,1,0
256,336,227289,5,0
256,336,227605,1,0
256,64,227921,6,0,B|256:112,2,35
256,64,228236,1,0
384,192,228552,1,0
384,192,228710,1,0
456,248,228868,2,0,B|488:264|456:320,1,70
461,309,229184,1,0
461,309,229342,1,0
376,336,229500,6,0,B|336:352|304:336,1,70
216,312,229815,1,0
152,248,229973,1,0
112,168,230131,1,0
128,80,230289,1,0
128,80,230368,1,0
128,80,230447,1,0
216,48,230605,2,0,B|256:48,4,35
344,64,231078,5,0
344,64,231236,1,0
344,64,231394,1,0
344,64,231552,1,0
344,64,231710,1,0
232,208,232026,5,0
232,208,232184,1,0
232,208,232342,1,0
232,208,232500,1,0
232,208,232657,1,0
416,208,232973,2,0,B|376:208,5,35
288,56,233605,6,0,B|360:56,1,70
360,144,233921,2,0,B|272:144,1,70
288,232,234236,2,0,B|384:232,1,70
360,320,234552,2,0,B|272:320,1,70
200,320,234868,2,0,B|128:320,1,70
128,232,235184,2,0,B|224:232,1,70
200,144,235500,2,0,B|120:144,1,70
128,56,235815,2,0,B|224:56,1,70
256,192,236131,12,0,237947
256,192,238263,5,0
72,192,238578,1,0
200,64,238894,1,0
200,64,238973,1,0
200,64,239052,1,0
200,64,239131,1,0
200,64,239210,1,0
384,64,239526,1,0
264,200,239842,1,0
264,200,240000,1,0
264,200,240157,1,0
432,272,240473,5,0
136,320,240868,1,0
136,320,241026,1,0
136,320,241184,1,0
72,256,241342,2,0,B|56:168|128:112,1,140
110,127,241736,1,0
110,127,241815,1,0
200,80,241973,5,0
200,80,242131,1,0
200,80,242289,1,0
200,80,242447,1,0
200,80,242605,1,0
288,72,242763,1,0
328,96,242842,1,0
368,120,242921,1,0
464,280,243078,1,0
464,280,243394,1,0
288,336,243710,6,0,B|192:352|136:288,1,140
155,306,244105,1,0
155,306,244184,1,0
96,240,244342,1,0
96,240,244500,1,0
96,240,244657,1,0
96,240,244815,1,0
96,240,244973,1,0
112,152,245131,5,0
136,112,245210,1,0
168,80,245289,1,0
256,48,245605,1,0
256,48,245921,2,0,B|296:48,2,35
304,128,246236,5,0
360,200,246394,1,0
424,272,246552,1,0
424,272,246710,1,0
352,328,246868,1,0
304,256,247026,1,0
248,184,247184,1,4
248,184,247342,5,4
248,184,247500,5,4
248,184,247657,5,4
