osu file format v9

[General]
AudioFilename: 03 Dreamer.mp3
AudioLeadIn: 0
PreviewTime: 73171
Countdown: 0
SampleSet: Soft
StackLeniency: 0.7
Mode: 0
LetterboxInBreaks: 1

[Editor]
Bookmarks: 51460
DistanceSpacing: 1.2
BeatDivisor: 4
GridSize: 8

[Metadata]
Title:Kanzen Kankaku Dreamer
Artist:ONE OK ROCK
Creator:Mucha
Version:Merry Nightmare
Source:NicoNicoDouga
Tags:one ok rock yumekui merry

[Difficulty]
HPDrainRate:7
CircleSize:4
OverallDifficulty:7
ApproachRate:8
SliderMultiplier:1.4
SliderTickRate:0.5

[Events]
//Background and Video events
0,0,"Merry.png"
Video,320,"merry.wmv"
//Break Periods
2,7686,26947
2,93423,112842
2,174265,190684
//Storyboard Layer 0 (Background)
//Storyboard Layer 1 (Fail)
//Storyboard Layer 2 (Pass)
//Storyboard Layer 3 (Foreground)
//Storyboard Sound Samples
//Background Colour Transformations
3,100,163,162,255

[TimingPoints]
-92,315.789473684211,4,2,0,100,1,0
2355,-100,4,1,0,100,0,0
52881,-133.333333333333,4,2,0,100,0,0
70644,-66.6666666666667,4,1,0,100,0,0
73171,-66.6666666666667,4,1,0,100,0,1
93223,-66.6666666666667,4,2,0,100,0,0
113513,-133.333333333333,4,2,0,100,0,0
115408,-100,4,1,0,100,0,0
116039,-133.333333333333,4,2,0,100,0,0
117934,-100,4,1,0,100,0,0
118565,-133.333333333333,4,2,0,100,0,0
120460,-100,4,1,0,100,0,0
123618,-100,4,1,0,100,0,0
133723,-133.333333333333,4,2,0,100,0,0
147381,-133.333333333333,4,2,0,100,0,0
151092,-66.6666666666667,4,1,0,100,0,0
153934,-66.6666666666667,4,1,0,100,0,1
174144,-66.6666666666667,4,2,0,100,0,0
191355,-66.6666666666667,4,1,0,100,0,0
196723,-200,4,2,0,100,0,0
200513,-100,4,1,0,100,0,0
201776,-200,4,2,0,100,0,0
204144,-100,4,1,0,100,0,0
205960,-66.6666666666667,4,1,0,100,0,0
208250,-66.6666666666667,4,1,0,100,0,1
247723,-66.6666666666667,4,2,0,100,0,0

[Colours]
Combo1 : 255,255,128
Combo2 : 128,255,255
Combo3 : 255,128,255
Combo4 : 128,255,128

[HitObjects]
96,160,2434,1,0
96,160,2592,2,2,B|164:124,1,70
236,92,2908,2,2,B|304:128,1,70
376,152,3223,2,2,B|344:216,1,70
312,292,3539,5,8
232,320,3697,1,0
312,292,3855,1,0
232,320,4013,1,8
156,288,4171,1,0
80,252,4329,1,0
56,224,4408,1,0
48,192,4486,1,8
56,160,4565,1,0
72,128,4644,1,4
152,88,4802,5,0
152,88,4960,1,8
236,64,5118,1,0
236,64,5197,1,0
236,64,5276,1,0
316,92,5434,1,8
348,168,5592,1,0
348,168,5671,1,0
348,168,5750,1,8
316,248,5908,1,0
240,280,6065,1,0
240,280,6144,1,0
240,280,6223,1,8
160,248,6381,5,8
128,168,6539,1,8
128,168,6618,1,8
160,96,6776,1,0
184,72,6855,1,0
216,56,6934,1,0
248,48,7013,1,0
280,48,7092,1,0
312,56,7171,1,0
344,72,7250,1,0
368,96,7329,1,0
384,128,7408,1,0
392,160,7486,1,4
256,192,27697,12,4,29908
256,192,30223,12,4,32118
456,64,32750,5,0
384,24,32908,1,0
312,64,33065,2,0,B|240:128,1,70
200,168,33381,1,0
200,168,33460,1,0
200,168,33539,1,0
112,168,33697,2,0,B|40:168,2,70
112,256,34171,1,0
112,344,34329,1,0
376,216,34644,6,2,B|392:176|368:128,1,70
136,144,34960,2,2,B|120:184|144:232,1,70
256,336,35276,5,0
320,280,35434,1,0
384,336,35592,1,0
384,336,35671,1,0
384,336,35750,1,0
256,48,36223,1,0
192,104,36381,1,0
128,48,36539,1,0
128,48,36618,1,0
128,48,36697,1,0
224,304,37171,6,2,B|264:320|304:304|304:296,1,70
288,80,37486,2,2,B|248:64|200:88,1,70
160,168,37802,5,0
96,224,37960,1,0
152,288,38118,2,0,B|208:328,1,70
208,328,38355,1,0
208,328,38434,1,0
368,232,38750,1,0
424,176,38908,1,0
368,112,39065,2,0,B|304:64,1,70
312,72,39302,1,0
312,72,39381,1,0
160,80,39697,6,2,B|112:72|104:136,1,70
320,296,40013,2,2,B|360:296|376:248,1,70
344,54,40329,6,0,B|272:32|200:56,1,140
160,112,40802,2,0,B|112:168|160:272,1,140
152,240,41197,1,0
152,240,41276,1,0
448,272,41592,2,0,B|480:192|440:120,1,140
447,135,41986,1,0
447,135,42065,1,0
447,135,42144,1,0
447,135,42223,1,0
74,304,42855,5,0
128,240,43013,1,0
184,304,43171,2,0,B|264:304,1,70
312,240,43486,1,0
312,152,43644,2,0,B|368:104,1,70
416,48,43960,1,0
336,48,44118,2,0,B|192:48,1,140
128,232,44750,6,2,B|136:280|192:288,1,70
384,152,45065,2,2,B|376:104|320:96,1,70,0|0
192,32,45381,5,0
192,120,45539,1,0
104,120,45697,2,0,B|104:216,1,70
104,192,45934,1,0
104,192,46013,1,0
168,248,46171,1,0
232,192,46329,1,0
296,248,46486,1,0
360,192,46644,2,0,B|432:192,2,70
112,152,47276,6,2,B|80:192|128:240,1,70
408,216,47592,2,2,B|424:184|408:144,1,70
296,40,47908,5,0
232,96,48065,1,0
168,40,48223,2,0,B|112:80,1,70
48,136,48539,1,0
48,136,48618,1,0
48,136,48697,1,0
104,200,48855,2,0,B|104:272,2,70
192,200,49329,1,0
272,200,49486,1,0
400,136,49802,6,2,B|392:96|352:88|352:88,1,70
112,248,50118,2,2,B|120:288|160:296|160:296,1,70
344,296,50434,5,0
400,232,50592,1,0
344,168,50750,2,0,B|288:128,1,70
216,80,51065,1,0
216,80,51144,1,0
216,80,51223,1,0
152,136,51381,2,0,B|96:80,2,70
152,224,51855,5,0
152,312,52013,1,0
152,312,52092,1,0
152,312,52171,1,0
240,312,52329,1,0
272,312,52408,1,0
304,312,52486,1,0
336,312,52565,1,0
368,312,52644,1,0
440,72,52960,6,0,B|376:40|376:40,1,52.4999984353781,0|2
360,32,53276,2,2,B|248:32,1,104.999996870756
256,144,53908,1,2
256,256,54223,2,2,B|256:328,1,52.4999984353781
216,304,54539,2,2,B|120:264,1,104.999996870756
120,152,55171,6,0,B|48:152|56:152,2,52.4999984353781,2|0|2
120,152,55644,2,2,B|120:80,2,52.4999984353781
120,152,56118,2,2,B|192:152,2,52.4999984353781
120,208,56592,1,4
432,304,57697,6,2,B|464:200,1,104.999996870756
464,168,58171,2,2,B|464:112,2,52.4999984353781
432,192,58644,2,2,B|328:192,1,104.999996870756
288,192,59118,2,2,B|200:192,2,78.7499976530672
216,288,59908,1,2
144,192,60223,1,2
256,192,60539,12,4,62750
72,312,63065,6,2,B|136:344|136:344,1,52.4999984353781
152,352,63381,2,2,B|264:352,1,104.999996870756
256,240,64013,1,2
256,128,64328,2,2,B|256:56,1,52.4999984353781
288,56,64644,2,2,B|384:96,1,104.999996870756
392,232,65276,6,2,B|464:232|456:232,2,52.4999984353781
392,232,65749,2,2,B|392:304,2,52.4999984353781
392,232,66223,2,2,B|320:232,2,52.4999984353781
256,192,66697,12,6,67644
48,80,67960,6,2,B|104:80,1,52.4999984353781,0|0
144,80,68276,1,2
192,80,68434,1,2
192,128,68592,2,2,B|192:240,1,104.999996870756
232,256,69065,1,2
272,224,69223,1,2
304,192,69381,6,2,B|392:112,1,104.999996870756
432,120,69855,1,2
432,168,70013,1,2
432,216,70171,2,2,B|488:216,2,52.4999984353781
432,296,70644,2,0,B|432:368,16,52.4999984353781
256,192,72539,1,2
256,192,72697,1,2
104,96,73171,5,8
168,24,73329,1,0
168,24,73408,1,0
168,24,73486,1,4
232,96,73644,1,8
328,96,73802,2,2,B|384:48,2,52.4999984353781
392,160,74118,1,8
392,256,74276,1,0
296,256,74434,1,8
296,256,74513,1,0
296,256,74592,1,4
240,176,74750,1,8
160,232,74908,6,0,B|80:144,2,104.999996870756
88,288,75381,1,8
168,344,75539,1,0
248,288,75697,2,10,B|248:160,2,104.999996870756
328,344,76171,1,0
400,288,76329,1,8
408,192,76486,2,8,B|464:152,2,52.4999984353781
304,192,76802,1,8
304,96,76960,2,2,B|200:96,1,104.999996870756
104,88,77276,5,8
40,160,77434,1,0
96,232,77592,2,2,B|200:232,1,104.999996870756
272,168,77908,1,8
344,232,78065,1,8
344,232,78144,1,8
344,232,78223,2,8,B|416:128,1,104.999996870756,0|0
448,72,78539,5,8
368,24,78697,1,0
288,72,78855,1,8
368,128,79013,2,0,B|368:240,1,104.999996870756
368,328,79329,1,8
272,328,79486,1,0
240,328,79565,1,0
208,328,79644,1,0
176,328,79723,1,0
144,328,79802,1,4
80,176,80592,6,0,B|24:176,2,52.4999984353781
152,112,80908,1,8
80,48,81065,1,0
152,112,81223,1,8
152,208,81381,1,0
216,280,81539,2,2,B|320:280,1,104.999996870756
416,280,81855,5,8
360,352,82013,1,0
360,352,82092,1,0
360,352,82171,1,4
416,280,82329,1,8
360,200,82486,1,8
360,104,82644,1,8
360,104,82723,1,0
360,104,82802,1,4
264,104,82960,2,2,B|264:24,2,52.4999984353781
152,48,83276,5,8
80,112,83434,1,0
144,184,83592,2,0,B|144:240,2,52.4999984353781,8|0|8
240,184,83908,1,0
240,184,83986,1,0
240,184,84065,1,4
280,96,84223,1,8
376,96,84381,1,0
376,192,84539,1,8
376,224,84618,1,0
376,256,84697,1,0
376,288,84776,1,0
376,320,84855,1,4
240,192,85171,6,0,B|160:272,1,104.999996870756
104,344,85486,1,8
40,272,85644,1,0
104,200,85802,1,8
104,200,85881,1,0
104,200,85960,1,4
104,104,86118,1,8
200,104,86276,2,0,B|200:40,2,52.4999984353781,2|0|2
272,168,86592,1,12
368,168,86750,1,4
72,88,87381,5,8
152,32,87539,1,0
152,32,87618,1,0
152,32,87697,1,4
232,88,87855,2,2,B|232:200,1,104.999996870756
232,288,88171,1,8
328,288,88329,2,0,B|328:224,2,52.4999984353781
424,288,88644,5,8
360,352,88802,1,0
360,352,88881,1,0
360,352,88960,1,4
280,296,89118,2,2,B|280:184,1,104.999996870756
280,96,89434,1,8
184,96,89592,1,0
184,128,89671,1,0
184,160,89750,1,0
184,192,89829,1,0
184,224,89908,1,4
40,160,90223,6,0,B|160:160,1,104.999996870756
240,160,90539,1,8
336,160,90697,1,0
400,96,90855,1,8
400,96,90934,1,0
400,96,91013,1,0
464,160,91171,1,8
400,232,91329,1,0
336,304,91486,6,10,B|240:232,1,104.999996870756
176,184,91802,1,8
176,272,91960,1,0
176,272,92039,1,0
176,272,92118,1,0
176,184,92276,1,8
272,184,92434,1,0
352,136,92592,1,8
272,80,92750,2,2,B|336:80,2,52.4999984353781
240,80,92986,1,2
208,80,93065,1,2
176,80,93144,1,2
144,80,93223,1,6
136,72,113592,6,2,B|64:128|88:232,1,157.499995306134
376,312,114539,2,2,B|448:256|424:152,1,157.499995306134
256,48,115486,6,2,B|256:136,1,70
256,336,115802,2,2,B|256:240,1,70
312,144,116118,6,2,B|440:48,1,157.499995306134
200,240,117065,2,2,B|72:336,1,157.499995306134
440,192,118013,6,2,B|368:192,1,70
72,192,118329,2,2,B|144:192,1,70
360,56,118644,6,2,B|424:104|432:200,1,157.499995306134
152,328,119592,2,2,B|88:280|80:184,1,157.499995306134
168,112,120539,6,2,B|112:64,1,70
344,272,120855,2,2,B|400:320,1,70
256,120,121171,6,0,B|256:40,2,70
328,248,121644,2,0,B|376:312,2,70
192,248,122118,2,0,B|144:304,2,70
256,192,122592,1,0
256,192,122750,1,0
256,96,122908,1,8
256,128,122986,1,8
256,160,123065,1,8
256,192,123144,1,8
256,224,123223,1,12
72,88,123697,5,0
144,24,123855,1,0
216,88,124013,1,0
216,88,124092,1,0
216,88,124171,1,0
216,184,124329,2,0,B|272:240,1,70
336,304,124644,1,0
352,208,124802,1,0
352,208,124881,1,0
352,208,124960,1,0
336,304,125118,1,0
240,304,125276,1,0
120,304,125513,5,10
256,80,125750,1,8
384,304,125986,1,10
480,200,126223,5,0
392,136,126381,1,0
312,80,126539,2,0,B|312:8,2,70
312,176,127013,1,0
312,272,127171,1,0
312,272,127250,1,0
312,272,127329,1,0
232,328,127486,1,0
152,272,127644,1,0
232,216,127802,1,4
384,64,128118,6,2,B|384:144,1,70
144,320,128434,2,2,B|144:240,1,70
168,48,128750,5,0
240,112,128908,1,0
168,176,129065,1,0
168,176,129144,1,0
168,176,129223,1,0
240,240,129381,1,0
168,312,129539,2,0,B|120:368,2,70
264,312,130013,1,0
360,312,130171,1,0
136,320,130644,6,2,B|136:240,1,70
376,64,130960,2,2,B|376:144,1,70
184,168,131276,6,0,B|96:120|112:24,2,140
280,168,132065,1,0
376,168,132223,1,0
184,192,132539,1,0
256,112,132697,1,0
328,192,132855,1,0
256,264,133013,2,0,B|256:328,3,52.4999984353781
96,256,133802,6,2,B|152:344|232:320,2,157.499995306134
96,120,135065,2,2,B|168:40|248:80,2,157.499995306134
160,200,136329,2,2,B|232:288,1,104.999996870756
248,184,136802,2,2,B|336:128,1,104.999996870756
379,201,137276,2,2,B|503:199,2,104.999996870756
120,64,138539,2,2,B|160:96,1,52.4999984353781
200,112,138855,2,2,B|240:120|240:120|272:112,1,52.4999984353781
296,120,139171,2,2,B|376:120|424:24,2,157.499995306134
296,160,140276,1,2
296,208,140434,1,2
296,256,140592,1,2
296,304,140750,2,2,B|216:344|120:304,1,157.499995306134
120,272,141381,2,2,B|120:144,2,104.999996870756
256,192,142171,12,2,143592
416,128,143908,6,2,B|360:40|280:64,2,157.499995306134
416,264,145171,2,2,B|344:344|264:304,2,157.499995306134
352,184,146434,2,2,B|280:96,1,104.999996870756
264,200,146908,2,2,B|176:256,1,104.999996870756
152,183,147381,2,2,B|44:185,2,104.999996870756
368,96,148644,6,2,B|445:24,2,104.999996870756
400,184,149434,2,2,B|408:320|272:304,1,209.999993741512
184,272,150223,2,2,B|88:368,2,105
256,192,151171,12,0,153381
408,288,154013,5,8
344,360,154171,1,0
344,360,154250,1,0
344,360,154328,1,4
280,288,154486,1,8
184,288,154644,2,2,B|128:336,2,52.4999984353781
120,224,154960,1,8
120,128,155118,1,0
216,128,155276,1,8
216,128,155355,1,0
216,128,155434,1,4
272,208,155592,1,8
352,152,155750,6,0,B|432:240,2,104.999996870756
424,96,156223,1,8
344,40,156381,1,0
264,96,156539,2,10,B|264:224,2,104.999996870756
184,40,157013,1,0
112,96,157171,1,8
104,192,157328,2,8,B|48:232,2,52.4999984353781
208,192,157644,1,8
208,288,157802,2,2,B|312:288,1,104.999996870756
408,296,158118,5,8
472,224,158276,1,0
416,152,158434,2,2,B|312:152,1,104.999996870756
240,216,158750,1,8
168,152,158907,1,8
168,152,158986,1,8
168,152,159065,2,8,B|96:256,1,104.999996870756,0|0
64,312,159381,5,8
144,360,159539,1,0
224,312,159697,1,8
144,256,159855,2,0,B|144:144,1,104.999996870756
144,56,160171,1,8
240,56,160328,1,0
272,56,160407,1,0
304,56,160486,1,0
336,56,160565,1,0
368,56,160644,1,4
432,208,161434,6,0,B|488:208,2,52.4999984353781
360,272,161750,1,8
432,336,161907,1,0
360,272,162065,1,8
360,176,162223,1,0
296,104,162381,2,2,B|192:104,1,104.999996870756
96,104,162697,5,8
152,32,162855,1,0
152,32,162934,1,0
152,32,163013,1,4
96,104,163171,1,8
152,184,163328,1,8
152,280,163486,1,8
152,280,163565,1,0
152,280,163644,1,4
248,280,163802,2,2,B|248:360,2,52.4999984353781
360,336,164118,5,8
432,272,164276,1,0
360,200,164434,2,2,B|360:144,2,52.4999984353781,2|0|2
272,200,164750,1,0
272,200,164828,1,0
272,200,164907,1,4
232,288,165065,1,8
136,288,165223,1,0
136,192,165381,1,8
136,160,165460,1,0
136,128,165539,1,0
136,96,165618,1,0
136,64,165697,1,4
272,192,166013,6,2,B|352:112,1,104.999996870756
408,40,166328,1,8
472,112,166486,1,0
408,184,166644,1,8
408,184,166723,1,0
408,184,166802,1,4
408,280,166960,1,8
312,280,167118,2,0,B|312:344,2,52.4999984353781,2|0|2
240,216,167434,1,12
144,216,167592,1,4
440,296,168223,5,8
360,352,168381,1,0
360,352,168460,1,0
360,352,168539,1,4
280,296,168697,2,2,B|280:184,1,104.999996870756
280,96,169013,1,8
184,96,169171,2,0,B|184:160,2,52.4999984353781
88,96,169486,5,8
152,32,169644,1,0
152,32,169723,1,0
152,32,169802,1,4
232,88,169960,2,2,B|232:200,1,104.999996870756
232,288,170276,1,8
328,288,170434,1,0
328,256,170513,1,0
328,224,170592,1,0
328,192,170671,1,0
328,160,170750,1,4
440,80,171223,5,8
376,152,171381,1,0
320,80,171539,1,8
264,152,171697,1,10
264,152,171776,1,10
264,152,171855,2,10,B|264:256,1,104.999996870756
168,256,172171,1,10
168,256,172250,1,10
168,256,172329,2,10,B|168:136,1,104.999996870756
72,152,172644,1,10
72,152,172723,1,10
72,152,172802,2,10,B|72:256,1,104.999996870756
72,352,173118,5,8
72,352,173197,1,8
72,352,173276,1,8
232,256,173592,1,8
264,256,173671,1,8
296,256,173750,1,8
328,256,173829,1,8
360,256,173908,1,8
392,256,173986,1,8
424,256,174065,1,12
256,192,191434,12,0,192539
256,192,192697,12,0,193802
256,192,193960,12,4,196329
152,56,196802,6,2,B|64:104|64:208,1,175
360,328,198065,2,2,B|448:280|448:176,1,175
256,48,199329,2,2,B|256:160,2,105
256,48,200434,5,10
120,200,200592,2,2,B|88:264,1,70
256,248,200908,2,2,B|256:320,1,70
384,200,201223,2,2,B|424:264,1,70
112,192,201855,6,2,B|40:192,2,70
112,192,202565,1,2
112,192,202644,1,2
400,192,203118,2,2,B|472:192,2,70
400,192,203829,1,2
400,192,203907,1,2
256,272,204223,6,2,B|256:368,2,70
312,224,204697,1,0
312,152,204855,1,0
256,104,205013,1,0
200,152,205171,1,0
200,224,205329,1,0
256,264,205486,1,0
256,192,205644,1,0
256,120,205802,1,0
256,120,205881,1,0
256,120,205960,6,0,B|256:240,2,104.999996870756
80,80,206434,2,2,B|80:176,1,52.4999984353781
176,176,206671,2,2,B|176:232,1,52.4999984353781
256,272,206908,1,0
256,272,206986,2,2,B|256:352,2,52.4999984353781
344,176,207302,2,2,B|344:232,1,52.4999984353781
440,80,207539,2,2,B|440:160,1,52.4999984353781
72,48,208329,6,0,B|160:128,1,104.999996870756
216,176,208644,1,8
280,120,208802,1,0
344,176,208960,1,8
344,176,209039,1,0
344,176,209118,1,0
344,264,209276,1,0
280,320,209434,1,8
280,232,209592,1,0
280,232,209671,1,0
280,232,209750,2,0,B|280:128,1,104.999996870756
280,128,209986,1,0
280,128,210065,1,0
456,280,210223,6,0,B|352:280,1,104.999996870756
264,280,210539,1,8
192,320,210697,1,0
120,280,210855,1,0
192,240,211013,2,8,B|192:136,1,104.999996870756
192,135,211250,1,0
192,135,211329,1,0
192,48,211486,1,8
264,96,211644,1,0
264,184,211802,1,8
320,248,211960,2,0,B|440:248,1,104.999996870756
472,312,212276,5,8
376,312,212434,2,0,B|376:184,1,104.999996870756
376,120,212750,1,0
448,168,212908,1,8
376,120,213065,1,0
376,120,213144,1,0
376,120,213223,1,0
304,168,213381,2,0,B|224:240,1,104.999996870756
160,288,213697,5,8
160,288,213776,1,0
160,288,213855,1,0
240,312,214013,1,0
160,288,214171,1,8
176,208,214329,1,0
208,208,214408,1,0
240,208,214486,1,0
272,208,214565,1,0
304,208,214644,1,4
88,280,215750,6,0,B|184:216,1,104.999996870756
256,224,216065,1,8
344,224,216223,1,0
392,152,216381,1,8
344,80,216539,2,2,B|408:32,2,52.4999984353781
272,40,216855,1,8
264,120,217013,1,0
176,120,217171,1,12
440,120,217486,6,8,B|440:232,1,104.999996870756
352,224,217802,1,8
352,224,217881,1,8
352,224,217960,1,8
264,224,218118,1,8
264,224,218197,1,8
264,224,218276,1,8
136,88,218434,6,0,B|136:32,2,52.4999984353781
80,152,218750,1,8
80,152,218829,1,0
80,152,218908,1,0
136,208,219065,1,8
136,296,219223,1,0
224,296,219381,2,2,B|288:208,1,104.999996870756
368,208,219697,5,0
368,120,219855,1,8
280,120,220013,1,0
280,120,220092,1,0
280,120,220171,1,0
200,120,220329,1,8
200,40,220486,1,0
200,120,220644,1,8
112,120,220802,2,2,B|112:224,1,104.999996870756
64,176,221118,6,2,B|184:176,1,104.999996870756
256,176,221434,1,0
320,232,221592,1,0
384,176,221750,1,0
320,120,221908,1,0
320,120,221986,1,0
320,120,222065,1,4
88,304,222539,6,0,B|192:304,1,104.999996870756
248,240,222855,1,8
248,152,223013,1,0
248,64,223171,1,8
248,64,223250,1,0
248,64,223329,1,0
176,112,223486,1,8
248,152,223644,1,0
328,184,223802,1,8
248,240,223960,5,0
248,240,224039,1,0
248,240,224118,2,0,B|248:352,2,104.999996870756
248,152,224592,1,0
248,64,224750,1,4
448,176,225697,6,0,B|448:280,2,104.999996870756
400,104,226171,1,8
344,176,226329,1,0
296,104,226486,2,8,B|192:104,1,104.999996870756
136,168,226802,1,0
80,104,226960,1,8
24,168,227118,6,8,B|24:272,1,104.999996870756
24,273,227355,1,8
24,273,227434,1,8
112,272,227592,1,8
112,272,227671,1,8
112,272,227750,1,8
200,272,227908,1,8
232,272,227986,1,8
264,272,228065,1,8
296,272,228144,1,8
328,272,228223,1,8
360,272,228302,1,8
392,272,228381,1,12
472,168,228539,6,0,B|440:64|312:40,1,209.999993741512
56,216,229171,2,0,B|88:320|216:344,1,209.999993741512
256,64,229802,2,0,B|256:272,2,209.999993741512
144,48,230750,2,0,B|32:104|48:232,1,209.999993741512
368,336,231381,2,0,B|480:280|464:152,1,209.999993741512
256,320,232013,2,0,B|256:112,2,209.999993741512
104,184,232960,2,0,B|208:184,1,104.999996870756
408,184,233276,2,0,B|304:184,1,104.999996870756
256,48,233592,5,0
416,144,233908,1,0
352,320,234223,1,0
168,320,234539,1,0
96,144,234855,1,4
256,192,235171,12,4,237697
80,136,238644,6,2,B|80:240,2,104.999996870756
256,192,239276,1,0
432,136,239592,2,2,B|432:248,2,104.999996870756
256,192,240223,1,0
304,64,240539,2,2,B|256:48|200:64,1,104.999996870756
208,320,240855,2,2,B|256:336|312:320,1,104.999996870756
432,248,241171,6,2,B|432:144,2,104.999996870756
256,192,241803,1,0
80,248,242119,2,2,B|80:136,2,104.999996870756
256,192,242750,1,0
416,240,243066,2,2,B|432:192|416:136,1,104.999996870756
96,144,243382,2,2,B|80:192|96:248,1,104.999996870756
256,344,243697,6,2,B|256:24,1,314.999990612269
408,192,244644,2,2,B|80:192,1,314.999990612269
256,64,245592,1,0
256,320,245908,1,0
192,192,246223,5,0
320,192,246381,1,0
192,192,246539,1,0
320,192,246697,1,4
160,96,247171,1,0
352,96,247329,1,0
160,96,247486,1,0
352,96,247644,1,4
