osu file format v13

[General]
AudioFilename: 02. Ending Story.mp3
AudioLeadIn: 0
PreviewTime: -1
Countdown: 0
SampleSet: Normal
StackLeniency: 0.7
Mode: 0
LetterboxInBreaks: 0
WidescreenStoryboard: 0

[Editor]
Bookmarks: 50236,160807,181722,235715,246173
DistanceSpacing: 1
BeatDivisor: 6
GridSize: 4
TimelineZoom: 2.4

[Metadata]
Title:Ending Story??
TitleUnicode:Ending Story??
Artist:ONE OK ROCK
ArtistUnicode:ONE OK ROCK
Creator:Satonaka
Version:STNK
Source:
Tags:
BeatmapID:457929
BeatmapSetID:192581

[Difficulty]
HPDrainRate:7
CircleSize:4
OverallDifficulty:8
ApproachRate:9
SliderMultiplier:1.8
SliderTickRate:1

[Events]
//Background and Video events
0,0,"Konachan.com - 184611 clouds dark mks nobody original ruins scenic silhouette sky sunset.jpg",0,0
//Break Periods
2,83865,94036
2,188484,192773
//Storyboard Layer 0 (Background)
//Storyboard Layer 1 (Fail)
//Storyboard Layer 2 (Pass)
//Storyboard Layer 3 (Foreground)
//Storyboard Sound Samples
//Background Colour Transformations
3,100,163,162,255

[TimingPoints]
6865,342.857142857143,4,1,0,50,1,0
6965,-100,4,1,0,50,0,0
28379,-100,4,1,0,60,0,0
39865,-133.333333333333,4,1,0,50,0,0
50150,-100,4,1,0,60,0,0
61807,-100,4,1,0,60,0,1
72950,-100,4,1,0,60,0,0
94550,-133.333333333333,4,1,0,50,0,0
101579,-133.333333333333,4,1,0,5,0,0
101665,-133.333333333333,4,1,0,50,0,0
101922,-133.333333333333,4,1,0,5,0,0
102007,-133.333333333333,4,1,0,50,0,0
102265,-133.333333333333,4,1,0,5,0,0
102350,-133.333333333333,4,1,0,50,0,0
102607,-133.333333333333,4,1,0,5,0,0
102693,-133.333333333333,4,1,0,50,0,0
105007,-100,4,1,0,60,0,0
116493,-100,4,1,0,60,0,1
127636,-100,4,1,0,60,0,0
138521,346.820809248555,4,1,0,50,1,0
138521,-133.333333333333,4,1,0,60,0,0
157942,342.857142857143,4,1,0,50,1,0
157942,-100,4,1,0,60,0,0
160684,342.857142857143,4,1,0,50,1,0
160684,-100,4,2,0,50,0,0
181941,-100,4,1,0,30,0,0
193373,342.857142857143,4,1,0,50,1,0
193373,-100,4,1,0,60,0,0
201687,-100,4,1,0,30,0,0
201858,-100,4,1,0,40,0,0
202030,-100,4,1,0,50,0,0
202201,-100,4,1,0,60,0,1
213258,-100,4,1,0,60,0,0
224315,-100,4,1,0,60,0,1
235073,-66.6666666666667,4,1,0,60,0,0
235180,-66.6666666666667,4,1,0,60,0,1
246173,-133.333333333333,4,1,0,60,0,0
251401,-200,4,1,0,60,0,0

[HitObjects]
169,121,6864,5,0,0:0:0:0:
169,121,7036,1,0,0:0:0:0:
141,275,7207,2,0,L|101:165,2,90,0|0|0,0:0|0:0|0:0,0:0:0:0:
229,329,7722,1,0,0:0:0:0:
310,266,7893,2,0,P|359:255|402:270,1,90,0|0,0:0|0:0,0:0:0:0:
460,346,8236,1,0,0:0:0:0:
460,346,8407,1,0,0:0:0:0:
486,169,8579,2,0,P|437:180|394:165,2,90,0|0|0,0:0|0:0|0:0,0:0:0:0:
322,101,9093,5,0,0:0:0:0:
431,256,9265,1,0,0:0:0:0:
427,84,9436,1,0,0:0:0:0:
274,187,9607,1,0,0:0:0:0:
383,341,9779,1,0,0:0:0:0:
379,170,9950,2,0,P|330:168|280:112,1,90
218,79,10293,5,0,0:0:0:0:
218,79,10465,1,0,0:0:0:0:
85,175,10636,2,0,L|212:150,1,90
296,102,10979,1,0,0:0:0:0:
216,282,11150,1,0,0:0:0:0:
302,213,11322,2,0,P|316:263|304:307,2,90,0|0|0,0:0|0:0|0:0,0:0:0:0:
219,150,11836,5,0,0:0:0:0:
400,182,12007,1,0,0:0:0:0:
203,241,12179,1,0,0:0:0:0:
400,182,12350,1,0,0:0:0:0:
203,241,12522,1,0,0:0:0:0:
119,299,12693,2,0,L|157:177,1,90
145,74,13036,5,0,0:0:0:0:
145,74,13207,1,0,0:0:0:0:
306,138,13379,2,0,P|319:186|296:250,1,90
227,164,13722,1,0,0:0:0:0:
312,327,13893,1,0,0:0:0:0:
295,122,14065,2,0,L|399:113,1,90
466,175,14407,5,0,0:0:0:0:
466,175,14579,1,0,0:0:0:0:
339,261,14750,2,0,P|381:276|425:268,1,90
466,175,15093,1,0,0:0:0:0:
466,175,15265,1,0,0:0:0:0:
350,44,15436,2,0,L|236:38,1,90
64,136,15779,5,0,0:0:0:0:
153,87,15950,1,0,0:0:0:0:
241,221,16122,1,0,0:0:0:0:
152,172,16293,1,0,0:0:0:0:
64,304,16465,1,0,0:0:0:0:
153,255,16636,1,0,0:0:0:0:
290,148,16807,6,0,P|295:245|303:255,1,90
354,314,17150,1,0,0:0:0:0:
208,170,17322,1,0,0:0:0:0:
269,335,17493,1,0,0:0:0:0:
208,170,17665,1,0,0:0:0:0:
208,170,17750,1,0,0:0:0:0:
208,170,17836,2,0,L|151:96,2,90,0|0|0,0:0|0:0|0:0,0:0:0:0:
207,272,18350,5,0,0:0:0:0:
114,316,18522,2,0,P|195:324|210:348,1,90
292,243,18865,2,0,L|395:229,1,90
442,149,19207,1,0,0:0:0:0:
442,149,19379,1,0,0:0:0:0:
345,28,19550,2,0,P|337:72|345:116,1,90
383,212,19893,1,0,0:0:0:0:
242,112,20065,1,0,0:0:0:0:
195,203,20236,6,0,L|85:173,1,90
71,142,20493,1,0,0:0:0:0:
71,142,20579,2,0,P|78:210|64:241,2,90,0|0|0,0:0|0:0|0:0,0:0:0:0:
143,68,21093,1,0,0:0:0:0:
245,183,21265,1,0,0:0:0:0:
178,321,21436,1,0,0:0:0:0:
277,345,21607,2,0,L|246:236,1,90
293,163,21950,5,0,0:0:0:0:
293,163,22122,1,0,0:0:0:0:
454,92,22293,2,0,P|411:81|368:93,1,90
411,268,22636,2,0,L|397:145,1,90
285,65,22979,2,0,L|271:188,1,90
252,200,23236,1,0,0:0:0:0:
252,200,23322,2,0,P|186:208|150:187,1,90
114,57,23665,2,0,L|99:149,1,90
38,228,24007,5,0,0:0:0:0:
198,121,24179,1,0,0:0:0:0:
38,228,24350,2,0,P|85:248|155:227,1,90
215,199,24693,1,0,0:0:0:0:
215,199,24865,1,0,0:0:0:0:
339,342,25036,2,0,L|291:267,1,90
306,165,25379,5,0,0:0:0:0:
203,321,25550,1,0,0:0:0:0:
381,218,25722,2,0,P|392:173|382:125,1,90
354,89,25979,1,0,0:0:0:0:
322,56,26065,2,0,L|204:64,1,90
67,136,26407,2,0,L|185:143,1,90
247,178,26750,2,0,P|257:243|239:289,1,90
161,316,27093,5,0,0:0:0:0:
354,261,27265,1,0,0:0:0:0:
153,233,27436,1,0,0:0:0:0:
153,233,27607,1,0,0:0:0:0:
187,136,27779,1,0,0:0:0:0:
66,288,27950,1,0,0:0:0:0:
255,234,28122,1,0,0:0:0:0:
285,93,28293,1,0,0:0:0:0:
164,245,28465,5,0,0:0:0:0:
157,235,28550,1,0,0:0:0:0:
151,226,28636,1,0,0:0:0:0:
145,217,28722,1,0,0:0:0:0:
138,207,28807,2,0,P|125:164|141:111,1,90
213,54,29150,1,0,0:0:0:0:
41,163,29322,1,8,0:0:0:0:
230,160,29493,6,0,L|340:195,1,90
455,263,29836,2,0,L|345:298,1,90,8|0,0:0|0:0,0:0:0:0:
262,279,30179,1,8,0:0:0:0:
250,105,30350,1,0,0:0:0:0:
364,46,30522,2,0,P|361:117|380:165,1,90,0|8,0:0|0:0,0:0:0:0:
199,217,30865,6,0,L|316:175,2,90,0|0|0,0:0|0:0|0:0,0:0:0:0:
176,229,31293,1,0,0:0:0:0:
158,242,31379,1,0,0:0:0:0:
145,261,31465,1,0,0:0:0:0:
139,282,31550,1,8,0:0:0:0:
224,337,31722,1,0,0:0:0:0:
120,175,31893,2,0,L|129:74,1,90,0|8,0:0|0:0,0:0:0:0:
214,29,32236,5,0,0:0:0:0:
214,29,32407,1,0,0:0:0:0:
396,91,32579,2,0,L|310:66,1,90,8|0,0:0|0:0,0:0:0:0:
211,217,32922,2,0,L|297:191,1,90,8|0,0:0|0:0,0:0:0:0:
357,108,33265,1,0,0:0:0:0:
345,282,33436,1,8,0:0:0:0:
280,146,33607,1,0,0:0:0:0:
270,44,33779,1,0,0:0:0:0:
258,218,33950,1,8,0:0:0:0:
193,82,34122,1,0,0:0:0:0:
258,218,34293,5,8,0:0:0:0:
228,250,34379,1,0,0:0:0:0:
187,269,34465,1,0,0:0:0:0:
142,269,34550,1,0,0:0:0:0:
102,251,34636,2,0,L|67:131,1,90,0|8,0:0|0:0,0:0:0:0:
205,45,34979,1,0,0:0:0:0:
205,45,35150,2,0,L|240:165,1,90,0|8,0:0|0:0,0:0:0:0:
318,184,35493,1,0,0:0:0:0:
240,251,35665,2,0,L|275:372,1,90,8|0,0:0|0:0,0:0:0:0:
351,281,36007,6,0,P|426:278|455:258,1,90,0|8,0:0|0:0,0:0:0:0:
421,103,36350,2,0,L|405:192,1,90
301,275,36693,1,8,0:0:0:0:
299,263,36779,1,0,0:0:0:0:
297,252,36865,1,0,0:0:0:0:
296,241,36950,1,0,0:0:0:0:
294,230,37036,2,0,B|289:177|237:120|237:120|258:64,1,180,8|0,0:0|0:0,0:0:0:0:
354,38,37550,5,8,0:0:0:0:
156,95,37722,2,0,P|146:145|179:202,1,90
238,247,38065,1,8,0:0:0:0:
395,148,38236,1,0,0:0:0:0:
283,143,38407,1,0,0:0:0:0:
283,143,38579,1,8,0:0:0:0:
350,251,38750,6,0,L|366:162,1,90,8|0,0:0|0:0,0:0:0:0:
365,129,39007,1,0,0:0:0:0:
350,100,39093,1,0,0:0:0:0:
323,80,39179,1,0,0:0:0:0:
290,75,39265,1,0,0:0:0:0:
267,75,39350,1,0,0:0:0:0:
247,83,39436,1,0,0:0:0:0:
229,98,39522,2,0,L|202:161,1,45
139,157,39693,2,0,L|166:219,1,45
236,299,40122,6,0,L|258:220,1,67.5000025749208
328,214,40465,2,0,P|245:188|238:124,1,135.000005149842
272,82,40979,2,0,L|213:16,1,67.5000025749208
154,58,41322,2,0,L|213:124,1,67.5000025749208
206,185,41665,2,0,P|270:136|325:156,1,135.000005149842
367,208,42179,1,0,0:0:0:0:
417,265,42350,2,0,L|462:182,1,67.5000025749208
367,208,42693,2,0,L|322:125,1,67.5000025749208
272,103,43036,5,0,0:0:0:0:
195,92,43207,1,0,0:0:0:0:
127,128,43379,2,0,L|122:218,1,67.5000025749208
71,252,43722,2,0,P|162:229|206:269,2,135.000005149842,0|0|0,0:0|0:0|0:0,0:0:0:0:
118,364,44579,2,0,L|135:294,1,67.5000025749208
208,278,44922,2,0,L|191:208,1,67.5000025749208
164,141,45265,2,0,P|219:168|290:141,2,135.000005149842,0|0|0,0:0|0:0|0:0,0:0:0:0:
224,93,46122,6,0,L|295:54,1,67.5000025749208
358,77,46465,1,0,0:0:0:0:
410,132,46636,1,0,0:0:0:0:
390,206,46807,2,0,L|316:247,1,67.5000025749208
301,310,47150,2,0,P|256:263|285:178,1,135.000005149842
336,166,47665,2,0,L|259:147,1,67.5000025749208
244,222,48007,2,0,L|167:241,2,67.5000025749208,0|0|0,0:0|0:0|0:0,0:0:0:0:
315,253,48522,2,0,P|254:168|295:86,1,202.500007724762,0|0,0:0|0:0,0:0:0:0:
365,65,49207,5,0,0:0:0:0:
412,211,49550,1,0,0:0:0:0:
285,299,49893,1,0,0:0:0:0:
270,145,50236,5,0,0:0:0:0:
270,145,50322,1,0,0:0:0:0:
270,145,50407,2,0,P|201:90|118:128,1,180,8|0,0:0|0:0,0:0:0:0:
81,215,50922,1,0,0:0:0:0:
163,275,51093,2,0,L|192:169,1,90,8|0,0:0|0:0,0:0:0:0:
278,55,51436,2,0,L|307:161,1,90
388,197,51779,2,0,P|266:180|240:230,1,180,8|0,0:0|0:0,0:0:0:0:
244,315,52293,5,0,0:0:0:0:
425,281,52465,2,0,L|336:270,1,90,8|0,0:0|0:0,0:0:0:0:
338,199,52722,1,0,0:0:0:0:
340,128,52807,2,0,L|250:139,1,90
187,58,53150,2,0,P|211:168|156:204,1,180,8|0,0:0|0:0,0:0:0:0:
76,153,53665,1,0,0:0:0:0:
76,153,53836,1,8,0:0:0:0:
229,166,54007,5,0,0:0:0:0:
229,166,54093,1,0,0:0:0:0:
229,166,54179,2,0,L|252:273,1,90
383,297,54522,2,0,L|406:190,1,90,8|0,0:0|0:0,0:0:0:0:
379,108,54865,1,0,0:0:0:0:
236,49,55036,1,0,0:0:0:0:
372,121,55207,1,8,0:0:0:0:
242,35,55379,1,0,0:0:0:0:
286,129,55550,2,0,P|279:202|293:235,2,90,0|0|8,0:0|0:0|0:0,0:0:0:0:
186,224,56065,5,0,0:0:0:0:
186,224,56150,1,0,0:0:0:0:
186,224,56236,2,0,L|97:185,1,90
188,130,56579,2,0,P|275:216|254:276,1,180,8|0,0:0|0:0,0:0:0:0:
326,342,57093,1,0,0:0:0:0:
351,242,57265,2,0,L|364:137,1,90,8|0,0:0|0:0,0:0:0:0:
238,298,57607,2,0,P|175:311|138:298,1,90
78,231,57950,2,0,L|192:185,1,90,8|0,0:0|0:0,0:0:0:0:
194,157,58207,1,0,0:0:0:0:
194,157,58293,2,0,P|258:143|309:171,1,90
303,249,58636,6,0,L|354:76,1,180,8|0,0:0|0:0,0:0:0:0:
252,94,59150,1,0,0:0:0:0:
421,180,59322,1,8,0:0:0:0:
229,194,59493,1,0,0:0:0:0:
148,109,59665,1,0,0:0:0:0:
317,195,59836,1,0,0:0:0:0:
125,209,60007,5,0,0:0:0:0:
130,230,60093,1,0,0:0:0:0:
135,252,60179,1,0,0:0:0:0:
140,274,60265,1,0,0:0:0:0:
145,296,60350,1,0,0:0:0:0:
180,324,60436,5,0,0:0:0:0:
224,329,60522,1,0,0:0:0:0:
264,310,60607,1,0,0:0:0:0:
287,272,60693,1,0,0:0:0:0:
286,261,60779,1,0,0:0:0:0:
284,249,60865,5,0,0:0:0:0:
283,238,60950,1,0,0:0:0:0:
282,227,61036,1,0,0:0:0:0:
307,191,61122,1,0,0:0:0:0:
348,173,61207,1,0,0:0:0:0:
392,180,61293,5,0,0:0:0:0:
425,210,61379,1,0,0:0:0:0:
417,254,61465,1,0,0:0:0:0:
348,301,61550,1,0,0:0:0:0:
343,278,61636,2,0,L|331:211,1,45
282,78,61893,5,0,0:0:0:0:
215,156,62065,2,0,P|156:166|114:148,1,90,0|8,0:0|0:0,0:0:0:0:
88,315,62407,2,0,L|58:231,1,90
47,128,62750,1,8,0:0:0:0:
158,253,62922,1,0,0:0:0:0:
91,101,63093,2,0,L|206:75,1,90,8|0,0:0|0:0,0:0:0:0:
245,243,63436,2,0,L|360:269,1,90,0|8,0:0|0:0,0:0:0:0:
397,342,63779,1,0,0:0:0:0:
317,161,63950,1,0,0:0:0:0:
412,124,64122,6,0,L|461:91,1,45
397,96,64293,2,0,L|408:45,1,45
364,83,64465,2,0,P|289:74|223:152,1,180
290,323,64979,2,0,L|285:203,1,90,8|0,0:0|0:0,0:0:0:0:
239,141,65322,1,0,0:0:0:0:
102,237,65493,2,0,P|146:245|188:230,1,90,8|0,0:0|0:0,0:0:0:0:
239,141,65836,1,8,0:0:0:0:
239,141,66007,1,0,0:0:0:0:
419,85,66179,2,0,L|340:128,1,90,0|8,0:0|0:0,0:0:0:0:
300,223,66522,5,0,0:0:0:0:
277,46,66693,1,0,0:0:0:0:
392,216,66865,1,8,0:0:0:0:
392,216,67207,2,0,L|298:173,1,90,8|0,0:0|0:0,0:0:0:0:
262,200,67465,1,0,0:0:0:0:
216,222,67550,2,0,P|154:208|108:234,1,90,0|8,0:0|0:0,0:0:0:0:
72,344,67893,6,0,L|171:279,1,90
203,114,68236,1,8,0:0:0:0:
203,114,68407,1,0,0:0:0:0:
72,248,68579,6,0,L|171:183,1,90,8|0,0:0|0:0,0:0:0:0:
203,114,68922,1,0,0:0:0:0:
203,114,69093,1,8,0:0:0:0:
72,152,69265,2,0,L|171:87,1,90
280,64,69607,5,0,0:0:0:0:
281,75,69693,1,0,0:0:0:0:
283,86,69779,1,0,0:0:0:0:
285,97,69865,1,0,0:0:0:0:
287,108,69950,2,0,P|206:209|145:188,1,180
140,100,70465,1,8,0:0:0:0:
111,293,70636,1,0,0:0:0:0:
218,104,70807,1,0,0:0:0:0:
260,203,70979,5,8,0:0:0:0:
67,174,71150,1,0,0:0:0:0:
256,281,71322,2,0,P|289:303|352:285,1,90,8|8,0:0|0:0,0:0:0:0:
433,246,71665,2,0,L|405:139,1,90,8|0,0:0|0:0,0:0:0:0:
392,108,71922,5,0,0:0:0:0:
358,108,72007,1,0,0:0:0:0:
324,108,72093,1,0,0:0:0:0:
290,108,72179,1,0,0:0:0:0:
257,108,72265,1,0,0:0:0:0:
244,160,72350,5,0,0:0:0:0:
210,160,72436,1,0,0:0:0:0:
176,160,72522,1,0,0:0:0:0:
142,160,72607,1,0,0:0:0:0:
109,160,72693,2,0,P|99:218|134:277,1,90
230,342,73036,6,0,L|196:228,1,90,8|0,0:0|0:0,0:0:0:0:
181,74,73379,1,0,0:0:0:0:
319,194,73550,1,0,0:0:0:0:
255,28,73722,2,0,L|224:138,1,90,8|0,0:0|0:0,0:0:0:0:
248,192,74065,2,0,P|194:138|100:171,1,180,0|8,0:0|0:0,0:0:0:0:
54,298,74579,2,0,L|178:258,1,90
341,214,74922,1,0,0:0:0:0:
170,162,75093,1,8,0:0:0:0:
170,162,75265,1,0,0:0:0:0:
316,100,75436,6,0,L|205:74,1,90
196,284,75779,2,0,P|241:310|305:285,2,90,8|0|0,0:0|0:0|0:0,0:0:0:0:
226,143,76293,1,0,0:0:0:0:
106,63,76465,2,0,L|78:173,1,90,8|0,0:0|0:0,0:0:0:0:
110,237,76807,1,0,0:0:0:0:
248,199,76979,1,0,0:0:0:0:
371,272,77150,2,0,L|331:163,1,90,8|0,0:0|0:0,0:0:0:0:
363,101,77493,2,0,P|300:160|208:128,1,180,0|8,0:0|0:0,0:0:0:0:
143,66,78007,5,0,0:0:0:0:
143,66,78179,2,0,L|140:176,1,90
251,317,78522,2,0,L|248:207,1,90,8|0,0:0|0:0,0:0:0:0:
354,64,78865,2,0,L|351:174,1,90
397,251,79207,5,8,0:0:0:0:
254,107,79379,1,0,0:0:0:0:
455,180,79550,1,0,0:0:0:0:
254,107,79722,1,0,0:0:0:0:
115,210,79893,2,0,P|159:217|201:201,1,90,8|0,0:0|0:0,0:0:0:0:
396,173,80236,2,0,L|288:163,1,90
161,42,80579,2,0,L|151:143,2,90,8|0|0,0:0|0:0|0:0,0:0:0:0:
287,148,81093,5,0,0:0:0:0:
287,148,81265,2,0,P|296:248|267:279,1,135,8|0,0:0|0:0,0:0:0:0:
241,280,81607,2,0,B|217:262|217:262|163:272|134:237,1,90
68,207,81950,2,0,B|79:167|79:167|134:159|163:101,1,135,8|0,0:0|0:0,0:0:0:0:
159,78,82293,2,0,P|226:60|269:83,1,90
271,304,82636,2,0,L|256:162,1,135,8|0,0:0|0:0,0:0:0:0:
269,133,82979,2,0,P|319:114|367:133,1,90
435,186,83322,5,0,0:0:0:0:
430,196,83407,1,0,0:0:0:0:
426,206,83493,1,0,0:0:0:0:
422,217,83579,1,0,0:0:0:0:
418,227,83665,1,0,0:0:0:0:
345,89,94636,6,0,P|359:163|340:206,2,101.250003862381,0|0|0,0:0|0:0|0:0,0:0:0:0:
264,77,95322,1,0,0:0:0:0:
232,89,95579,1,0,0:0:0:0:
201,100,95836,2,0,L|196:236,1,135.000005149842
341,307,96350,5,0,0:0:0:0:
341,307,96522,2,0,L|280:247,1,67.5000025749208
297,178,96865,1,0,0:0:0:0:
297,97,97036,2,0,L|206:111,1,67.5000025749208
172,163,97379,6,0,P|182:98|152:41,2,101.250003862381,0|0|0,0:0|0:0|0:0,0:0:0:0:
92,181,98065,1,0,0:0:0:0:
92,214,98322,1,0,0:0:0:0:
92,248,98579,2,0,P|152:277|233:249,1,135.000005149842
268,198,99093,6,0,L|350:230,1,67.5000025749208
319,135,99436,1,0,0:0:0:0:
319,135,99607,1,0,0:0:0:0:
400,128,99779,2,0,L|376:54,1,67.5000025749208,0|0,0:0|0:0,0:0:0:0:
299,49,100122,6,0,P|254:70|187:42,2,101.250003862381,0|0|0,0:0|0:0|0:0,0:0:0:0:
379,63,100807,1,0,0:0:0:0:
389,95,101065,1,0,0:0:0:0:
400,128,101322,6,0,P|400:201|375:232,1,101.250003862381
347,236,101665,2,0,L|243:189,1,101.250003862381
226,222,102007,2,0,P|284:267|293:299,1,101.250003862381
260,316,102350,2,0,L|272:187,1,101.250003862381
263,174,102693,1,0,0:0:0:0:
154,130,102865,6,0,L|249:93,2,101.250003862381,0|0|0,0:0|0:0|0:0,0:0:0:0:
129,206,103550,1,0,0:0:0:0:
132,239,103807,1,0,0:0:0:0:
135,273,104065,1,0,0:0:0:0:
348,226,105093,5,0,0:0:0:0:
351,203,105179,1,0,0:0:0:0:
354,181,105265,1,8,0:0:0:0:
185,83,105607,2,0,P|173:139|200:195,1,90
259,244,105950,1,8,0:0:0:0:
86,117,106122,1,0,0:0:0:0:
286,140,106293,2,0,L|382:110,2,90,0|0|8,0:0|0:0|0:0,0:0:0:0:
259,244,106807,5,0,0:0:0:0:
259,244,106979,2,0,P|182:241|148:273,1,90
87,108,107322,2,0,L|198:79,1,90,8|0,0:0|0:0,0:0:0:0:
225,69,107579,1,0,0:0:0:0:
276,53,107665,2,0,P|301:101|272:167,1,90
378,229,108007,2,0,B|343:198|343:198|276:232|212:205,1,180,8|0,0:0|0:0,0:0:0:0:
131,295,108522,5,0,0:0:0:0:
131,295,108693,2,0,L|104:209,1,90,8|0,0:0|0:0,0:0:0:0:
194,109,109036,1,0,0:0:0:0:
256,313,109207,1,0,0:0:0:0:
297,141,109379,1,8,0:0:0:0:
380,72,109550,1,0,0:0:0:0:
229,222,109722,1,0,0:0:0:0:
401,178,109893,1,0,0:0:0:0:
297,141,110065,6,0,P|222:119|201:124,1,90,8|0,0:0|0:0,0:0:0:0:
156,289,110407,2,0,L|189:202,2,90,0|0|8,0:0|0:0|0:0,0:0:0:0:
47,283,110922,1,0,0:0:0:0:
192,354,111093,1,0,0:0:0:0:
331,270,111265,1,0,0:0:0:0:
378,173,111436,2,0,L|351:84,1,90,8|0,0:0|0:0,0:0:0:0:
222,193,111779,2,0,P|218:240|251:281,1,90
128,174,112122,2,0,L|73:85,2,90,8|0|0,0:0|0:0|0:0,0:0:0:0:
104,279,112636,1,0,0:0:0:0:
206,99,112807,5,8,0:0:0:0:
375,174,112979,1,0,0:0:0:0:
328,51,113150,1,0,0:0:0:0:
253,221,113322,1,0,0:0:0:0:
251,131,113493,1,8,0:0:0:0:
302,265,113665,1,0,0:0:0:0:
343,172,113836,2,0,P|274:161|199:241,1,180,0|8,0:0|0:0,0:0:0:0:
178,338,114350,1,0,0:0:0:0:
85,168,114522,2,0,L|107:256,1,90
187,49,114865,5,0,0:0:0:0:
181,70,114950,1,0,0:0:0:0:
176,92,115036,1,0,0:0:0:0:
171,114,115122,1,0,0:0:0:0:
165,136,115207,1,0,0:0:0:0:
173,157,115293,5,0,0:0:0:0:
184,176,115379,1,0,0:0:0:0:
199,193,115465,1,0,0:0:0:0:
217,206,115550,1,0,0:0:0:0:
238,215,115636,1,0,0:0:0:0:
260,220,115722,5,0,0:0:0:0:
282,220,115807,1,0,0:0:0:0:
304,215,115893,1,0,0:0:0:0:
325,206,115979,1,0,0:0:0:0:
343,193,116065,1,0,0:0:0:0:
358,176,116150,5,0,0:0:0:0:
370,157,116236,2,0,L|368:91,1,45
449,145,116407,2,0,L|451:211,1,45
445,244,116579,2,0,P|384:260|336:226,1,90
300,37,116922,2,0,L|277:133,1,90,0|8,0:0|0:0,0:0:0:0:
187,329,117265,2,0,L|164:233,1,90
85,169,117607,5,8,0:0:0:0:
273,233,117779,1,0,0:0:0:0:
165,133,117950,1,8,0:0:0:0:
244,59,118122,1,0,0:0:0:0:
189,239,118293,1,0,0:0:0:0:
163,25,118465,1,8,0:0:0:0:
243,160,118636,1,0,0:0:0:0:
243,160,118807,6,0,P|290:148|350:183,1,90,0|8,0:0|0:0,0:0:0:0:
336,173,119065,1,0,0:0:0:0:
344,186,119150,1,0,0:0:0:0:
352,199,119236,1,0,0:0:0:0:
360,211,119322,1,8,0:0:0:0:
322,308,119493,1,0,0:0:0:0:
415,118,119665,2,0,L|305:90,1,90,0|8,0:0|0:0,0:0:0:0:
274,85,119922,1,0,0:0:0:0:
274,85,120007,1,0,0:0:0:0:
226,182,120179,5,0,0:0:0:0:
268,281,120350,2,0,P|203:291|164:262,1,90,8|0,0:0|0:0,0:0:0:0:
146,241,120607,1,0,0:0:0:0:
146,241,120693,1,8,0:0:0:0:
150,133,120865,1,0,0:0:0:0:
80,327,121036,1,0,0:0:0:0:
226,182,121207,1,8,0:0:0:0:
68,192,121379,6,0,L|53:61,1,90
215,230,121722,2,0,L|200:361,1,90,8|0,0:0|0:0,0:0:0:0:
359,188,122065,1,8,0:0:0:0:
353,143,122150,1,0,0:0:0:0:
348,98,122236,2,0,L|334:51,2,45,0|0|0,0:0|0:0|0:0,0:0:0:0:
262,173,122579,5,8,0:0:0:0:
161,82,122750,2,0,L|178:187,1,90
262,173,123093,1,8,0:0:0:0:
366,97,123265,1,0,0:0:0:0:
262,173,123436,2,0,P|347:183|365:212,1,90,8|0,0:0|0:0,0:0:0:0:
309,334,123779,2,0,L|298:244,1,90,0|8,0:0|0:0,0:0:0:0:
268,76,124122,1,0,0:0:0:0:
214,247,124293,2,0,P|145:254|104:224,2,90,0|8|0,0:0|0:0|0:0,0:0:0:0:
313,220,124807,5,8,0:0:0:0:
348,117,124979,1,0,0:0:0:0:
242,138,125150,1,0,0:0:0:0:
315,168,125322,5,8,0:0:0:0:
262,73,125493,1,0,0:0:0:0:
206,166,125665,1,0,0:0:0:0:
278,131,125836,5,8,0:0:0:0:
204,211,126007,1,0,0:0:0:0:
172,107,126179,1,8,0:0:0:0:
85,53,126350,6,0,L|60:149,1,90
73,183,126607,1,0,0:0:0:0:
102,217,126693,1,0,0:0:0:0:
143,235,126779,1,0,0:0:0:0:
188,233,126865,1,0,0:0:0:0:
227,213,126950,5,0,0:0:0:0:
254,177,127036,1,0,0:0:0:0:
279,214,127122,1,0,0:0:0:0:
319,234,127207,1,0,0:0:0:0:
363,232,127293,1,0,0:0:0:0:
400,207,127379,5,0,0:0:0:0:
420,167,127465,1,0,0:0:0:0:
417,123,127550,1,0,0:0:0:0:
220,64,127722,5,0,0:0:0:0:
220,64,127893,2,0,L|195:168,1,90,8|0,0:0|0:0,0:0:0:0:
107,199,128236,1,0,0:0:0:0:
301,155,128407,1,0,0:0:0:0:
105,107,128579,1,8,0:0:0:0:
301,155,128750,1,0,0:0:0:0:
105,107,128922,6,0,L|159:184,1,90
243,237,129265,1,8,0:0:0:0:
301,52,129436,1,0,0:0:0:0:
341,227,129607,1,0,0:0:0:0:
301,52,129779,1,0,0:0:0:0:
152,176,129950,6,0,L|237:135,1,90,8|0,0:0|0:0,0:0:0:0:
301,52,130293,1,0,0:0:0:0:
243,237,130465,1,0,0:0:0:0:
201,60,130636,1,8,0:0:0:0:
243,237,130807,1,0,0:0:0:0:
286,143,130979,6,0,P|364:133|380:140,1,90
226,241,131322,2,0,L|134:247,1,90,8|0,0:0|0:0,0:0:0:0:
85,336,131665,1,0,0:0:0:0:
120,145,131836,1,0,0:0:0:0:
190,332,132007,2,0,P|238:346|299:318,1,90,8|0,0:0|0:0,0:0:0:0:
358,173,132350,2,0,L|346:293,1,90
434,205,132693,6,0,L|450:144,1,45,8|0,0:0|0:0,0:0:0:0:
282,200,132865,2,0,L|266:139,1,45
251,108,133036,2,0,P|191:98|150:125,1,90
221,292,133379,2,0,L|188:209,1,90,8|0,0:0|0:0,0:0:0:0:
86,46,133722,2,0,P|77:108|95:148,1,90
150,212,134065,1,8,0:0:0:0:
284,137,134236,1,0,0:0:0:0:
405,231,134407,1,0,0:0:0:0:
435,71,134579,6,0,L|453:168,1,90,0|8,0:0|0:0,0:0:0:0:
494,252,134922,1,0,0:0:0:0:
350,139,135093,1,0,0:0:0:0:
350,139,135265,1,0,0:0:0:0:
276,303,135436,2,0,P|268:259|285:218,2,90,8|0|0,0:0|0:0|0:0,0:0:0:0:
189,248,135950,5,0,0:0:0:0:
189,248,136122,2,0,L|178:96,1,135,8|0,0:0|0:0,0:0:0:0:
173,62,136465,2,0,P|103:60|71:95,1,90
286,126,136807,2,0,P|392:104|425:141,1,135,8|0,0:0|0:0,0:0:0:0:
420,162,137150,2,0,L|399:263,1,90
156,317,137493,2,0,P|253:328|283:269,1,135,8|0,0:0|0:0,0:0:0:0:
273,256,137836,2,0,B|258:235|258:235|274:198|256:140,1,90
263,126,138179,5,8,0:0:0:0:
263,149,138350,1,0,0:0:0:0:
263,171,138522,2,0,P|210:206|128:160,1,135.000005149842,0|0,0:0|0:0,0:0:0:0:
142,104,139041,1,0,0:0:0:0:
92,48,139214,2,0,L|241:110,1,135.000005149842,8|0,0:0|0:0,0:0:0:0:
271,149,139734,1,0,0:0:0:0:
289,223,139908,2,0,P|296:276|279:310,1,67.5000025749208
226,328,140255,2,0,L|145:308,1,67.5000025749208,0|0,0:0|0:0,0:0:0:0:
301,305,140601,2,0,L|382:285,1,67.5000025749208,8|0,0:0|0:0,0:0:0:0:
244,251,140948,5,0,0:0:0:0:
244,251,141122,1,0,0:0:0:0:
317,69,141295,2,0,P|327:134|293:191,1,135.000005149842
244,251,141815,1,0,0:0:0:0:
87,224,141989,2,0,P|135:179|201:187,1,135.000005149842,8|0,0:0|0:0,0:0:0:0:
244,251,142509,1,0,0:0:0:0:
169,269,142682,2,0,L|168:113,1,135.000005149842
220,76,143203,5,0,0:0:0:0:
275,129,143376,2,0,L|362:143,1,67.5000025749208,8|0,0:0|0:0,0:0:0:0:
440,220,143723,2,0,L|353:234,1,67.5000025749208,0|0,0:0|0:0,0:0:0:0:
322,287,144070,2,0,P|335:214|298:158,2,135.000005149842,0|0|8,0:0|0:0|0:0,0:0:0:0:
248,310,144937,1,0,0:0:0:0:
248,310,145110,2,0,L|168:320,1,67.5000025749208
209,208,145457,2,0,L|129:198,1,67.5000025749208
174,90,145804,2,0,L|94:100,2,67.5000025749208,0|0|8,0:0|0:0|0:0,0:0:0:0:
251,89,146324,5,0,0:0:0:0:
309,139,146497,2,0,L|351:228,1,67.5000025749208
227,201,146844,2,0,P|207:249|225:303,2,101.250003862381,0|0|0,0:0|0:0|0:0,0:0:0:0:
173,144,147538,2,0,L|151:40,2,101.250003862381,8|0|0,0:0|0:0|0:0,0:0:0:0:
244,114,148231,2,0,P|328:123|352:156,2,101.250003862381,0|0|0,0:0|0:0|0:0,0:0:0:0:
244,130,148838,1,0,0:0:0:0:
244,147,148925,2,0,L|226:237,1,67.5000025749208,8|0,0:0|0:0,0:0:0:0:
131,183,149272,2,0,L|149:272,1,67.5000025749208
177,318,149619,6,0,P|273:338|310:305,1,135.000005149842
316,246,150139,1,0,0:0:0:0:
316,246,150312,2,0,P|305:203|329:132,1,101.250003862381,8|0,0:0|0:0,0:0:0:0:
328,111,150659,2,0,L|239:139,1,67.5000025749208
204,81,151006,2,0,P|212:170|186:198,1,101.250003862381
188,208,151353,2,0,L|111:173,1,67.5000025749208
95,109,151700,1,8,0:0:0:0:
95,109,151873,1,0,0:0:0:0:
56,302,152047,6,0,P|103:298|133:308,1,67.5000025749208
153,325,152307,1,0,0:0:0:0:
184,346,152393,2,0,P|217:353|250:347,1,67.5000025749208
313,302,152740,1,0,0:0:0:0:
313,302,152914,1,0,0:0:0:0:
305,162,153087,2,0,L|292:228,1,67.5000025749208,8|0,0:0|0:0,0:0:0:0:
169,139,153434,2,0,L|182:205,1,67.5000025749208
154,276,153781,2,0,P|208:256|263:280,1,101.250003862381
274,295,154127,1,0,0:0:0:0:
247,182,154301,1,0,0:0:0:0:
313,63,154474,6,0,L|303:130,2,67.5000025749208,8|0|0,0:0|0:0|0:0,0:0:0:0:
328,202,154994,1,0,0:0:0:0:
255,227,155168,2,0,L|165:223,1,67.5000025749208
139,105,155515,2,0,L|229:109,1,67.5000025749208
281,89,155862,2,0,P|288:59|263:5,2,67.5000025749208,8|0|0,0:0|0:0|0:0,0:0:0:0:
247,159,156382,1,0,0:0:0:0:
217,230,156555,6,0,L|206:322,1,67.5000025749208
344,208,156902,2,0,L|355:300,2,67.5000025749208,0|0|8,0:0|0:0|0:0,0:0:0:0:
322,133,157422,1,0,0:0:0:0:
309,121,157596,1,0,0:0:0:0:
297,109,157769,1,0,0:0:0:0:
206,60,157942,6,0,P|212:130|181:168,1,90,8|0,0:0|0:0,0:0:0:0:
139,225,158284,1,0,0:0:0:0:
285,129,158456,2,0,P|261:194|218:217,1,90,8|0,0:0|0:0,0:0:0:0:
139,225,158799,1,0,0:0:0:0:
337,220,158970,2,0,P|288:270|240:273,1,90,8|0,0:0|0:0,0:0:0:0:
424,163,159313,6,0,P|357:180|314:157,1,90,8|0,0:0|0:0,0:0:0:0:
251,125,159655,1,0,0:0:0:0:
370,252,159827,2,0,P|302:240|272:201,1,90,8|0,0:0|0:0,0:0:0:0:
251,125,160170,1,0,0:0:0:0:
290,319,160341,2,0,P|232:280|220:232,1,90,8|0,0:0|0:0,0:0:0:0:
227,160,160684,5,8,0:0:0:0:
226,132,160769,1,0,0:0:0:0:
216,105,160855,1,0,0:0:0:0:
197,84,160941,1,0,0:0:0:0:
172,70,161026,1,0,0:0:0:0:
144,66,161112,1,0,0:0:0:0:
116,71,161198,5,8,0:0:0:0:
92,86,161284,1,0,0:0:0:0:
73,108,161369,1,0,0:0:0:0:
64,135,161455,1,0,0:0:0:0:
64,163,161541,1,0,0:0:0:0:
74,190,161626,1,0,0:0:0:0:
112,260,161712,6,0,L|185:270,1,45,8|0,0:0|0:0,0:0:0:0:
160,192,161884,2,0,L|233:202,1,45
256,136,162055,2,0,L|329:146,1,45
304,68,162227,2,0,L|377:78,1,45,8|0,0:0|0:0,0:0:0:0:
428,64,162398,5,0,0:0:0:0:
434,91,162483,1,0,0:0:0:0:
433,120,162569,1,0,0:0:0:0:
424,147,162655,1,0,0:0:0:0:
409,171,162740,1,8,0:0:0:0:
387,190,162826,1,0,0:0:0:0:
361,202,162912,5,0,0:0:0:0:
333,207,162998,1,0,0:0:0:0:
305,203,163083,1,0,0:0:0:0:
278,193,163169,1,0,0:0:0:0:
256,176,163255,1,0,0:0:0:0:
238,153,163340,1,0,0:0:0:0:
208,80,163426,6,0,L|144:72,1,45,8|0,0:0|0:0,0:0:0:0:
160,152,163598,2,0,L|96:144,1,45
192,232,163769,2,0,L|128:224,1,45
144,304,163941,2,0,L|80:296,1,45,8|0,0:0|0:0,0:0:0:0:
240,320,164112,6,0,L|260:264,1,45
332,216,164284,2,0,L|352:160,1,45
256,106,164455,2,0,L|272:64,1,45,8|0,0:0|0:0,0:0:0:0:
164,210,164627,2,0,L|180:168,1,45
184,88,164798,5,0,0:0:0:0:
164,67,164883,1,0,0:0:0:0:
138,56,164969,1,8,0:0:0:0:
110,56,165055,1,0,0:0:0:0:
84,67,165140,1,0,0:0:0:0:
65,87,165226,1,0,0:0:0:0:
55,114,165312,5,0,0:0:0:0:
56,142,165398,1,0,0:0:0:0:
64,162,165483,1,8,0:0:0:0:
67,185,165569,1,0,0:0:0:0:
67,207,165655,1,0,0:0:0:0:
62,229,165740,1,0,0:0:0:0:
84,300,165826,6,8,L|144:320,1,45
208,284,165998,2,0,L|268:304,1,45,0|8,0:0|0:0,0:0:0:0:
292,216,166169,2,0,L|232:196,1,45,8|0,0:0|0:0,0:0:0:0:
416,200,166340,2,0,L|356:180,1,45
331,122,166512,5,0,0:0:0:0:
318,96,166597,1,0,0:0:0:0:
297,78,166683,1,8,0:0:0:0:
270,70,166769,1,0,0:0:0:0:
242,72,166854,1,0,0:0:0:0:
217,86,166940,1,0,0:0:0:0:
200,108,167026,5,0,0:0:0:0:
193,136,167112,1,0,0:0:0:0:
197,164,167197,1,8,0:0:0:0:
212,187,167283,1,0,0:0:0:0:
240,189,167369,1,0,0:0:0:0:
266,201,167455,1,0,0:0:0:0:
285,222,167541,5,0,0:0:0:0:
294,249,167626,1,0,0:0:0:0:
294,277,167712,1,8,0:0:0:0:
283,303,167798,1,0,0:0:0:0:
262,322,167884,1,0,0:0:0:0:
236,333,167969,1,0,0:0:0:0:
208,333,168055,5,0,0:0:0:0:
183,319,168140,1,0,0:0:0:0:
165,297,168226,1,8,0:0:0:0:
158,270,168312,1,0,0:0:0:0:
162,242,168397,1,0,0:0:0:0:
177,218,168483,1,0,0:0:0:0:
228,165,168569,6,0,L|294:150,1,45
312,218,168741,2,0,L|378:203,1,45
176,250,168912,2,0,L|110:265,1,45,8|0,0:0|0:0,0:0:0:0:
92,197,169084,2,0,L|26:212,1,45
45,133,169255,6,0,L|51:71,1,45
164,97,169426,2,0,L|158:35,1,45,8|0,0:0|0:0,0:0:0:0:
298,103,169598,2,0,L|304:41,1,45
417,139,169769,2,0,L|411:77,1,45
460,216,169941,6,0,L|436:265,1,45,8|0,0:0|0:0,0:0:0:0:
376,216,170112,2,0,L|323:230,1,45
324,152,170284,2,0,L|277:123,1,45
344,80,170455,2,0,L|334:26,1,45,8|0,0:0|0:0,0:0:0:0:
444,272,170626,6,0,L|411:337,1,45
331,272,170797,2,0,L|261:292,1,45
261,186,170969,2,0,L|199:147,1,45,8|0,0:0|0:0,0:0:0:0:
288,89,171140,2,0,L|276:17,1,45
208,28,171312,5,8,0:0:0:0:
164,21,171397,1,8,0:0:0:0:
123,40,171483,1,0,0:0:0:0:
101,78,171569,1,8,0:0:0:0:
102,123,171655,5,8,0:0:0:0:
104,134,171740,1,0,0:0:0:0:
107,145,171826,1,0,0:0:0:0:
109,156,171912,1,0,0:0:0:0:
112,167,171997,1,0,0:0:0:0:
200,196,172084,5,0,0:0:0:0:
197,185,172169,1,8,0:0:0:0:
195,174,172255,1,0,0:0:0:0:
192,163,172341,1,0,0:0:0:0:
190,152,172426,1,0,0:0:0:0:
232,92,172512,5,0,0:0:0:0:
273,75,172597,1,0,0:0:0:0:
316,85,172683,1,8,0:0:0:0:
347,117,172769,1,0,0:0:0:0:
354,160,172855,6,0,L|352:220,1,45,8|0,0:0|0:0,0:0:0:0:
276,184,173026,2,0,L|278:243,1,45
206,160,173198,2,0,L|204:220,1,45,8|0,0:0|0:0,0:0:0:0:
128,184,173369,2,0,L|130:243,1,45
156,300,173541,5,8,0:0:0:0:
192,325,173626,1,0,0:0:0:0:
236,333,173712,1,8,0:0:0:0:
279,320,173798,1,0,0:0:0:0:
312,290,173883,1,0,0:0:0:0:
328,248,173969,1,0,0:0:0:0:
325,204,174055,5,0,0:0:0:0:
323,193,174140,1,0,0:0:0:0:
322,182,174226,1,0,0:0:0:0:
320,170,174312,1,0,0:0:0:0:
319,159,174397,1,8,0:0:0:0:
236,120,174484,5,0,0:0:0:0:
237,131,174569,1,0,0:0:0:0:
239,142,174655,1,0,0:0:0:0:
240,153,174741,1,0,0:0:0:0:
242,164,174826,1,0,0:0:0:0:
224,236,174912,6,0,L|156:256,1,45,8|0,0:0|0:0,0:0:0:0:
156,168,175084,2,0,L|88:148,1,45
168,44,175255,2,0,L|236:24,1,45
236,112,175427,2,0,L|304:132,1,45,8|0,0:0|0:0,0:0:0:0:
300,296,175598,6,0,L|216:320,1,45,8|0,0:0|0:0,0:0:0:0:
216,212,175770,2,0,L|131:187,1,45
230,58,175941,2,0,L|314:34,1,45,8|0,0:0|0:0,0:0:0:0:
314,142,176113,2,0,L|398:167,1,45
416,200,176284,5,8,0:0:0:0:
422,243,176369,1,0,0:0:0:0:
403,283,176455,1,8,0:0:0:0:
364,306,176541,1,0,0:0:0:0:
320,304,176626,1,0,0:0:0:0:
284,278,176712,1,0,0:0:0:0:
289,234,176797,5,0,0:0:0:0:
275,192,176883,1,0,0:0:0:0:
244,160,176969,1,0,0:0:0:0:
202,144,177054,1,0,0:0:0:0:
158,148,177140,1,8,0:0:0:0:
119,171,177226,1,0,0:0:0:0:
72,228,177312,6,0,L|68:288,1,45
156,264,177484,2,0,L|152:324,1,45
68,132,177655,2,0,L|72:72,1,45,8|0,0:0|0:0,0:0:0:0:
152,168,177826,2,0,L|156:108,1,45
249,231,177998,6,0,L|244:312,1,45
364,280,178170,2,0,L|358:361,1,45,8|0,0:0|0:0,0:0:0:0:
244,100,178341,2,0,L|249:18,1,45,8|0,0:0|0:0,0:0:0:0:
358,149,178512,2,0,L|364:67,1,45
416,53,178684,5,8,0:0:0:0:
449,82,178769,1,0,0:0:0:0:
468,122,178855,1,0,0:0:0:0:
470,167,178941,1,0,0:0:0:0:
453,208,179026,1,8,0:0:0:0:
422,240,179112,1,0,0:0:0:0:
390,208,179197,5,4,0:0:0:0:
350,189,179283,1,0,0:0:0:0:
305,184,179369,1,0,0:0:0:0:
261,194,179454,1,0,0:0:0:0:
224,218,179540,1,0,0:0:0:0:
196,253,179626,1,0,0:0:0:0:
203,266,179711,1,0,0:0:0:0:
211,279,179797,1,0,0:0:0:0:
256,340,179884,6,0,L|256:292,7,45,0|0|0|0|0|0|0|0,0:0|0:0|0:0|0:0|0:0|0:0|0:0|0:0,0:0:0:0:
256,220,180569,6,0,L|256:172,7,45,0|0|0|0|0|0|0|0,0:0|0:0|0:0|0:0|0:0|0:0|0:0|0:0,0:0:0:0:
256,44,181255,6,0,L|256:92,7,45,0|0|0|0|0|0|0|0,0:0|0:0|0:0|0:0|0:0|0:0|0:0|0:0,0:0:0:0:
256,144,181941,2,0,P|344:116|412:148,2,135,0|0|0,0:0|0:0|0:0,0:0:0:0:
256,192,182626,12,4,188284,0:0:0:0:
280,160,193373,6,0,L|288:224,1,45
200,145,193544,1,0,0:0:0:0:
156,150,193629,1,0,0:0:0:0:
127,183,193715,2,0,L|120:280,2,90,8|0|0,0:0|0:0|0:0,0:0:0:0:
92,85,194230,1,0,0:0:0:0:
218,232,194402,1,0,0:0:0:0:
218,232,194573,1,8,0:0:0:0:
300,94,194744,6,0,L|308:184,1,90,0|0,0:0|0:0,0:0:0:0:
409,165,195087,2,0,L|401:254,1,90,8|0,0:0|0:0,0:0:0:0:
314,309,195430,2,0,P|241:302|213:321,1,90,8|0,0:0|0:0,0:0:0:0:
129,161,195773,2,0,L|230:149,1,90,0|8,0:0|0:0,0:0:0:0:
62,278,196115,2,0,L|163:290,1,90
251,233,196458,5,8,0:0:0:0:
251,221,196543,1,0,0:0:0:0:
252,210,196629,1,0,0:0:0:0:
253,199,196715,1,0,0:0:0:0:
254,188,196800,1,8,0:0:0:0:
291,91,196973,5,0,0:0:0:0:
160,232,197144,1,0,0:0:0:0:
355,163,197316,1,8,0:0:0:0:
154,203,197487,1,0,0:0:0:0:
360,191,197659,1,0,0:0:0:0:
289,264,197830,5,8,0:0:0:0:
180,310,198001,1,0,0:0:0:0:
257,341,198173,1,8,0:0:0:0:
212,233,198344,1,0,0:0:0:0:
96,66,198515,5,0,0:0:0:0:
136,175,198686,1,8,0:0:0:0:
205,27,198858,1,0,0:0:0:0:
245,136,199029,1,0,0:0:0:0:
337,90,199201,2,0,P|347:180|342:189,1,90,8|0,0:0|0:0,0:0:0:0:
175,294,199544,2,0,L|170:195,1,90,8|0,0:0|0:0,0:0:0:0:
230,120,199887,5,0,0:0:0:0:
80,254,200059,1,8,0:0:0:0:
149,103,200230,1,0,0:0:0:0:
149,103,200401,1,0,0:0:0:0:
230,40,200573,2,0,P|302:37|333:57,1,90,8|0,0:0|0:0,0:0:0:0:
419,137,200915,2,0,L|414:233,1,90,8|0,0:0|0:0,0:0:0:0:
263,139,201258,2,0,L|268:235,2,90,0|8|0,0:0|0:0|0:0,0:0:0:0:
256,123,201686,5,0,0:0:0:0:
246,110,201772,1,0,0:0:0:0:
233,99,201858,1,0,0:0:0:0:
217,92,201943,1,0,0:0:0:0:
201,90,202029,1,0,0:0:0:0:
184,91,202115,1,0,0:0:0:0:
168,97,202201,1,0,0:0:0:0:
154,106,202287,2,0,L|133:203,1,90,8|0,0:0|0:0,0:0:0:0:
66,270,202630,5,0,0:0:0:0:
212,221,202801,1,8,0:0:0:0:
337,309,202973,1,0,0:0:0:0:
337,309,203144,1,0,0:0:0:0:
385,218,203315,2,0,L|380:109,1,90,8|0,0:0|0:0,0:0:0:0:
249,173,203658,2,0,L|254:64,1,90,8|0,0:0|0:0,0:0:0:0:
122,210,204001,2,0,L|117:101,2,90,0|8|0,0:0|0:0|0:0,0:0:0:0:
190,286,204515,5,0,0:0:0:0:
196,183,204687,1,8,0:0:0:0:
203,139,204772,1,0,0:0:0:0:
232,106,204858,1,0,0:0:0:0:
275,94,204944,1,0,0:0:0:0:
318,106,205030,2,0,L|435:150,1,90,8|0,0:0|0:0,0:0:0:0:
336,305,205373,6,0,P|327:261|337:218,1,90,0|8,0:0|0:0,0:0:0:0:
395,133,205715,1,0,0:0:0:0:
395,133,205887,1,0,0:0:0:0:
248,42,206058,2,0,L|244:141,1,90,8|0,0:0|0:0,0:0:0:0:
97,305,206401,2,0,L|101:206,1,90,8|0,0:0|0:0,0:0:0:0:
163,133,206744,5,0,0:0:0:0:
287,131,206915,1,8,0:0:0:0:
227,239,207087,1,0,0:0:0:0:
378,192,207258,1,0,0:0:0:0:
279,267,207429,1,8,0:0:0:0:
264,144,207601,1,0,0:0:0:0:
218,52,207773,6,0,L|148:63,1,45,8|0,0:0|0:0,0:0:0:0:
218,52,207944,2,0,L|192:118,1,45
218,52,208115,2,0,P|290:43|326:81,1,90,0|8,0:0|0:0,0:0:0:0:
355,225,208458,2,0,L|358:136,1,90,0|0,0:0|0:0,0:0:0:0:
393,39,208801,1,8,0:0:0:0:
393,39,208973,1,0,0:0:0:0:
174,174,209144,2,0,P|217:183|261:172,1,90,8|0,0:0|0:0,0:0:0:0:
260,342,209487,2,0,L|277:254,1,90,0|8,0:0|0:0,0:0:0:0:
192,260,209830,6,0,P|126:258|89:282,1,90,0|0,0:0|0:0,0:0:0:0:
78,286,210087,1,0,0:0:0:0:
78,286,210173,2,0,L|75:179,1,90,8|0,0:0|0:0,0:0:0:0:
120,103,210515,1,8,0:0:0:0:
218,222,210687,1,0,0:0:0:0:
357,157,210858,2,0,L|340:52,1,90,0|8,0:0|0:0,0:0:0:0:
256,12,211201,5,0,0:0:0:0:
357,157,211373,1,0,0:0:0:0:
256,32,211544,1,8,0:0:0:0:
357,157,211715,1,0,0:0:0:0:
256,316,211887,2,0,L|256:224,2,90,0|8|0,0:0|0:0|0:0,0:0:0:0:
156,341,212401,5,0,0:0:0:0:
147,320,212486,1,0,0:0:0:0:
138,299,212572,1,0,0:0:0:0:
129,278,212658,1,0,0:0:0:0:
120,258,212743,1,0,0:0:0:0:
128,229,212829,5,0,0:0:0:0:
135,199,212915,1,0,0:0:0:0:
142,170,213001,1,0,0:0:0:0:
149,141,213086,1,0,0:0:0:0:
156,112,213172,1,0,0:0:0:0:
163,83,213258,6,0,P|252:58|292:90,1,135
251,119,213601,2,0,P|300:121|339:153,1,90,8|0,0:0|0:0,0:0:0:0:
274,300,213944,2,0,L|276:193,1,90
350,43,214287,1,8,0:0:0:0:
375,239,214458,1,0,0:0:0:0:
439,86,214630,2,0,L|451:206,1,90
285,214,214973,2,0,L|297:94,2,90,8|0|0,0:0|0:0|0:0,0:0:0:0:
204,277,215487,5,0,0:0:0:0:
368,154,215658,1,8,0:0:0:0:
199,181,215830,2,0,P|125:172|89:196,1,90
282,339,216173,2,0,L|285:236,1,90,0|8,0:0|0:0,0:0:0:0:
334,130,216515,1,0,0:0:0:0:
250,31,216687,2,0,L|253:134,1,90
106,263,217030,2,0,P|180:272|216:248,1,90,8|0,0:0|0:0,0:0:0:0:
395,210,217373,2,0,L|285:225,1,90
236,153,217715,5,8,0:0:0:0:
343,303,217887,1,0,0:0:0:0:
334,130,218058,1,0,0:0:0:0:
334,130,218230,1,0,0:0:0:0:
236,327,218401,2,0,L|210:215,1,90,8|0,0:0|0:0,0:0:0:0:
46,134,218744,2,0,P|133:183|173:146,1,135
181,143,219087,2,0,P|223:162|279:145,1,90,8|0,0:0|0:0,0:0:0:0:
309,53,219430,5,0,0:0:0:0:
239,236,219601,1,0,0:0:0:0:
346,314,219773,2,0,L|336:225,1,90,8|0,0:0|0:0,0:0:0:0:
438,54,220115,2,0,L|427:143,1,90
458,240,220458,5,8,0:0:0:0:
335,133,220630,1,0,0:0:0:0:
354,232,220801,2,0,P|290:225|251:251,1,90
177,332,221144,2,0,L|187:217,1,90,8|0,0:0|0:0,0:0:0:0:
237,152,221487,5,0,0:0:0:0:
93,273,221658,1,8,0:0:0:0:
93,273,221830,1,8,0:0:0:0:
130,58,222087,6,0,L|136:109,1,45
88,178,222344,1,8,0:0:0:0:
88,178,222515,1,8,0:0:0:0:
319,175,222773,6,0,L|303:224,1,45
231,267,223030,1,0,0:0:0:0:
231,267,223201,5,0,0:0:0:0:
208,229,223286,1,0,0:0:0:0:
203,185,223372,1,0,0:0:0:0:
218,143,223458,1,0,0:0:0:0:
250,112,223544,2,0,L|312:119,1,45
310,137,223715,5,0,0:0:0:0:
320,161,223801,1,0,0:0:0:0:
324,186,223887,1,0,0:0:0:0:
321,211,223972,1,0,0:0:0:0:
311,235,224058,1,0,0:0:0:0:
296,256,224144,1,0,0:0:0:0:
276,272,224230,1,8,0:0:0:0:
115,250,224401,5,0,0:0:0:0:
115,250,224573,2,0,L|101:140,1,90,0|8,0:0|0:0,0:0:0:0:
278,47,224915,2,0,P|297:86|275:156,1,90
214,183,225258,1,8,0:0:0:0:
403,109,225430,1,0,0:0:0:0:
366,294,225601,2,0,L|367:182,1,90,8|0,0:0|0:0,0:0:0:0:
403,109,225944,1,0,0:0:0:0:
281,251,226115,1,8,0:0:0:0:
189,40,226287,6,0,L|182:137,1,90
106,337,226630,2,0,L|112:247,1,90,8|0,0:0|0:0,0:0:0:0:
119,177,226887,1,0,0:0:0:0:
123,106,226973,2,0,P|162:196|249:192,1,180,8|0,0:0|0:0,0:0:0:0:
311,131,227487,1,8,0:0:0:0:
352,315,227658,2,0,L|343:188,1,90
311,131,228001,5,8,0:0:0:0:
201,253,228173,1,0,0:0:0:0:
311,131,228344,1,8,0:0:0:0:
121,160,228515,1,0,0:0:0:0:
121,160,228687,2,0,P|163:146|206:158,1,90,0|8,0:0|0:0,0:0:0:0:
228,180,228944,1,0,0:0:0:0:
248,204,229030,2,0,P|290:215|333:202,1,90
292,31,229373,2,0,L|299:121,1,90,8|0,0:0|0:0,0:0:0:0:
398,337,229715,2,0,L|404:247,1,90,8|0,0:0|0:0,0:0:0:0:
449,154,230058,5,0,0:0:0:0:
300,113,230230,1,8,0:0:0:0:
236,253,230401,2,0,P|180:262|129:236,1,90
116,173,230744,2,0,L|136:72,1,90,8|0,0:0|0:0,0:0:0:0:
68,249,231087,2,0,P|74:311|51:357,2,90,8|0|0,0:0|0:0|0:0,0:0:0:0:
96,80,231601,1,8,0:0:0:0:
160,258,231773,2,0,L|176:144,1,90
221,82,232115,5,8,0:0:0:0:
260,61,232200,1,0,0:0:0:0:
303,66,232286,1,0,0:0:0:0:
337,95,232372,1,0,0:0:0:0:
347,138,232457,1,8,0:0:0:0:
296,228,232630,5,0,0:0:0:0:
410,56,232802,1,0,0:0:0:0:
248,168,232973,1,8,0:0:0:0:
388,307,233144,2,0,L|376:184,1,90
214,287,233487,2,0,P|276:278|323:309,1,90,8|0,0:0|0:0,0:0:0:0:
241,201,233830,1,0,0:0:0:0:
241,201,233915,1,0,0:0:0:0:
241,201,234001,2,0,L|256:112,1,90,8|8,0:0|0:0,0:0:0:0:
189,34,234344,5,0,0:0:0:0:
171,39,234429,1,0,0:0:0:0:
156,48,234515,1,0,0:0:0:0:
143,61,234601,1,0,0:0:0:0:
132,75,234686,1,0,0:0:0:0:
125,92,234772,5,0,0:0:0:0:
121,109,234858,1,0,0:0:0:0:
121,127,234944,1,0,0:0:0:0:
125,145,235029,1,0,0:0:0:0:
132,161,235115,1,0,0:0:0:0:
143,176,235201,2,0,L|284:196,1,135.000005149842,8|0,0:0|0:0,0:0:0:0:
283,87,235544,5,0,0:0:0:0:
229,297,235715,1,8,0:0:0:0:
316,332,235887,1,0,0:0:0:0:
316,332,235973,1,0,0:0:0:0:
316,332,236058,1,0,0:0:0:0:
390,130,236230,2,0,L|372:264,1,135.000005149842,8|0,0:0|0:0,0:0:0:0:
162,229,236573,2,0,P|222:201|288:212,1,135.000005149842,8|0,0:0|0:0,0:0:0:0:
337,258,236830,1,0,0:0:0:0:
378,310,236915,2,0,P|367:194|401:154,1,135.000005149842,0|8,0:0|0:0,0:0:0:0:
213,38,237258,6,0,P|240:109|202:178,1,135.000005149842
172,209,237515,1,0,0:0:0:0:
127,260,237601,2,0,P|208:232|265:271,1,135.000005149842,8|0,0:0|0:0,0:0:0:0:
325,363,237944,1,8,0:0:0:0:
277,119,238116,1,0,0:0:0:0:
152,347,238287,1,0,0:0:0:0:
152,347,238458,1,8,0:0:0:0:
82,72,238630,2,0,P|70:188|103:208,1,135.000005149842
129,224,238887,1,0,0:0:0:0:
192,199,238973,2,0,P|312:199|349:241,1,135.000005149842,8|0,0:0|0:0,0:0:0:0:
383,321,239315,6,0,P|414:249|396:182,1,135.000005149842,8|0,0:0|0:0,0:0:0:0:
366,138,239573,1,0,0:0:0:0:
366,138,239658,2,0,L|230:84,1,135.000005149842,0|8,0:0|0:0,0:0:0:0:
111,48,240001,1,0,0:0:0:0:
84,108,240086,1,0,0:0:0:0:
100,173,240172,1,0,0:0:0:0:
151,214,240258,1,0,0:0:0:0:
218,215,240343,1,8,0:0:0:0:
295,327,240515,5,0,0:0:0:0:
173,87,240686,1,8,0:0:0:0:
352,232,240858,1,0,0:0:0:0:
218,211,241030,2,0,P|313:190|364:228,1,135.000005149842,0|8,0:0|0:0,0:0:0:0:
374,265,241287,1,0,0:0:0:0:
404,325,241373,2,0,P|405:202|430:178,1,135.000005149842
394,66,241715,5,8,0:0:0:0:
148,178,241886,1,0,0:0:0:0:
411,235,242058,1,8,0:0:0:0:
411,235,242230,1,0,0:0:0:0:
262,35,242401,2,0,P|261:113|322:149,1,135.000005149842,0|8,0:0|0:0,0:0:0:0:
368,153,242658,1,0,0:0:0:0:
368,153,242744,2,0,P|286:178|261:253,1,135.000005149842
186,328,243087,5,8,0:0:0:0:
123,309,243172,1,0,0:0:0:0:
87,254,243258,1,0,0:0:0:0:
96,188,243344,1,0,0:0:0:0:
145,144,243429,1,8,0:0:0:0:
199,184,243515,5,0,0:0:0:0:
266,191,243601,1,0,0:0:0:0:
327,164,243687,1,0,0:0:0:0:
367,111,243773,1,0,0:0:0:0:
358,176,243858,5,0,0:0:0:0:
392,233,243944,1,8,0:0:0:0:
454,257,244030,1,0,0:0:0:0:
423,315,244115,5,0,0:0:0:0:
362,341,244201,1,0,0:0:0:0:
299,322,244287,1,0,0:0:0:0:
262,267,244373,1,0,0:0:0:0:
276,202,244458,5,8,0:0:0:0:
255,139,244544,1,0,0:0:0:0:
205,94,244630,1,0,0:0:0:0:
140,81,244715,2,0,L|117:164,1,67.5000025749208,0|8,0:0|0:0,0:0:0:0:
125,302,244887,2,0,L|148:219,1,67.5000025749208,0|8,0:0|0:0,0:0:0:0:
257,164,245144,5,8,0:0:0:0:
331,51,245315,5,8,0:0:0:0:
387,86,245400,1,0,0:0:0:0:
415,146,245486,1,8,0:0:0:0:
405,212,245572,1,0,0:0:0:0:
362,262,245657,1,8,0:0:0:0:
297,280,245743,5,0,0:0:0:0:
282,215,245829,1,8,0:0:0:0:
234,169,245915,1,0,0:0:0:0:
169,157,246001,1,8,0:0:0:0:
107,182,246087,2,0,L|80:258,1,67.5000025749208,0|12,0:0|0:0,0:0:0:0:
184,326,246344,5,0,0:0:0:0:
184,326,246515,2,0,L|184:238,1,67.5000025749208
210,236,246773,1,0,0:0:0:0:
210,236,246858,2,0,P|216:207|207:166,2,67.5000025749208,0|0|0,0:0|0:0|0:0,0:0:0:0:
297,69,247373,6,0,L|299:139,2,67.5000025749208,0|0|0,0:0|0:0|0:0,0:0:0:0:
345,214,247887,2,0,P|374:220|415:211,2,67.5000025749208,0|0|0,0:0|0:0|0:0,0:0:0:0:
313,200,248315,1,0,0:0:0:0:
281,186,248401,2,0,P|216:183|198:195,1,67.5000025749208
251,321,248744,6,0,P|254:256|242:238,1,67.5000025749208
179,275,249087,2,0,L|102:258,1,67.5000025749208
73,149,249430,2,0,L|150:132,2,67.5000025749208,0|0|0,0:0|0:0|0:0,0:0:0:0:
222,141,249944,2,0,P|240:175|231:223,1,67.5000025749208
324,312,250287,6,0,L|318:223,1,67.5000025749208
401,88,250630,2,0,L|395:177,2,67.5000025749208,0|0|0,0:0|0:0|0:0,0:0:0:0:
256,192,251144,1,0,0:0:0:0:
256,192,251487,2,0,L|256:280,1,75
