osu file format v14

[General]
AudioFilename: ONE OK ROCK - Clock Strikes.mp3
AudioLeadIn: 0
PreviewTime: 51349
Countdown: 0
SampleSet: Soft
StackLeniency: 0.7
Mode: 0
LetterboxInBreaks: 0
WidescreenStoryboard: 0

[Editor]
Bookmarks: 116676,168655,169176,197926,209176
DistanceSpacing: 1.2
BeatDivisor: 4
GridSize: 4
TimelineZoom: 7.699995

[Metadata]
Title:Clock Strikes
TitleUnicode:Clock Strikes
Artist:ONE OK ROCK
ArtistUnicode:ONE OK ROCK
Creator:Saut
Version:pishi's Insane
Source:
Tags:人生×僕= Jinsei x Boku taka toru ryota tomoya pishifat moway pkhg
BeatmapID:633379
BeatmapSetID:249624

[Difficulty]
HPDrainRate:6
CircleSize:4
OverallDifficulty:7.8
ApproachRate:9
SliderMultiplier:1.7
SliderTickRate:2

[Events]
//Background and Video events
0,0,"bg.jpg",0,0
//Break Periods
2,47017,48562
2,71862,81062
2,116862,126062
//Storyboard Layer 0 (Background)
//Storyboard Layer 1 (Fail)
//Storyboard Layer 2 (Pass)
//Storyboard Layer 3 (Foreground)
//Storyboard Sound Samples

[TimingPoints]
6662,312.5,4,2,48,40,1,0
6662,-166.666666666667,4,2,0,40,0,0
6818,-166.666666666667,4,2,0,40,0,0
7287,-166.666666666667,4,2,0,55,0,0
7443,-166.666666666667,4,2,0,40,0,0
7755,-166.666666666667,4,2,0,55,0,0
7912,-166.666666666667,4,2,0,40,0,0
8224,-166.666666666667,4,2,0,55,0,0
8380,-166.666666666667,4,2,0,40,0,0
9162,-166.666666666667,4,2,0,47,0,0
9318,-166.666666666667,4,2,0,55,0,0
9474,-166.666666666667,4,2,0,40,0,0
9787,-166.666666666667,4,2,0,55,0,0
9943,-166.666666666667,4,2,0,40,0,0
10255,-166.666666666667,4,2,0,55,0,0
10412,-166.666666666667,4,2,0,40,0,0
10724,-166.666666666667,4,2,0,55,0,0
10880,-166.666666666667,4,2,0,40,0,0
11662,-166.666666666667,4,2,0,47,0,0
11818,-166.666666666667,4,2,0,55,0,0
11974,-166.666666666667,4,2,0,40,0,0
12287,-166.666666666667,4,2,0,55,0,0
12443,-166.666666666667,4,2,0,40,0,0
12755,-166.666666666667,4,2,0,55,0,0
12912,-166.666666666667,4,2,0,40,0,0
13224,-166.666666666667,4,2,0,55,0,0
13380,-166.666666666667,4,2,0,40,0,0
14162,-166.666666666667,4,2,0,47,0,0
14318,-166.666666666667,4,2,0,55,0,0
14474,-166.666666666667,4,2,0,40,0,0
14787,-166.666666666667,4,2,0,55,0,0
14943,-166.666666666667,4,2,0,40,0,0
15255,-166.666666666667,4,2,0,55,0,0
15412,-166.666666666667,4,2,0,40,0,0
15724,-166.666666666667,4,2,0,55,0,0
15880,-166.666666666667,4,2,0,40,0,0
16037,-200,4,2,0,40,0,0
16662,-111.111111111111,4,3,48,60,0,0
17287,-166.666666666666,4,2,0,55,0,0
17443,-166.666666666666,4,2,0,40,0,0
17755,-166.666666666666,4,2,0,55,0,0
17912,-166.666666666666,4,2,0,40,0,0
18224,-166.666666666666,4,2,0,55,0,0
18380,-166.666666666666,4,2,0,40,0,0
18693,-199.999999999999,4,2,0,40,0,0
19162,-111.111111111111,4,3,48,60,0,0
19787,-166.666666666667,4,2,0,55,0,0
19943,-166.666666666667,4,2,0,40,0,0
20255,-166.666666666667,4,2,0,55,0,0
20412,-166.666666666667,4,2,0,40,0,0
20724,-166.666666666667,4,2,0,55,0,0
20880,-166.666666666667,4,2,0,40,0,0
21037,-200,4,2,0,40,0,0
21662,-111.111111111111,4,3,48,60,0,0
22287,-166.666666666666,4,2,0,55,0,0
22443,-166.666666666666,4,2,0,40,0,0
22755,-166.666666666666,4,2,0,55,0,0
22912,-166.666666666666,4,2,0,40,0,0
23224,-166.666666666666,4,2,0,55,0,0
23380,-200,4,2,0,40,0,0
24162,-111.111111111111,4,3,48,60,0,0
24787,-166.666666666666,4,2,0,55,0,0
24943,-166.666666666666,4,2,0,40,0,0
25255,-166.666666666666,4,2,0,55,0,0
25412,-166.666666666666,4,2,0,40,0,0
25724,-166.666666666666,4,2,0,55,0,0
25880,-166.666666666666,4,2,0,40,0,0
26193,-100,4,3,48,75,0,0
26662,-100,4,3,48,65,0,0
28849,-100,4,2,0,65,0,0
29162,-100,4,3,48,65,0,0
33849,-100,4,2,0,65,0,0
34162,-100,4,3,48,65,0,0
36662,-90.9090909090909,4,3,48,65,0,0
46505,-153.846153846153,4,2,48,70,0,0
46818,-133.333333333333,4,2,48,85,0,0
49162,-133.333333333333,4,2,48,45,0,0
50568,-133.333333333333,4,3,0,55,0,0
51037,-133.333333333333,4,3,48,55,0,0
51662,-125,4,3,48,70,0,1
56349,-125,4,3,0,70,0,1
56505,-125,4,3,48,70,0,1
60724,-125,4,3,0,70,0,1
60880,-125,4,3,48,70,0,1
61349,-125,4,3,0,70,0,1
61505,-125,4,3,48,70,0,1
66037,-125,4,3,0,70,0,1
66349,-125,4,3,48,70,0,1
71349,-111.111111111111,4,3,48,70,0,1
71505,-111.111111111111,4,3,0,70,0,1
71662,-111.111111111111,4,3,48,70,0,0
81662,-100,4,3,0,80,0,0
81974,-100,4,3,48,65,0,0
84162,-100,4,3,0,80,0,0
84474,-100,4,3,48,65,0,0
86662,-100,4,3,0,80,0,0
86974,-100,4,3,48,65,0,0
89162,-100,4,3,0,80,0,0
89474,-100,4,3,48,65,0,0
90412,-117.647058823529,4,3,48,55,0,0
90724,-111.111111111111,4,3,48,58,0,0
91037,-105.263157894737,4,3,48,61,0,0
91349,-100,4,3,48,65,0,0
91662,-142.857142857143,4,3,48,80,0,0
91818,-142.857142857143,4,3,48,60,0,0
92130,-142.857142857143,4,3,48,80,0,0
92287,-142.857142857143,4,3,48,60,0,0
92599,-142.857142857143,4,3,48,80,0,0
92912,-142.857142857143,4,3,48,60,0,0
93224,-142.857142857143,4,3,48,80,0,0
93537,-142.857142857143,4,3,48,65,0,0
93693,-142.857142857143,4,3,48,80,0,0
93849,-142.857142857143,4,3,48,60,0,0
94162,-142.857142857143,4,3,48,80,0,0
94318,-142.857142857143,4,3,48,60,0,0
94630,-142.857142857143,4,3,48,80,0,0
94787,-142.857142857143,4,3,48,60,0,0
95099,-142.857142857143,4,3,48,80,0,0
95412,-142.857142857143,4,3,0,65,0,0
96037,-142.857142857143,4,3,48,65,0,0
96662,-125,4,3,48,70,0,1
101349,-125,4,3,0,70,0,1
101505,-125,4,3,48,70,0,1
105724,-125,4,3,0,70,0,1
105880,-125,4,3,48,70,0,1
106349,-125,4,3,0,70,0,1
106505,-125,4,3,48,70,0,1
111037,-125,4,3,0,70,0,1
111193,-125,4,3,48,70,0,1
116662,-125,4,3,48,70,0,0
126662,-200,4,3,48,80,0,0
126818,-200,4,3,48,60,0,0
127912,-200,4,3,48,80,0,0
128068,-200,4,3,48,60,0,0
129162,-200,4,3,48,80,0,0
129318,-200,4,3,48,60,0,0
130412,-200,4,3,48,80,0,0
130568,-200,4,3,48,60,0,0
131662,-200,4,3,48,80,0,0
131818,-200,4,3,48,60,0,0
132912,-200,4,3,48,80,0,0
133068,-200,4,3,48,60,0,0
134162,-200,4,3,48,80,0,0
134318,-200,4,3,48,60,0,0
135412,-200,4,3,48,80,0,0
135568,-200,4,3,48,60,0,0
136662,-133.333333333334,4,3,48,80,0,0
136818,-133.333333333334,4,3,48,60,0,0
137912,-133.333333333334,4,3,48,80,0,0
138068,-133.333333333334,4,3,48,60,0,0
139162,-133.333333333334,4,3,48,80,0,0
139318,-133.333333333334,4,3,48,60,0,0
140412,-133.333333333334,4,3,48,80,0,0
140568,-133.333333333334,4,3,48,60,0,0
141662,-133.333333333334,4,3,48,80,0,0
141818,-133.333333333334,4,3,48,60,0,0
142912,-133.333333333334,4,3,48,80,0,0
143068,-133.333333333334,4,3,48,60,0,0
144162,-133.333333333334,4,3,48,80,0,0
144318,-133.333333333334,4,3,48,60,0,0
145412,-133.333333333334,4,3,48,80,0,0
145568,-133.333333333334,4,3,48,60,0,0
146662,-119.047619047619,4,3,48,80,0,0
146818,-119.047619047619,4,3,48,60,0,0
147912,-119.047619047619,4,3,48,80,0,0
148068,-119.047619047619,4,3,48,60,0,0
149162,-119.047619047619,4,3,48,80,0,0
149318,-119.047619047619,4,3,48,60,0,0
150412,-119.047619047619,4,3,48,80,0,0
150568,-119.047619047619,4,3,48,60,0,0
151662,-119.047619047619,4,3,48,80,0,0
151818,-119.047619047619,4,3,48,60,0,0
152912,-119.047619047619,4,3,48,80,0,0
153068,-119.047619047619,4,3,48,60,0,0
154162,-119.047619047619,4,3,48,80,0,0
154318,-119.047619047619,4,3,48,60,0,0
155412,-119.047619047619,4,3,48,80,0,0
155568,-119.047619047619,4,3,48,60,0,0
156662,-125,4,3,48,65,0,0
158537,-125,4,3,0,65,0,0
158693,-125,4,3,48,65,0,0
161037,-125,4,3,0,65,0,0
161193,-125,4,3,48,65,0,0
163537,-125,4,3,0,65,0,0
163693,-125,4,3,48,65,0,0
164162,-106.382978723404,4,3,48,65,0,0
167912,-106.382978723404,4,3,0,65,0,0
168537,-100,4,3,48,85,0,0
169162,-125,4,3,48,70,0,1
173849,-125,4,3,0,70,0,1
174005,-125,4,3,48,70,0,1
178224,-125,4,3,0,70,0,1
178380,-125,4,3,48,70,0,1
178849,-125,4,3,0,70,0,1
179005,-125,4,3,48,70,0,1
183537,-125,4,3,0,70,0,1
183693,-125,4,3,48,70,0,1
187912,-125,4,3,48,70,0,0
189162,-125,4,3,48,70,0,1
189318,-125,4,3,48,70,0,0
193849,-125,4,3,0,70,0,0
194005,-125,4,3,48,70,0,0
194162,-125,4,3,48,70,0,1
194318,-125,4,3,48,70,0,0
198224,-125,4,3,0,70,0,0
198380,-125,4,3,48,70,0,0
198849,-125,4,3,0,70,0,0
199005,-125,4,3,48,70,0,0
199162,-125,4,3,48,70,0,1
199318,-125,4,3,48,70,0,0
203537,-125,4,3,0,70,0,0
203693,-125,4,3,48,70,0,0
204162,-125,4,3,48,70,0,1
204318,-125,4,3,48,70,0,0
208849,-142.857142857143,4,3,0,70,0,0
209162,-125,4,3,48,70,0,1
209318,-125,4,2,0,40,0,0

[Colours]
Combo1 : 85,74,123
Combo2 : 201,185,185
Combo3 : 225,230,208
Combo4 : 204,85,77
Combo5 : 119,119,132

[HitObjects]
228,71,6662,5,4,0:3:0:0:
120,132,6818,2,0,B|184:142|184:142|222:154,1,101.999996887207
289,258,7287,2,0,L|282:193,1,50.9999984436036,0|0,0:0|0:0,0:0:0:0:
283,207,7599,1,0,0:0:0:0:
381,231,7755,6,0,B|396:187|396:187|403:120,1,101.999996887207
329,51,8224,2,0,L|379:41,1,50.9999984436036
379,41,8537,1,0,0:0:0:0:
234,198,8849,2,0,L|284:207,1,50.9999984436036
372,232,9162,5,0,0:0:0:0:
333,337,9318,2,0,B|401:339|401:339|444:349,1,101.999996887207
319,349,9787,2,0,L|309:296,1,50.9999984436036
309,298,10099,1,0,0:0:0:0:
226,334,10255,6,0,B|185:338|185:338|118:330,1,101.999996887207
83,248,10724,2,0,L|150:239,1,50.9999984436036
133,241,11037,1,0,0:0:0:0:
28,79,11349,2,0,L|88:89,1,50.9999984436036
161,130,11662,5,0,0:0:0:0:
222,29,11818,2,0,B|258:19|258:19|334:12,1,101.999996887207
401,99,12287,2,0,L|472:107,1,50.9999984436036
451,104,12599,1,0,0:0:0:0:
377,183,12755,6,0,B|359:215|359:215|340:285,1,101.999996887207
431,360,13224,2,0,L|424:311,1,50.9999984436036
423,310,13537,1,0,0:0:0:0:
203,325,13849,2,0,L|210:264,1,50.9999984436036
243,194,14162,5,0,0:0:0:0:
138,242,14318,2,0,B|122:207|122:207|110:133,1,101.999996887207
190,36,14787,2,0,L|122:48,1,50.9999984436036
139,44,15099,1,0,0:0:0:0:
112,144,15255,6,0,B|174:139|174:139|230:146,1,101.999996887207
288,239,15724,2,0,L|280:171,1,50.9999984436036
282,188,16037,6,0,P|368:187|408:133,1,148.75
417,156,16662,6,0,L|503:164,1,76.4999976654053
187,105,16974,1,8,0:0:0:0:
270,63,17130,1,0,0:0:0:0:
172,115,17287,2,0,B|159:152|159:152|146:224,1,101.999996887207,0|0,0:0|0:0,0:0:0:0:
242,276,17755,6,0,L|296:271,1,50.9999984436036
292,271,18068,1,0,0:0:0:0:
250,365,18224,1,0,0:0:0:0:
250,365,18380,2,0,L|199:362,1,50.9999984436036
118,307,18693,6,0,P|78:278|20:282,1,106.25
33,293,19162,6,0,L|44:208,1,76.4999976654053
24,24,19474,1,8,0:0:0:0:
69,98,19630,1,0,0:0:0:0:
181,67,19787,2,0,L|248:64,1,50.9999984436036
231,64,20099,1,0,0:0:0:0:
225,152,20255,6,0,B|265:154|265:154|330:164,1,101.999996887207
417,229,20724,2,0,L|358:238,1,50.9999984436036
366,236,21037,6,0,P|319:283|237:275,1,148.75
252,271,21662,6,0,L|243:353,1,76.4999976654053
210,103,21974,1,8,0:0:0:0:
285,135,22130,1,0,0:0:0:0:
386,100,22287,2,0,L|460:94,1,50.9999984436036
436,95,22599,1,0,0:0:0:0:
402,185,22755,6,0,B|365:201|365:201|299:213,1,101.999996887207
225,266,23224,1,0,0:0:0:0:
225,266,23380,6,0,P|326:258|374:333,1,191.25
369,338,24162,6,0,L|478:347,1,76.4999976654053
147,225,24474,1,8,0:0:0:0:
122,310,24630,1,0,0:0:0:0:
69,198,24787,2,0,L|62:139,1,50.9999984436036
62,147,25099,1,0,0:0:0:0:
147,225,25255,6,0,L|151:165,2,50.9999984436036,0|0|0,0:0|0:0|0:0,0:0:0:0:
236,268,25724,2,0,L|230:207,2,50.9999984436036,0|0|0,0:0|0:0|0:0,0:0:0:0:
314,339,26193,5,0,0:0:0:0:
330,342,26271,1,0,0:0:0:0:
342,345,26349,5,8,0:0:0:0:
352,295,26427,1,0,0:0:0:0:
389,260,26505,1,8,0:0:0:0:
438,251,26583,1,0,0:0:0:0:
488,264,26662,6,0,L|501:169,1,85,0|0,0:0|0:0,0:0:0:0:
323,228,26974,2,0,P|271:231|223:209,1,85,8|0,0:0|0:0,0:0:0:0:
166,155,27287,1,0,0:0:0:0:
166,155,27443,2,0,L|61:160,1,85,0|0,0:0|0:0,0:0:0:0:
262,100,27755,6,0,B|318:118|318:118|444:126,1,170,8|0,0:0|0:0,0:0:0:0:
290,28,28224,2,0,P|221:34|187:64,1,85,8|0,0:0|0:0,0:0:0:0:
166,155,28537,1,0,0:0:0:0:
82,130,28693,1,0,0:0:0:0:
135,238,28849,2,0,L|194:231,3,42.5,2|0|0|0,0:3|0:0|0:0|0:0,0:0:0:0:
112,260,29162,6,0,P|157:267|221:268,1,85
327,149,29474,2,0,P|311:179|318:241,1,85,8|0,0:0|0:0,0:0:0:0:
349,319,29787,1,0,0:0:0:0:
349,319,29943,2,0,L|244:323,1,85,0|0,0:0|0:0,0:0:0:0:
158,334,30255,6,0,P|89:340|18:257,1,170
194,240,30724,2,0,B|163:252|163:252|95:264,1,85,8|0,0:0|0:0,0:0:0:0:
141,169,31037,1,0,0:0:0:0:
141,169,31193,1,0,0:0:0:0:
289,269,31349,1,8,0:0:0:0:
337,284,31427,1,0,0:0:0:0:
385,273,31505,1,8,0:0:0:0:
422,238,31583,1,0,0:0:0:0:
439,189,31662,6,0,L|525:196,1,85
340,189,31974,2,0,P|298:141|286:90,1,85,8|0,0:0|0:0,0:0:0:0:
296,24,32287,1,0,0:0:0:0:
296,24,32443,2,0,L|182:39,1,85,0|0,0:0|0:0,0:0:0:0:
27,53,32755,6,0,B|85:63|85:63|197:118,1,170,8|0,0:0|0:0,0:0:0:0:
231,286,33224,2,0,P|217:244|228:189,1,85,8|0,0:0|0:0,0:0:0:0:
280,125,33537,1,0,0:0:0:0:
280,125,33693,1,0,0:0:0:0:
163,84,33849,2,0,L|154:35,3,42.5,2|0|0|0,0:3|0:0|0:0|0:0,0:0:0:0:
144,112,34162,6,0,P|103:121|55:121,1,85
227,186,34474,1,8,0:0:0:0:
140,229,34630,1,0,0:0:0:0:
46,218,34787,1,0,0:0:0:0:
46,218,34943,2,0,L|33:309,1,85,0|0,0:0|0:0,0:0:0:0:
121,339,35255,6,0,B|176:317|176:317|299:298,1,170
494,321,35724,2,0,P|450:325|397:301,1,85,8|0,0:0|0:0,0:0:0:0:
345,236,36037,1,0,0:0:0:0:
345,236,36193,1,0,0:0:0:0:
395,123,36349,1,8,0:0:0:0:
355,90,36427,1,0,0:0:0:0:
304,93,36505,1,8,0:0:0:0:
253,99,36583,1,0,0:0:0:0:
201,105,36662,6,0,P|137:98|97:80,1,93.5000028533936
252,226,36974,2,0,L|363:237,1,93.5000028533936,8|0,0:0|0:0,0:0:0:0:
437,223,37287,1,0,0:0:0:0:
512,279,37443,1,0,0:0:0:0:
472,102,37599,1,8,0:0:0:0:
381,124,37755,6,0,B|322:107|322:107|269:73|269:73|196:52,1,187.000005706787
418,50,38224,1,8,0:0:0:0:
295,134,38380,2,0,L|194:144,1,93.5000028533936
201,143,38693,1,0,0:0:0:0:
141,305,38849,2,0,P|79:295|39:278,1,93.5000028533936,8|0,0:0|0:0,0:0:0:0:
101,181,39162,5,0,0:0:0:0:
10,203,39318,1,0,0:0:0:0:
227,257,39474,2,0,L|350:263,1,93.5000028533936,8|0,0:0|0:0,0:0:0:0:
425,231,39787,1,0,0:0:0:0:
425,231,39943,1,0,0:0:0:0:
294,137,40099,2,0,P|336:117|386:120,1,93.5000028533936,8|0,0:0|0:0,0:0:0:0:
467,163,40412,6,0,L|477:60,1,93.5000028533936
352,192,40724,1,0,0:0:0:0:
276,127,40880,2,0,P|217:119|164:115,1,93.5000028533936
183,116,41193,1,0,0:0:0:0:
268,294,41349,1,8,0:0:0:0:
182,339,41505,1,0,0:0:0:0:
348,331,41662,6,0,P|409:334|455:344,1,93.5000028533936
352,192,41974,2,0,L|249:204,2,93.5000028533936,8|0|0,0:0|0:0|0:0,0:0:0:0:
450,206,42443,1,0,0:0:0:0:
290,126,42599,2,0,P|226:126|195:140,1,93.5000028533936,8|0,0:0|0:0,0:0:0:0:
121,192,42912,6,0,B|114:156|114:156|111:96,1,93.5000028533936
184,277,43224,1,8,0:0:0:0:
100,223,43380,2,0,L|77:100,1,93.5000028533936
41,41,43693,1,0,0:0:0:0:
245,68,43849,1,8,0:0:0:0:
222,154,44005,1,0,0:0:0:0:
312,131,44162,6,0,P|358:124|426:148,1,93.5000028533936
347,296,44474,2,0,L|355:181,1,93.5000028533936,8|0,0:0|0:0,0:0:0:0:
299,122,44787,1,0,0:0:0:0:
236,253,44943,1,8,0:0:0:0:
157,199,45099,2,0,P|112:186|52:198,1,93.5000028533936
11,285,45412,6,0,L|110:264,1,93.5000028533936
190,102,45724,2,0,B|184:66|184:66|181:6,1,93.5000028533936,8|0,0:0|0:0,0:0:0:0:
295,171,46037,1,8,0:0:0:0:
383,132,46193,1,0,0:0:0:0:
478,269,46349,1,8,0:0:0:0:
386,242,46505,6,0,P|357:241|256:252,1,110.499994941712
256,192,49162,12,0,50412,0:0:0:0:
60,310,50568,5,8,0:0:0:0:
150,318,50724,1,8,0:0:0:0:
240,328,50880,1,4,0:0:0:0:
243,159,51037,1,8,0:0:0:0:
297,233,51193,1,0,0:0:0:0:
304,247,51662,5,4,0:0:0:0:
321,123,51818,2,0,P|375:85|467:99,1,136
215,71,52287,1,8,0:0:0:0:
243,159,52443,1,0,0:0:0:0:
150,141,52599,2,0,L|59:151,1,68
59,277,52912,5,0,0:0:0:0:
110,348,53068,2,0,P|102:282|142:221,1,136
358,359,53537,1,8,0:0:0:0:
277,311,53693,2,0,L|268:164,1,136
238,83,54162,5,0,0:0:0:0:
186,193,54318,2,0,P|110:199|51:160,1,136
277,311,54787,1,8,0:0:0:0:
361,283,54943,1,0,0:0:0:0:
413,213,55099,2,0,L|424:132,1,68
482,277,55412,5,0,0:0:0:0:
413,213,55568,2,0,P|368:171|297:171,1,136
168,362,56037,1,8,0:0:0:0:
218,217,56193,1,0,0:0:0:0:
122,289,56349,2,0,L|41:295,1,68,4|0,0:0|0:0,0:0:0:0:
189,128,56662,5,4,0:0:0:0:
218,217,56818,2,0,L|374:224,1,136
122,289,57287,1,8,0:0:0:0:
66,216,57443,2,0,P|39:206|-9:196,2,68,0|0|0,0:0|0:0|0:0,0:0:0:0:
35,303,57912,5,0,0:0:0:0:
66,217,58068,2,0,P|111:184|197:200,1,136
98,374,58537,1,8,0:0:0:0:
186,337,58693,2,0,L|345:324,1,136
390,240,59162,5,0,0:0:0:0:
470,278,59318,2,0,P|508:229|501:155,1,136
280,108,59787,1,8,0:0:0:0:
346,165,59943,1,0,0:0:0:0:
361,78,60099,2,0,L|367:-9,1,68
230,246,60412,5,8,0:0:0:0:
208,147,60568,1,0,0:0:0:0:
164,347,60724,1,8,0:0:0:0:
100,266,60880,1,0,0:0:0:0:
315,326,61037,2,0,L|402:321,1,68,8|0,0:0|0:0,0:0:0:0:
394,129,61349,1,4,0:0:0:0:
348,221,61505,1,0,0:0:0:0:
312,47,61662,5,4,0:0:0:0:
238,115,61818,2,0,P|170:122|109:82,1,136
251,205,62287,1,8,0:0:0:0:
165,175,62443,1,0,0:0:0:0:
92,235,62599,2,0,L|12:238,1,68
181,269,62912,5,0,0:0:0:0:
251,205,63068,2,0,P|316:195|379:234,1,136
347,372,63537,1,8,0:0:0:0:
412,304,63693,2,0,L|422:158,1,136
459,45,64162,5,0,0:0:0:0:
376,94,64318,2,0,P|332:101|246:37,1,136
56,95,64787,1,8,0:0:0:0:
138,136,64943,2,0,L|214:131,2,68,0|0|0,0:0|0:0|0:0,0:0:0:0:
24,236,65412,5,0,0:0:0:0:
45,323,65568,1,0,0:0:0:0:
263,231,65724,1,8,0:0:0:0:
174,264,65880,1,0,0:0:0:0:
277,237,66037,1,4,0:0:0:0:
342,156,66193,1,0,0:0:0:0:
372,342,66349,2,0,P|405:350|439:354,1,68,8|0,0:0|0:0,0:0:0:0:
263,231,66662,5,4,0:0:0:0:
175,264,66818,2,0,P|107:269|47:215,1,136
284,90,67287,2,0,L|212:95,1,68,8|0,0:0|0:0,0:0:0:0:
135,188,67599,1,0,0:0:0:0:
43,160,67755,1,0,0:0:0:0:
152,300,67912,5,0,0:0:0:0:
81,240,68068,2,0,L|95:75,1,136
225,221,68537,1,8,0:0:0:0:
258,135,68693,1,0,0:0:0:0:
253,40,68849,2,0,L|329:46,1,68
440,187,69162,5,0,0:0:0:0:
359,136,69318,2,0,P|350:71|408:6,1,136
173,92,69787,2,0,L|90:98,2,68,8|0|0,0:0|0:0|0:0,0:0:0:0:
253,40,70255,1,0,0:0:0:0:
219,177,70412,5,8,0:0:0:0:
112,211,70568,1,0,0:0:0:0:
193,292,70724,1,0,0:0:0:0:
230,170,70880,5,8,0:0:0:0:
198,307,71037,1,0,0:0:0:0:
95,206,71193,1,0,0:0:0:0:
203,318,71349,6,0,L|299:323,1,76.4999976654053,8|2,0:0|0:0,0:0:0:0:
378,348,71662,1,0,0:0:0:0:
388,281,81662,5,0,0:0:0:0:
388,281,81818,1,0,0:0:0:0:
260,332,81974,2,0,L|170:325,1,85,8|0,0:0|0:0,0:0:0:0:
102,262,82287,2,0,P|45:249|12:255,1,85
250,248,82599,1,8,0:0:0:0:
277,160,82755,1,0,0:0:0:0:
345,95,82912,6,0,L|450:84,2,85,0|0|8,0:0|0:0|0:0,0:0:0:0:
258,71,83380,1,0,0:0:0:0:
258,71,83537,2,0,P|211:73|167:54,1,85
17,151,83849,2,0,L|120:159,1,85,8|0,0:0|0:0,0:0:0:0:
204,200,84162,5,0,0:0:0:0:
204,200,84318,1,0,0:0:0:0:
225,333,84474,2,0,P|271:335|316:324,1,85,8|0,0:0|0:0,0:0:0:0:
367,246,84787,2,0,L|378:159,2,85,0|0|8,0:0|0:0|0:0,0:0:0:0:
289,190,85255,6,0,P|228:122|148:135,1,170
284,283,85724,1,8,0:0:0:0:
204,201,85880,2,0,L|94:215,1,85
40,259,86193,1,0,0:0:0:0:
101,75,86349,2,0,P|141:55|183:44,1,85,8|0,0:0|0:0,0:0:0:0:
292,71,86662,5,0,0:0:0:0:
292,71,86818,1,0,0:0:0:0:
250,238,86974,2,0,P|232:191|245:137,1,85,8|0,0:0|0:0,0:0:0:0:
292,72,87287,2,0,L|395:84,2,85,0|0|8,0:0|0:0|0:0,0:0:0:0:
206,28,87755,1,0,0:0:0:0:
115,92,87912,6,0,P|57:97|17:97,1,85
148,282,88224,1,8,0:0:0:0:
186,197,88380,2,0,B|240:187|240:187|360:182,1,170
443,329,88849,2,0,P|430:290|438:218,1,85,8|0,0:0|0:0,0:0:0:0:
472,152,89162,5,0,0:0:0:0:
472,152,89318,1,0,0:0:0:0:
301,90,89474,1,8,0:0:0:0:
279,182,89630,2,0,P|224:200|115:148,1,170
59,325,90099,2,0,P|119:303|156:306,1,85,8|0,0:0|0:0,0:0:0:0:
249,339,90412,6,0,L|320:345,1,72.2500013780594
185,219,90724,2,0,L|176:128,1,76.4999976654053,8|0,0:0|0:0,0:0:0:0:
292,257,91037,2,0,P|336:270|391:270,1,80.7499978437424
501,135,91349,2,0,L|416:144,1,85,8|0,0:0|0:0,0:0:0:0:
250,176,91662,6,0,P|219:129|229:58,1,118.999996368408
223,68,92130,2,0,L|96:78,1,118.999996368408
104,77,92599,1,0,0:0:0:0:
190,261,92912,5,0,0:0:0:0:
197,247,93224,1,0,0:0:0:0:
374,353,93537,2,0,L|370:279,1,59.4999981842042,8|0,0:0|0:0,0:0:0:0:
370,293,93849,1,0,0:0:0:0:
220,344,94162,6,0,P|181:350|108:315,1,118.999996368408
110,317,94630,2,0,B|130:263|130:263|134:198,1,118.999996368408
133,202,95099,1,0,0:0:0:0:
331,143,95412,6,0,L|404:149,1,59.4999981842042,8|0,0:0|0:0,0:0:0:0:
367,234,95724,2,0,L|430:230,1,59.4999981842042,4|0,0:0|0:0,0:0:0:0:
380,68,96037,5,8,0:0:0:0:
285,268,96193,1,8,0:0:0:0:
249,164,96349,1,8,0:0:0:0:
412,311,96505,1,8,0:0:0:0:
220,339,96662,5,4,0:0:0:0:
194,249,96818,2,0,P|142:215|50:236,1,136
236,71,97287,1,8,0:0:0:0:
249,164,97443,2,0,P|285:171|332:171,1,68
316,172,97755,1,0,0:0:0:0:
236,71,97912,5,0,0:0:0:0:
347,92,98068,2,0,P|395:149|388:215,1,136
199,351,98537,1,8,0:0:0:0:
270,292,98693,2,0,L|434:302,1,136
505,362,99162,5,0,0:0:0:0:
490,272,99318,2,0,P|426:219|353:232,1,136
440,50,99787,1,8,0:0:0:0:
400,126,99943,1,0,0:0:0:0:
296,112,100099,2,0,L|213:117,1,68
113,101,100412,5,0,0:0:0:0:
213,126,100568,2,0,P|249:167|236:258,1,136
50,172,101037,1,8,0:0:0:0:
174,203,101193,1,0,0:0:0:0:
13,264,101349,2,0,P|16:297|23:331,1,68,4|0,0:0|0:0,0:0:0:0:
271,332,101662,5,4,0:0:0:0:
328,255,101818,2,0,L|490:243,1,136
355,115,102287,1,8,0:0:0:0:
441,147,102443,2,0,P|475:141|511:127,2,68,0|0|0,0:0|0:0|0:0,0:0:0:0:
343,105,102912,5,0,0:0:0:0:
261,156,103068,2,0,P|209:166|130:119,1,136
348,200,103537,1,8,0:0:0:0:
268,253,103693,1,0,0:0:0:0:
182,210,103849,2,0,L|103:217,1,68
90,328,104162,5,0,0:0:0:0:
180,297,104318,2,0,L|326:309,1,136
500,345,104787,1,8,0:0:0:0:
439,279,104943,2,0,P|432:227|501:163,1,136
305,198,105412,5,8,0:0:0:0:
315,103,105568,1,0,0:0:0:0:
197,251,105724,1,8,0:0:0:0:
163,157,105880,1,0,0:0:0:0:
331,279,106037,2,0,L|400:275,1,68,8|0,0:0|0:0,0:0:0:0:
212,338,106349,1,0,0:0:0:0:
308,376,106505,1,0,0:0:0:0:
181,244,106662,5,4,0:0:0:0:
80,254,106818,2,0,P|39:210|46:126,1,136
273,175,107287,1,8,0:0:0:0:
196,124,107443,1,0,0:0:0:0:
276,87,107599,2,0,L|363:75,1,68
451,39,107912,5,0,0:0:0:0:
508,111,108068,2,0,P|516:182|467:235,1,136
213,141,108537,1,8,0:0:0:0:
308,181,108693,2,0,L|459:153,1,136
432,336,109162,5,0,0:0:0:0:
389,256,109318,2,0,P|333:228|254:251,1,136
441,157,109787,1,8,0:0:0:0:
380,85,109943,1,0,0:0:0:0:
285,107,110099,2,0,L|202:96,1,68
121,141,110412,5,0,0:0:0:0:
94,52,110568,1,0,0:0:0:0:
46,263,110724,1,8,0:0:0:0:
140,241,110880,1,0,0:0:0:0:
246,294,111037,1,4,0:0:0:0:
158,234,111193,1,0,0:0:0:0:
333,149,111349,2,0,P|383:141|429:149,1,68,8|0,0:0|0:0,0:0:0:0:
496,308,111662,5,4,0:0:0:0:
438,233,111818,2,0,P|373:222|297:272,1,136
345,55,112287,1,8,0:0:0:0:
260,89,112443,2,0,L|189:98,1,68,0|0,0:0|0:0,0:0:0:0:
192,97,112755,1,0,0:0:0:0:
333,149,112912,5,0,0:0:0:0:
248,181,113068,2,0,L|91:173,1,136
266,309,113537,1,8,0:0:0:0:
318,236,113693,2,0,P|381:228|445:269,1,136
411,375,114162,5,0,0:0:0:0:
488,332,114318,2,0,L|499:171,1,136
254,78,114787,1,8,0:0:0:0:
282,170,114943,2,0,P|321:194|414:181,1,136
482,35,115412,5,8,0:0:0:0:
422,102,115568,2,0,L|344:117,1,68,0|0,0:0|0:0,0:0:0:0:
254,78,115880,1,0,0:0:0:0:
216,259,116037,2,0,P|152:250|133:241,2,68,8|0|0,0:0|0:0|0:0,0:0:0:0:
301,235,116505,1,0,0:0:0:0:
428,328,116662,5,4,0:0:0:0:
284,59,126662,6,0,P|201:57|162:86,2,127.5,0|0|0,0:0|0:0|0:0,0:0:0:0:
345,146,127912,5,0,0:0:0:0:
345,146,128068,2,0,L|483:157,1,127.5
436,246,128849,1,0,0:0:0:0:
390,331,129162,6,0,P|324:338|258:316,1,127.5,0|0,0:0|0:0,0:0:0:0:
267,321,129787,1,0,0:0:0:0:
171,331,130099,1,0,0:0:0:0:
77,337,130412,6,0,P|39:283|45:220,1,127.5,0|0,0:0|0:0,0:0:0:0:
43,224,131037,1,0,0:0:0:0:
139,234,131349,1,0,0:0:0:0:
219,182,131662,6,0,P|272:151|347:160,2,127.5,0|0|0,0:0|0:0|0:0,0:0:0:0:
225,275,132912,5,0,0:0:0:0:
225,275,133068,2,0,L|85:281,1,127.5
114,184,133849,1,0,0:0:0:0:
137,94,134162,6,0,P|203:100|259:66,1,127.5
254,70,134787,1,0,0:0:0:0:
355,91,135099,1,0,0:0:0:0:
452,111,135412,6,0,P|481:187|461:243,1,127.5
469,229,136037,1,0,0:0:0:0:
488,324,136349,1,0,0:0:0:0:
289,195,136662,6,0,P|262:184|227:175,1,63.7500024318696,0|0,0:0|0:0,0:0:0:0:
113,316,136974,2,0,L|41:324,2,63.7500024318696,8|0|0,0:0|0:0|0:0,0:0:0:0:
260,282,137443,2,0,L|329:291,2,63.7500024318696,8|0|0,0:0|0:0|0:0,0:0:0:0:
101,212,137912,6,0,P|92:180|92:129,2,63.7500024318696,8|0|0,0:0|0:0|0:0,0:0:0:0:
218,87,138380,2,0,L|132:80,2,63.7500024318696,8|0|0,0:0|0:0|0:0,0:0:0:0:
356,187,138849,1,8,0:0:0:0:
395,99,139005,1,0,0:0:0:0:
395,99,139083,1,0,0:0:0:0:
395,99,139162,6,0,L|479:108,1,63.7500024318696,0|0,0:0|0:0,0:0:0:0:
331,272,139474,2,0,P|318:311|317:344,2,63.7500024318696,8|0|0,0:0|0:0|0:0,0:0:0:0:
443,193,139943,2,0,L|520:186,2,63.7500024318696,8|0|0,0:0|0:0|0:0,0:0:0:0:
267,207,140412,6,0,L|190:194,2,63.7500024318696,8|0|0,0:0|0:0|0:0,0:0:0:0:
395,99,140880,2,0,P|417:55|426:31,2,63.7500024318696,8|0|0,0:0|0:0|0:0,0:0:0:0:
211,57,141349,1,8,0:0:0:0:
146,131,141505,1,0,0:0:0:0:
146,131,141583,1,0,0:0:0:0:
146,131,141662,6,0,L|55:143,1,63.7500024318696
225,269,141974,2,0,P|258:278|300:280,2,63.7500024318696,8|0|0,0:0|0:0|0:0,0:0:0:0:
249,146,142443,2,0,P|283:134|328:126,2,63.7500024318696,8|0|0,0:0|0:0|0:0,0:0:0:0:
144,286,142912,6,0,P|158:314|179:339,2,63.7500024318696,8|0|0,0:0|0:0|0:0,0:0:0:0:
353,266,143380,2,0,L|428:255,2,63.7500024318696,8|0|0,0:0|0:0|0:0,0:0:0:0:
166,181,143849,1,8,0:0:0:0:
83,229,144005,1,0,0:0:0:0:
83,229,144083,1,0,0:0:0:0:
83,229,144162,6,0,L|10:223,1,63.7500024318696,0|0,0:0|0:0,0:0:0:0:
217,110,144474,2,0,P|250:103|297:103,2,63.7500024318696,8|0|0,0:0|0:0|0:0,0:0:0:0:
361,208,144943,2,0,L|353:127,2,63.7500024318696,8|0|0,0:0|0:0|0:0,0:0:0:0:
420,352,145412,6,0,P|459:346|493:337,2,63.7500024318696,8|0|0,0:0|0:0|0:0,0:0:0:0:
270,254,145880,2,0,L|277:177,2,63.7500024318696,8|0|0,0:0|0:0|0:0,0:0:0:0:
180,364,146349,1,8,0:0:0:0:
99,300,146505,1,0,0:0:0:0:
99,300,146583,1,0,0:0:0:0:
99,300,146662,6,0,P|135:296|175:286,1,71.399997821045,0|0,0:0|0:0,0:0:0:0:
290,179,146974,2,0,L|284:98,1,71.399997821045,8|0,0:0|0:0,0:0:0:0:
284,107,147287,1,0,0:0:0:0:
358,247,147443,2,0,P|399:251|439:253,2,71.399997821045,8|0|0,0:0|0:0|0:0,0:0:0:0:
196,144,147912,6,0,L|188:224,1,71.399997821045,8|0,0:0|0:0,0:0:0:0:
188,215,148224,1,0,0:0:0:0:
140,72,148380,2,0,P|88:56|60:52,2,71.399997821045,8|0|0,0:0|0:0|0:0,0:0:0:0:
290,179,148849,1,8,0:0:0:0:
356,102,149005,1,0,0:0:0:0:
356,102,149083,1,0,0:0:0:0:
356,102,149162,6,0,L|438:107,1,71.399997821045
474,291,149474,2,0,P|464:256|458:211,1,71.399997821045,8|0,0:0|0:0,0:0:0:0:
458,221,149787,1,0,0:0:0:0:
308,332,149943,2,0,L|206:343,2,71.399997821045,8|0|0,0:0|0:0|0:0,0:0:0:0:
361,185,150412,6,0,P|309:178|279:181,1,71.399997821045,8|0,0:0|0:0,0:0:0:0:
290,179,150724,1,0,0:0:0:0:
160,88,150880,2,0,P|163:50|170:13,2,71.399997821045,8|0|0,0:0|0:0|0:0,0:0:0:0:
217,255,151349,1,8,0:0:0:0:
132,317,151505,1,0,0:0:0:0:
132,317,151583,1,0,0:0:0:0:
132,317,151662,6,0,P|86:320|39:320,1,71.399997821045
103,164,151974,2,0,L|191:172,1,71.399997821045,8|0,0:0|0:0,0:0:0:0:
174,170,152287,1,0,0:0:0:0:
286,327,152443,2,0,L|361:319,2,71.399997821045,8|0|0,0:0|0:0|0:0,0:0:0:0:
358,192,152912,6,0,P|418:170|455:167,1,71.399997821045,8|0,0:0|0:0,0:0:0:0:
425,168,153224,1,0,0:0:0:0:
280,87,153380,2,0,L|270:11,2,71.399997821045,8|0|0,0:0|0:0|0:0,0:0:0:0:
261,251,153849,1,8,0:0:0:0:
183,186,154005,1,0,0:0:0:0:
183,186,154083,1,0,0:0:0:0:
183,186,154162,6,0,L|92:178,1,71.399997821045
236,318,154474,2,0,P|250:285|260:251,1,71.399997821045,8|0,0:0|0:0,0:0:0:0:
261,251,154787,1,0,0:0:0:0:
357,352,154943,2,0,L|450:343,2,71.399997821045,8|0|0,0:0|0:0|0:0,0:0:0:0:
160,277,155412,6,0,L|70:268,1,71.399997821045,8|0,0:0|0:0,0:0:0:0:
88,269,155724,1,0,0:0:0:0:
286,181,155880,2,0,P|293:142|296:96,2,71.399997821045,8|0|0,0:0|0:0|0:0,0:0:0:0:
126,108,156349,1,8,0:0:0:0:
151,203,156505,1,0,0:0:0:0:
151,203,156583,1,0,0:0:0:0:
151,203,156662,5,4,0:0:0:0:
88,269,156818,2,0,P|181:238|233:263,1,136
336,370,157287,1,8,0:0:0:0:
351,365,157599,5,4,0:0:0:0:
289,281,157755,2,0,L|282:144,1,136
485,222,158224,2,0,P|452:218|398:203,1,68,8|0,0:0|0:0,0:0:0:0:
282,145,158537,1,4,0:0:0:0:
184,198,158693,1,0,0:0:0:0:
343,89,158849,1,8,0:0:0:0:
302,64,158927,1,0,0:0:0:0:
254,68,159005,1,8,0:0:0:0:
207,75,159083,1,0,0:0:0:0:
159,83,159162,5,4,0:0:0:0:
196,185,159318,2,0,P|195:252|123:302,1,136
282,145,159787,1,8,0:0:0:0:
297,154,160099,5,4,0:0:0:0:
254,250,160255,2,0,L|391:259,1,136
196,185,160724,2,0,P|153:192|114:209,1,68,8|0,0:0|0:0,0:0:0:0:
145,321,161037,1,4,0:0:0:0:
124,214,161193,1,0,0:0:0:0:
289,352,161349,2,0,L|385:346,1,68,8|0,0:0|0:0,0:0:0:0:
453,186,161662,5,4,0:0:0:0:
390,259,161818,2,0,P|327:265|258:210,1,136
250,37,162287,1,8,0:0:0:0:
239,48,162599,5,4,0:0:0:0:
162,113,162755,2,0,L|155:266,1,136
345,183,163224,2,0,P|408:166|437:166,1,68,8|0,0:0|0:0,0:0:0:0:
322,300,163537,1,4,0:0:0:0:
337,200,163693,1,0,0:0:0:0:
157,251,163849,1,8,0:0:0:0:
120,219,163927,1,0,0:0:0:0:
97,176,164005,1,8,0:0:0:0:
97,128,164083,1,0,0:0:0:0:
120,85,164162,5,4,0:0:0:0:
188,154,164318,2,0,P|254:167|337:113,1,159.799997561646
322,300,164787,1,8,0:0:0:0:
337,308,165099,5,4,0:0:0:0:
245,352,165255,2,0,L|77:364,1,159.799997561646
190,160,165724,2,0,P|159:151|85:138,1,79.8999987808228,8|0,0:0|0:0,0:0:0:0:
287,226,166037,1,8,0:0:0:0:
163,69,166193,2,0,P|77:63|47:66,1,79.8999987808228,4|0,0:0|0:0,0:0:0:0:
46,189,166505,1,8,0:0:0:0:
46,189,166583,1,0,0:0:0:0:
46,190,166662,6,0,P|120:148|218:182,1,159.799997561646,4|0,0:0|0:0,0:0:0:0:
296,306,167130,2,0,L|286:216,1,79.8999987808228,8|0,0:0|0:0,0:0:0:0:
287,226,167443,1,0,0:0:0:0:
72,352,167599,2,0,L|87:259,1,79.8999987808228,8|0,0:0|0:0,0:0:0:0:
190,161,167912,5,8,0:0:0:0:
110,95,168068,1,8,0:0:0:0:
202,180,168224,1,4,0:0:0:0:
264,39,168380,1,4,0:0:0:0:
355,183,168537,6,0,B|383:174|383:174|416:169,2,56.6666666666667,8|0|0,0:0|0:0|0:0,0:0:0:0:
425,292,168849,2,0,B|450:294|450:294|492:305,2,56.6666666666667,8|0|0,0:0|0:0|0:0,0:0:0:0:
295,305,169162,5,4,0:0:0:0:
230,234,169318,2,0,P|200:223|100:263,1,136
256,138,169787,1,8,0:0:0:0:
173,181,169943,1,0,0:0:0:0:
74,154,170099,2,0,L|-11:146,1,68
107,255,170412,5,0,0:0:0:0:
173,181,170568,2,0,P|176:122|122:62,1,136
262,270,171037,1,8,0:0:0:0:
355,243,171193,2,0,L|516:251,1,136
463,154,171662,5,0,0:0:0:0:
423,288,171818,2,0,P|367:325|294:304,1,136
258,134,172287,1,8,0:0:0:0:
190,198,172443,2,0,L|97:206,2,68,0|0|0,0:0|0:0|0:0,0:0:0:0:
341,204,172912,5,0,0:0:0:0:
258,134,173068,2,0,P|246:80|305:7,1,136
434,233,173537,1,8,0:0:0:0:
488,59,173693,1,0,0:0:0:0:
395,94,173849,2,0,L|328:89,1,68,4|0,0:0|0:0,0:0:0:0:
345,260,174162,5,4,0:0:0:0:
376,174,174318,2,0,P|315:129|237:146,1,136
195,320,174787,1,8,0:0:0:0:
121,262,174943,2,0,L|43:254,1,68,0|0,0:0|0:0,0:0:0:0:
53,255,175255,1,0,0:0:0:0:
174,202,175412,5,0,0:0:0:0:
244,264,175568,2,0,P|325:273|374:239,1,136
496,349,176037,1,8,0:0:0:0:
408,316,176193,2,0,L|416:149,1,136
436,41,176662,5,0,0:0:0:0:
379,106,176818,2,0,P|327:120|255:79,1,136
102,210,177287,1,8,0:0:0:0:
194,243,177443,2,0,L|279:235,2,68,0|0|0,0:0|0:0|0:0,0:0:0:0:
89,103,177912,5,0,0:0:0:0:
102,210,178068,1,0,0:0:0:0:
246,142,178224,1,8,0:0:0:0:
194,243,178380,1,0,0:0:0:0:
327,169,178537,2,0,L|332:88,1,68,8|0,0:0|0:0,0:0:0:0:
274,289,178849,1,4,0:0:0:0:
379,261,179005,1,0,0:0:0:0:
255,379,179162,5,4,0:0:0:0:
274,289,179318,2,0,P|216:249|131:266,1,136
405,349,179787,1,8,0:0:0:0:
379,261,179943,1,0,0:0:0:0:
434,181,180099,2,0,P|445:147|452:109,1,68
302,191,180412,5,0,0:0:0:0:
211,147,180568,2,0,P|199:86|255:14,1,136
176,296,181037,1,8,0:0:0:0:
140,208,181193,2,0,L|-16:194,1,136
80,317,181662,5,0,0:0:0:0:
176,296,181818,2,0,P|223:283|312:327,1,136
211,147,182287,1,8,0:0:0:0:
303,175,182443,2,0,L|377:168,2,68,0|0|0,0:0|0:0|0:0,0:0:0:0:
174,35,182912,5,0,0:0:0:0:
273,7,183068,1,0,0:0:0:0:
201,159,183224,1,8,0:0:0:0:
101,102,183380,1,0,0:0:0:0:
172,274,183537,1,4,0:0:0:0:
275,233,183693,1,0,0:0:0:0:
231,381,183849,2,0,L|197:376|163:371,1,68,8|0,0:0|0:0,0:0:0:0:
287,238,184162,5,4,0:0:0:0:
358,298,184318,2,0,P|432:298|488:243,1,136
377,87,184787,2,0,L|310:80,1,68,8|0,0:0|0:0,0:0:0:0:
397,219,185099,1,0,0:0:0:0:
479,167,185255,1,0,0:0:0:0:
384,211,185412,5,0,0:0:0:0:
297,156,185568,2,0,P|250:146|173:189,1,136
189,367,186037,1,8,0:0:0:0:
135,282,186193,2,0,L|-29:288,1,136
79,196,186662,5,0,0:0:0:0:
135,282,186818,2,0,P|178:310|287:294,1,136
328,102,187287,1,8,0:0:0:0:
364,186,187443,2,0,L|438:178,1,68
251,53,187755,1,0,0:0:0:0:
246,63,187833,1,0,0:0:0:0:
242,73,187912,5,8,0:0:0:0:
263,173,188068,2,0,L|103:187,1,136
132,88,188537,5,8,0:0:0:0:
207,257,188693,1,8,0:0:0:0:
154,104,188849,1,8,0:0:0:0:
199,288,189005,1,8,0:0:0:0:
263,173,189162,5,4,0:0:0:0:
343,234,189318,2,0,P|409:238|464:200,1,136
264,354,189787,1,8,0:0:0:0:
232,258,189943,2,0,L|78:239,1,136
63,129,190412,5,0,0:0:0:0:
148,166,190568,2,0,P|110:155|9:208,1,136
170,323,191037,1,8,0:0:0:0:
232,258,191193,1,0,0:0:0:0:
261,173,191349,2,0,L|343:167,1,68
460,289,191662,5,0,0:0:0:0:
376,245,191818,2,0,P|362:200|413:127,1,136
223,83,192287,1,8,0:0:0:0:
260,173,192443,2,0,L|122:164,1,136
20,350,192912,5,0,0:0:0:0:
89,290,193068,2,0,P|141:281|225:343,1,136
108,169,193537,1,8,0:0:0:0:
136,363,193693,1,0,0:0:0:0:
241,243,193849,2,0,P|207:244|174:249,1,68
368,291,194162,5,4,0:0:0:0:
343,199,194318,2,0,P|386:165|482:177,1,136
242,244,194787,1,8,0:0:0:0:
274,151,194943,2,0,L|282:4,1,136
180,82,195412,5,0,0:0:0:0:
107,23,195568,2,0,P|59:14|-20:85,1,136
191,174,196037,1,8,0:0:0:0:
104,142,196193,1,0,0:0:0:0:
180,82,196349,2,0,L|271:76,1,68
372,127,196662,5,0,0:0:0:0:
285,162,196818,2,0,P|327:153|416:210,1,136
201,250,197287,2,0,L|127:244,2,68,8|0|0,0:0|0:0|0:0,0:0:0:0:
287,297,197755,1,0,0:0:0:0:
407,194,197912,6,0,P|435:182|480:174,1,68,8|0,0:0|0:0,0:0:0:0:
287,297,198224,1,8,0:0:0:0:
380,315,198380,1,0,0:0:0:0:
299,138,198537,5,8,0:0:0:0:
153,204,198693,1,0,0:0:0:0:
287,297,198849,1,4,0:0:0:0:
247,214,199005,1,0,0:0:0:0:
217,348,199162,5,4,0:0:0:0:
132,292,199318,2,0,P|90:278|5:312,1,136
127,118,199787,1,8,0:0:0:0:
43,151,199943,1,0,0:0:0:0:
153,204,200099,2,0,L|232:211,1,68
332,78,200412,5,0,0:0:0:0:
259,136,200568,2,0,L|279:285,1,136
506,271,201037,2,0,P|468:254|428:246,1,68,8|0,0:0|0:0,0:0:0:0:
341,346,201349,1,0,0:0:0:0:
277,271,201505,1,0,0:0:0:0:
131,293,201662,5,0,0:0:0:0:
206,225,201818,2,0,P|217:162|160:90,1,136
394,198,202287,1,8,0:0:0:0:
432,108,202443,2,0,L|292:121,1,136
137,173,202912,5,0,0:0:0:0:
52,98,203068,1,0,0:0:0:0:
141,193,203224,1,8,0:0:0:0:
7,184,203380,1,0,0:0:0:0:
145,209,203537,1,4,0:0:0:0:
177,307,203693,1,0,0:0:0:0:
327,261,203849,2,0,P|387:271|421:284,1,68,8|0,0:0|0:0,0:0:0:0:
347,106,204162,5,4,0:0:0:0:
273,166,204318,2,0,L|122:174,1,136
231,342,204787,1,8,0:0:0:0:
195,248,204943,2,0,P|126:207|57:228,1,136
137,328,205412,5,0,0:0:0:0:
195,248,205568,2,0,L|343:257,1,136
471,350,206037,1,8,0:0:0:0:
449,257,206193,1,0,0:0:0:0:
491,172,206349,2,0,P|496:141|498:90,1,68
370,195,206662,5,0,0:0:0:0:
321,114,206818,2,0,P|267:78|194:89,1,136
109,248,207287,2,0,L|42:236,1,68,8|0,0:0|0:0,0:0:0:0:
182,176,207599,1,0,0:0:0:0:
206,275,207755,1,0,0:0:0:0:
215,281,207833,1,0,0:0:0:0:
223,287,207912,5,8,0:0:0:0:
314,260,208068,2,0,L|462:281,1,136
344,87,208537,2,0,P|309:99|266:104,1,68,8|0,0:0|0:0,0:0:0:0:
130,114,208849,2,0,P|172:122|204:138,1,59.4999981842042,8|4,0:0|0:0,0:0:0:0:
256,192,209162,5,4,0:0:0:0:
256,192,209318,12,0,213146,0:0:0:0:
