osu file format v14

[General]
AudioFilename: ONE OK ROCK - Clock Strikes.mp3
AudioLeadIn: 0
PreviewTime: 51349
Countdown: 0
SampleSet: Normal
StackLeniency: 0.7
Mode: 0
LetterboxInBreaks: 0
WidescreenStoryboard: 0

[Editor]
DistanceSpacing: 0.5
BeatDivisor: 4
GridSize: 4
TimelineZoom: 3.699999

[Metadata]
Title:Clock Strikes
TitleUnicode:Clock Strikes
Artist:ONE OK ROCK
ArtistUnicode:ONE OK ROCK
Creator:Saut
Version:Insane
Source:
Tags:人生×僕= Jinsei x Boku taka toru ryota tomoya pishifat moway pkhg
BeatmapID:633373
BeatmapSetID:249624

[Difficulty]
HPDrainRate:7
CircleSize:4
OverallDifficulty:8
ApproachRate:9.2
SliderMultiplier:1.8
SliderTickRate:2

[Events]
//Background and Video events
0,0,"bg.jpg",0,0
//Break Periods
2,47287,49998
2,71974,81092
2,119474,126092
//Storyboard Layer 0 (Background)
//Storyboard Layer 1 (Fail)
//Storyboard Layer 2 (Pass)
//Storyboard Layer 3 (Foreground)
//Storyboard Sound Samples

[TimingPoints]
6662,312.5,4,1,1,100,1,0
6662,-166.666666666667,4,2,1,50,0,0
16662,-125,4,1,1,50,0,0
17130,-166.666666666667,4,2,1,50,0,0
19162,-125,4,1,1,50,0,0
19630,-166.666666666667,4,2,1,50,0,0
21662,-125,4,1,1,50,0,0
22130,-166.666666666667,4,2,1,50,0,0
24162,-125,4,1,1,50,0,0
24630,-166.666666666667,4,2,1,50,0,0
26193,-100,4,1,1,65,0,0
26662,-125,4,1,1,60,0,0
31349,-100,4,1,1,65,0,0
31662,-125,4,1,1,60,0,0
36349,-100,4,1,1,65,0,0
36662,-111.111111111111,4,1,1,65,0,0
46505,-166.666666666667,4,1,1,50,0,0
50568,-125,4,3,1,60,0,0
51662,-100,4,1,1,85,0,1
51818,-100,4,1,1,75,0,1
54162,-100,4,1,1,85,0,1
54318,-100,4,1,1,75,0,1
56662,-100,4,1,1,85,0,1
56818,-100,4,1,1,75,0,1
59162,-100,4,1,1,85,0,1
59318,-100,4,1,1,75,0,1
61662,-100,4,1,1,85,0,1
61818,-100,4,1,1,75,0,1
64162,-100,4,1,1,85,0,1
64318,-100,4,1,1,75,0,1
66662,-100,4,1,1,85,0,1
66818,-100,4,1,1,75,0,1
69162,-100,4,1,1,85,0,1
69318,-100,4,1,1,75,0,1
71349,-125,4,1,1,75,0,1
71662,-142.857142857143,4,1,1,85,0,0
81662,-125,4,1,1,60,0,0
91349,-100,4,1,1,60,0,0
91662,-153.846153846153,4,1,1,55,0,0
95412,-133.333333333333,4,3,1,55,0,0
96037,-90.9090909090909,4,1,1,70,0,0
96662,-100,4,1,1,85,0,1
96818,-100,4,1,1,75,0,1
99162,-100,4,1,1,85,0,1
99318,-100,4,1,1,75,0,1
101349,-100,4,1,2,75,0,1
101505,-100,4,1,1,75,0,1
101662,-100,4,1,1,85,0,1
101818,-100,4,1,1,75,0,1
104162,-100,4,1,1,85,0,1
104318,-100,4,1,1,75,0,1
106662,-100,4,1,1,85,0,1
106818,-100,4,1,1,75,0,1
109162,-100,4,1,1,85,0,1
109318,-100,4,1,1,75,0,1
111662,-100,4,1,1,85,0,1
111818,-100,4,1,1,75,0,1
114162,-100,4,1,1,85,0,1
114318,-100,4,1,1,75,0,1
116662,-166.666666666667,4,1,1,85,0,0
116818,-166.666666666667,4,1,1,50,0,0
126662,-181.818181818182,4,2,3,50,0,0
136662,-142.857142857143,4,1,1,50,0,0
146662,-133.333333333333,4,1,1,55,0,0
156662,-125,4,1,1,60,0,0
164162,-117.647058823529,4,1,1,65,0,0
167912,-117.647058823529,4,3,1,65,0,0
168537,-90.9090909090909,4,1,1,50,0,0
169162,-100,4,1,1,85,0,1
169318,-100,4,1,1,75,0,1
171662,-100,4,1,1,85,0,1
171818,-100,4,1,1,75,0,1
174162,-100,4,1,1,85,0,1
174318,-100,4,1,1,75,0,1
176662,-100,4,1,1,85,0,1
176818,-100,4,1,1,75,0,1
179162,-100,4,1,1,85,0,1
179318,-100,4,1,1,75,0,1
181662,-100,4,1,1,85,0,1
181818,-100,4,1,1,75,0,1
184162,-100,4,1,1,85,0,1
184318,-100,4,1,1,75,0,1
186662,-100,4,1,1,85,0,1
186818,-100,4,1,1,75,0,1
187912,-100,4,1,1,75,0,0
189162,-90.9090909090909,4,1,1,85,0,1
189318,-90.9090909090909,4,1,1,75,0,0
191662,-90.9090909090909,4,1,1,85,0,0
191818,-90.9090909090909,4,1,1,75,0,0
194162,-90.9090909090909,4,1,1,85,0,1
194318,-90.9090909090909,4,1,1,75,0,0
196662,-90.9090909090909,4,1,1,85,0,0
196818,-90.9090909090909,4,1,1,75,0,0
199162,-90.9090909090909,4,1,1,85,0,1
199318,-90.9090909090909,4,1,1,75,0,0
201662,-90.9090909090909,4,1,1,85,0,0
201818,-90.9090909090909,4,1,1,75,0,0
204162,-90.9090909090909,4,1,1,85,0,1
204318,-90.9090909090909,4,1,1,75,0,0
206662,-90.9090909090909,4,1,1,85,0,0
206818,-90.9090909090909,4,1,1,75,0,0
209162,-166.666666666667,4,1,1,85,0,1
209318,-166.666666666667,4,1,1,50,0,0
212287,-166.666666666667,4,1,1,45,0,0
212443,-166.666666666667,4,1,1,40,0,0
212599,-166.666666666667,4,1,1,35,0,0
212755,-166.666666666667,4,1,1,30,0,0
212912,-166.666666666667,4,1,1,20,0,0
213029,-166.666666666667,4,1,1,10,0,0
213146,-166.666666666667,4,1,1,40,0,0

[Colours]
Combo1 : 85,74,123
Combo2 : 201,185,185
Combo3 : 225,230,208
Combo4 : 204,85,77
Combo5 : 119,119,132

[HitObjects]
76,272,6662,6,0,B|14:280,2,53.9999983520508,8|2|0,0:2|0:0|0:0,0:0:0:0:
141,341,7130,2,0,B|79:349,2,53.9999983520508,0|2|0,0:2|0:0|0:0,0:0:0:0:
199,278,7599,1,0,0:0:0:0:
260,212,7755,6,0,P|261:185|260:159,1,53.9999983520508,2|0,0:0|0:0,0:0:0:0:
200,278,8068,1,0,0:0:0:0:
343,236,8224,2,0,P|346:206|344:183,1,53.9999983520508,2|0,0:0|0:0,0:0:0:0:
285,299,8537,2,0,P|329:322|396:300,1,107.999996704102
384,310,9162,6,0,L|391:369,2,53.9999983520508,0|2|0,0:0|0:0|0:0,0:0:0:0:
467,230,9630,2,0,L|460:289,2,53.9999983520508,0|2|0,0:0|0:0|0:0,0:0:0:0:
389,143,10099,1,0,0:0:0:0:
326,208,10255,6,0,L|265:228,1,53.9999983520508,2|0,0:0|0:0,0:0:0:0:
390,143,10568,1,0,0:0:0:0:
250,156,10724,2,0,L|189:176,1,53.9999983520508,2|0,0:0|0:0,0:0:0:0:
208,74,11037,2,0,P|260:63|308:85,1,107.999996704102
308,85,11662,6,0,L|380:85,2,53.9999983520508,0|2|0,0:0|0:0|0:0,0:0:0:0:
217,138,12130,2,0,L|145:138,2,53.9999983520508,0|2|0,0:0|0:0|0:0,0:0:0:0:
307,187,12599,1,0,0:0:0:0:
357,252,12755,6,0,P|358:281|356:308,1,53.9999983520508,2|0,0:0|0:0,0:0:0:0:
308,187,13068,1,0,0:0:0:0:
266,293,13224,2,0,P|265:322|267:349,1,53.9999983520508,2|0,0:0|0:0,0:0:0:0:
429,334,13537,2,0,P|434:274|425:211,1,107.999996704102
429,227,14162,6,0,L|489:206,2,53.9999983520508,0|2|0,0:0|0:0|0:0,0:0:0:0:
357,153,14630,2,0,L|417:132,2,53.9999983520508,0|2|0,0:0|0:0|0:0,0:0:0:0:
267,95,15099,1,0,0:0:0:0:
197,157,15255,6,0,P|195:192|205:216,1,53.9999983520508,2|0,0:0|0:0,0:0:0:0:
268,95,15568,1,0,0:0:0:0:
275,177,15724,2,0,B|301:242|265:285|191:281|213:366|277:370|277:370|324:305,1,296.99999093628,2|0,0:0|0:0,0:0:0:0:
319,311,16662,5,8,0:2:0:0:
207,208,16818,1,8,0:2:0:0:
354,208,16974,2,0,P|348:169|330:132,1,72,8|0,0:0|0:0,0:0:0:0:
241,62,17287,6,0,L|247:124,1,53.9999983520508,2|0,0:0|0:0,0:0:0:0:
280,182,17599,1,0,0:0:0:0:
168,88,17755,6,0,L|174:150,1,53.9999983520508,2|0,0:0|0:0,0:0:0:0:
207,208,18068,1,0,0:0:0:0:
144,282,18224,1,2,0:0:0:0:
216,345,18380,2,0,B|296:354|296:354|334:339,1,107.999996704102
337,259,18849,2,0,L|280:282,1,53.9999983520508
395,312,19162,5,8,0:2:0:0:
296,190,19318,1,8,0:2:0:0:
416,144,19474,2,0,P|423:99|403:58,1,72,8|0,0:0|0:0,0:0:0:0:
292,107,19787,6,0,L|364:110,1,53.9999983520508,2|0,0:0|0:0,0:0:0:0:
225,48,20099,1,0,0:0:0:0:
265,182,20255,6,0,L|337:185,1,53.9999983520508,2|0,0:0|0:0,0:0:0:0:
198,123,20568,1,0,0:0:0:0:
234,256,20724,2,0,L|162:253,1,53.9999983520508,2|0,0:0|0:0,0:0:0:0:
50,272,21037,2,0,P|49:301|56:332,1,53.9999983520508
108,206,21349,2,0,P|109:177|102:146,1,53.9999983520508
80,68,21662,5,8,0:2:0:0:
24,195,21818,1,8,0:2:0:0:
191,174,21974,2,0,L|265:178,1,72,8|0,0:0|0:0,0:0:0:0:
381,239,22287,6,0,P|385:209|375:177,1,53.9999983520508,2|0,0:0|0:0,0:0:0:0:
323,126,22599,1,0,0:0:0:0:
463,188,22755,6,0,P|456:158|436:131,1,53.9999983520508,2|0,0:0|0:0,0:0:0:0:
341,100,23068,1,0,0:0:0:0:
467,68,23224,2,0,P|490:80|508:100,2,53.9999983520508,2|0|0,0:0|0:0|0:0,0:0:0:0:
389,31,23693,1,0,0:0:0:0:
341,100,23849,1,0,0:0:0:0:
297,171,24005,1,0,0:0:0:0:
370,225,24162,5,8,0:2:0:0:
227,227,24318,1,8,0:2:0:0:
391,303,24474,2,0,P|429:282|446:249,1,72,8|0,0:0|0:0,0:0:0:0:
367,79,24787,6,0,L|379:142,1,53.9999983520508,2|0,0:0|0:0,0:0:0:0:
323,211,25099,1,0,0:0:0:0:
279,343,25255,6,0,L|267:280,1,53.9999983520508,2|0,0:0|0:0,0:0:0:0:
323,211,25568,1,0,0:0:0:0:
367,79,25724,2,0,L|379:142,1,53.9999983520508,2|0,0:0|0:0,0:0:0:0:
323,211,26037,1,0,0:0:0:0:
412,289,26193,5,0,2:0:0:0:
418,305,26271,1,0,2:0:0:0:
424,321,26349,5,8,0:0:0:0:
391,336,26427,1,0,0:0:0:0:
355,337,26505,1,8,0:0:0:0:
320,327,26583,1,0,0:0:0:0:
290,313,26662,6,0,L|220:337,1,72,12|0,0:2|0:0,0:0:0:0:
72,265,26974,2,0,L|142:241,1,72,8|0,0:0|0:0,0:0:0:0:
210,150,27287,1,8,0:2:0:0:
312,64,27443,2,0,P|316:99|304:144,1,72,8|0,0:2|0:0,0:0:0:0:
268,280,27755,6,0,P|300:291|361:280,2,72,8|0|8,0:0|0:0|0:2,0:0:0:0:
149,197,28224,2,0,P|117:186|56:197,2,72,8|0|8,0:0|0:0|0:2,0:0:0:0:
275,191,28693,1,8,0:2:0:0:
210,87,28849,2,0,L|211:52,3,36,0|0|0|0,2:0|2:0|2:0|2:0,0:0:0:0:
211,21,29162,5,8,0:2:0:0:
121,124,29318,1,8,0:2:0:0:
251,179,29474,2,0,P|286:192|341:176,1,72,8|0,0:0|0:0,0:0:0:0:
411,116,29787,1,8,0:2:0:0:
304,47,29943,2,0,L|296:119,1,72,8|0,0:2|0:0,0:0:0:0:
320,262,30255,6,0,P|255:260|183:215,1,144,8|8,0:2|0:2,0:0:0:0:
83,77,30724,2,0,L|87:150,1,72,8|0,0:0|0:0,0:0:0:0:
161,308,31037,1,8,0:2:0:0:
187,194,31193,1,8,0:2:0:0:
312,116,31349,5,8,0:0:0:0:
319,146,31427,1,0,0:0:0:0:
319,177,31505,1,8,0:0:0:0:
315,208,31583,1,0,0:0:0:0:
306,238,31662,6,0,P|345:243|390:236,1,72,12|8,0:2|0:2,0:0:0:0:
489,328,31974,2,0,P|450:323|405:330,1,72,8|0,0:0|0:0,0:0:0:0:
303,342,32287,1,8,0:2:0:0:
197,292,32443,2,0,L|187:198,1,72,8|0,0:2|0:0,0:0:0:0:
72,82,32755,6,0,P|72:129|101:165,1,72,8|0,0:0|0:0,0:0:0:0:
206,91,33068,1,8,0:2:0:0:
281,248,33224,2,0,L|271:325,1,72,8|0,0:0|0:0,0:0:0:0:
144,222,33537,1,8,0:2:0:0:
206,92,33693,1,8,0:2:0:0:
312,175,33849,2,0,L|355:175,3,36,0|0|0|0,2:0|2:0|2:0|2:0,0:0:0:0:
377,175,34162,5,8,0:2:0:0:
281,69,34318,1,8,0:2:0:0:
445,45,34474,2,0,L|435:125,1,72,8|0,0:0|0:0,0:0:0:0:
451,237,34787,1,8,0:2:0:0:
356,325,34943,2,0,P|339:279|339:238,1,72,8|0,0:2|0:0,0:0:0:0:
337,112,35255,6,0,P|285:63|208:76,1,144,8|8,0:2|0:2,0:0:0:0:
77,169,35724,2,0,P|118:179|161:172,1,72,8|0,0:0|0:0,0:0:0:0:
258,142,36037,1,8,0:2:0:0:
218,234,36193,1,8,0:2:0:0:
218,70,36349,5,8,0:0:0:0:
248,61,36427,1,0,2:0:0:0:
279,63,36505,1,8,0:0:0:0:
307,75,36583,1,0,2:0:0:0:
328,93,36662,6,0,P|341:131|335:176,1,80.9999975280763,12|8,0:2|0:2,0:0:0:0:
413,313,36974,2,0,P|400:275|406:230,1,80.9999975280763,8|0,0:0|0:0,0:0:0:0:
468,121,37287,1,8,0:2:0:0:
484,266,37443,1,8,0:2:0:0:
337,170,37599,1,8,0:0:0:0:
310,304,37755,6,0,P|232:317|143:304,1,161.999995056153,8|8,0:2|0:2,0:0:0:0:
136,123,38224,2,0,L|157:203,1,80.9999975280763,8|0,0:0|0:0,0:0:0:0:
277,219,38537,1,8,0:2:0:0:
151,307,38693,1,8,0:2:0:0:
231,143,38849,2,0,L|252:63,1,80.9999975280763,8|0,0:0|0:0,0:0:0:0:
396,40,39162,6,0,P|398:88|394:137,1,80.9999975280763,8|8,0:2|0:2,0:0:0:0:
277,219,39474,1,8,0:0:0:0:
309,71,39630,1,0,2:0:0:0:
197,128,39787,1,8,0:2:0:0:
357,165,39943,1,8,0:2:0:0:
158,216,40099,1,8,0:0:0:0:
361,253,40255,6,0,P|320:263|266:249,1,80.9999975280763,8|0,0:2|0:0,0:0:0:0:
158,216,40568,1,8,0:2:0:0:
263,332,40724,2,0,P|282:296|282:256,1,80.9999975280763,8|0,0:0|0:0,0:0:0:0:
178,141,41037,2,0,P|158:176|158:216,1,80.9999975280763,8|8,0:2|0:2,0:0:0:0:
190,358,41349,2,0,P|151:366|105:347,1,80.9999975280763,8|8,0:0|0:2,0:0:0:0:
79,173,41662,5,12,0:2:0:0:
158,291,41818,1,8,0:2:0:0:
178,141,41974,1,8,0:0:0:0:
58,275,42130,1,0,0:0:0:0:
168,133,42287,1,8,0:2:0:0:
234,244,42443,1,8,0:2:0:0:
74,184,42599,1,8,0:0:0:0:
169,293,42755,1,8,0:2:0:0:
158,126,42912,6,0,P|203:120|255:131,1,80.9999975280763,0|8,0:0|0:2,0:0:0:0:
340,238,43224,2,0,P|381:243|420:237,1,80.9999975280763,8|0,0:0|0:0,0:0:0:0:
344,132,43537,1,8,0:2:0:0:
476,191,43693,1,8,0:2:0:0:
443,22,43849,2,0,L|429:127,1,80.9999975280763,8|0,0:0|0:0,0:0:0:0:
421,237,44162,6,0,P|382:243|342:239,1,80.9999975280763,8|8,0:2|0:2,0:0:0:0:
181,148,44474,2,0,P|219:138|259:147,1,80.9999975280763,8|0,0:0|0:0,0:0:0:0:
221,229,44787,1,8,0:2:0:0:
58,189,44943,1,8,0:0:0:0:
147,66,45099,2,0,P|185:51|247:56,1,80.9999975280763,8|0,0:2|0:0,0:0:0:0:
310,173,45412,5,8,0:2:0:0:
158,140,45568,1,8,0:2:0:0:
155,304,45724,2,0,P|201:299|252:272,1,80.9999975280763,8|8,0:0|0:2,0:0:0:0:
403,220,46037,2,0,P|375:181|327:150,1,80.9999975280763,8|8,0:0|0:2,0:0:0:0:
207,47,46349,1,8,0:0:0:0:
257,221,46505,6,0,B|245:262|267:291|250:352,1,107.999996704102,0|0,0:0|2:0,0:0:0:0:
320,80,50568,5,8,0:0:0:0:
366,270,50724,1,8,0:2:0:0:
461,205,50880,1,0,0:0:0:0:
236,141,51037,2,0,P|192:148|153:163,1,72,8|8,1:0|0:2,0:0:0:0:
236,141,51662,5,12,0:2:0:0:
160,283,51818,2,0,P|87:279|58:175,1,180,8|8,0:2|0:2,0:0:0:0:
150,47,52287,1,8,0:0:0:0:
130,207,52443,1,8,0:2:0:0:
252,115,52599,2,0,P|298:101|351:106,1,90
458,197,52912,6,0,B|367:242|376:155|267:203,1,180,8|0,0:2|0:0,0:0:0:0:
162,287,53380,1,8,0:2:0:0:
276,351,53537,2,0,P|311:324|324:282,1,90,8|8,0:0|0:2,0:0:0:0:
332,127,53849,2,0,P|297:154|284:196,1,90
398,286,54162,5,12,0:2:0:0:
412,124,54318,2,0,P|397:80|348:48,2,90,8|0|8,0:2|2:0|0:2,0:0:0:0:
324,282,54787,1,8,0:0:0:0:
332,127,54943,1,8,0:2:0:0:
234,255,55099,2,0,P|189:269|133:245,1,90
72,110,55412,6,0,P|156:104|189:181,1,180,8|0,0:2|0:0,0:0:0:0:
193,343,55880,1,8,0:2:0:0:
279,173,56037,2,0,L|181:183,1,90,8|8,0:0|0:2,0:0:0:0:
65,271,56349,2,0,L|163:261,1,90,8|0,0:2|0:0,0:0:0:0:
250,106,56662,5,12,0:2:0:0:
244,273,56818,2,0,P|227:315|193:343,2,90,8|0|8,0:2|2:0|0:2,0:0:0:0:
165,135,57287,1,8,0:0:0:0:
364,205,57443,1,8,0:2:0:0:
176,220,57599,2,0,P|204:255|247:274,1,90
357,341,57912,6,0,B|320:327|320:327|289:371|229:380|183:344,1,180,8|0,0:2|0:0,0:0:0:0:
56,275,58380,1,8,0:2:0:0:
227,187,58537,2,0,P|245:228|244:272,1,90,8|8,0:0|0:2,0:0:0:0:
74,361,58849,2,0,P|56:320|56:275,1,90,0|0,0:0|0:0,0:0:0:0:
98,124,59162,5,12,0:2:0:0:
227,187,59318,2,0,B|335:197,2,90,8|0|8,0:2|0:0|0:2,0:0:0:0:
251,304,59787,1,8,0:0:0:0:
294,113,59943,1,8,0:2:0:0:
461,174,60099,2,0,P|469:221|441:272,1,90
324,343,60412,5,8,0:0:0:0:
384,210,60568,1,8,0:2:0:0:
251,274,60724,1,8,3:0:0:0:
322,130,60880,1,8,3:2:0:0:
400,299,61037,1,8,0:0:0:0:
304,111,61193,1,8,0:2:0:0:
184,210,61349,2,0,P|139:208|91:198,1,90,8|0,0:0|0:0,0:0:0:0:
198,68,61662,5,12,0:2:0:0:
342,159,61818,2,0,P|367:260|337:346,1,180,8|8,0:2|0:2,0:0:0:0:
452,181,62287,1,8,0:0:0:0:
287,90,62443,1,8,0:2:0:0:
424,23,62599,2,0,P|422:65|415:124,1,90
332,249,62912,6,0,P|239:251|127:234,1,180,8|0,0:2|0:0,0:0:0:0:
248,98,63380,1,8,0:2:0:0:
332,249,63537,2,0,P|341:295|325:351,1,90,8|8,0:0|0:2,0:0:0:0:
153,240,63849,2,0,P|144:194|160:138,1,90,0|0,0:0|0:0,0:0:0:0:
300,64,64162,5,12,0:2:0:0:
130,33,64318,2,0,B|65:27|65:27|20:40,2,90,8|0|8,0:2|2:0|0:2,0:0:0:0:
310,151,64787,1,8,0:0:0:0:
218,38,64943,1,8,0:2:0:0:
239,187,65099,2,0,P|268:222|321:229,1,90,0|0,0:0|0:0,0:0:0:0:
469,102,65412,6,0,L|455:211,1,90,8|8,0:2|0:2,0:0:0:0:
346,335,65724,1,8,0:0:0:0:
379,238,65880,1,8,3:2:0:0:
199,217,66037,1,8,3:0:0:0:
374,253,66193,1,8,3:2:0:0:
202,198,66349,2,0,L|221:98,1,90,8|0,0:0|0:0,0:0:0:0:
274,243,66662,5,12,0:2:0:0:
151,64,66818,2,0,P|181:35|246:36,2,90,8|0|8,0:2|2:0|0:2,0:0:0:0:
124,242,67287,1,8,0:0:0:0:
74,95,67443,1,8,0:2:0:0:
219,109,67599,2,0,P|265:115|314:114,1,90,0|0,0:0|0:0,0:0:0:0:
448,251,67912,6,0,P|454:302|351:307,1,180,8|0,0:2|0:0,0:0:0:0:
274,192,68380,1,8,0:2:0:0:
279,348,68537,2,0,P|322:342|354:311,1,90,8|8,0:0|0:2,0:0:0:0:
350,156,68849,2,0,P|306:161|274:192,1,90,0|0,0:0|0:0,0:0:0:0:
448,251,69162,5,12,0:2:0:0:
440,89,69318,2,0,B|463:0,2,90,8|0|8,0:2|0:0|0:2,0:0:0:0:
347,244,69787,1,8,0:0:0:0:
276,98,69943,1,8,0:2:0:0:
408,190,70099,2,0,P|372:164|312:172,1,90,0|8,0:0|0:2,0:0:0:0:
133,235,70412,5,8,0:0:0:0:
309,266,70568,1,8,0:2:0:0:
248,97,70724,1,8,0:2:0:0:
212,301,70880,1,8,0:0:0:0:
328,164,71037,1,8,0:2:0:0:
150,133,71193,1,8,0:2:0:0:
309,266,71349,6,0,B|346:279|346:279|388:265|388:265,1,72,8|0,0:0|2:0,0:0:0:0:
230,196,71662,5,12,0:2:0:0:
56,288,81662,5,8,0:2:0:0:
164,332,81818,1,8,0:2:0:0:
139,154,81974,1,8,0:0:0:0:
236,190,82130,2,0,P|242:230|227:275,2,72,0|0|0,2:0|2:0|2:0,0:0:0:0:
139,154,82599,1,8,0:0:0:0:
310,194,82755,6,0,P|313:231|302:282,2,72,0|0|0,2:0|2:0|2:0,0:0:0:0:
139,154,83224,1,8,0:0:0:0:
382,201,83380,2,0,P|385:234|374:288,2,72,0|0|0,2:0|2:0|2:0,0:0:0:0:
371,42,83849,2,0,L|295:56,1,72,8|0,0:0|0:0,0:0:0:0:
218,128,84162,5,8,0:2:0:0:
329,164,84318,1,8,0:2:0:0:
270,331,84474,1,8,0:0:0:0:
165,307,84630,2,0,L|77:318,2,72,0|0|0,2:0|2:0|2:0,0:0:0:0:
270,331,85099,1,8,0:0:0:0:
130,240,85255,6,0,L|42:251,2,72,0|0|0,2:0|2:0|2:0,0:0:0:0:
271,331,85724,1,8,0:0:0:0:
94,173,85880,2,0,L|6:184,2,72,0|0|0,2:0|2:0|2:0,0:0:0:0:
195,54,86349,2,0,L|283:66,1,72,8|0,0:0|0:0,0:0:0:0:
379,95,86662,5,8,0:2:0:0:
325,195,86818,1,8,0:2:0:0:
458,306,86974,1,8,0:0:0:0:
343,342,87130,1,0,2:0:0:0:
343,342,87287,2,0,P|325:309|323:256,1,72,0|0,2:0|2:0,0:0:0:0:
458,306,87599,1,8,0:0:0:0:
247,299,87755,1,0,2:0:0:0:
247,299,87912,6,0,P|245:258|275:211,1,72,0|0,2:0|2:0,0:0:0:0:
458,306,88224,1,8,0:0:0:0:
176,219,88380,1,0,2:0:0:0:
176,219,88537,2,0,P|193:184|236:156,1,72,0|0,2:0|2:0,0:0:0:0:
382,163,88849,2,0,P|386:124|378:81,1,72,8|0,0:0|0:0,0:0:0:0:
260,46,89162,5,8,0:2:0:0:
295,149,89318,1,8,0:2:0:0:
131,130,89474,1,8,0:0:0:0:
181,220,89630,1,0,2:0:0:0:
181,220,89787,2,0,L|188:309,1,72,0|0,2:0|2:0,0:0:0:0:
131,131,90099,1,8,0:0:0:0:
258,237,90255,1,0,2:0:0:0:
258,237,90412,6,0,L|265:326,1,72,0|0,2:0|2:0,0:0:0:0:
131,131,90724,1,8,0:0:0:0:
333,256,90880,1,0,2:0:0:0:
333,256,91037,2,0,L|340:345,1,72,0|0,2:0|2:0,0:0:0:0:
235,157,91349,5,8,0:0:0:0:
266,341,91505,1,8,0:0:0:0:
395,194,91662,6,0,L|416:65,1,116.999994644165,8|0,1:2|2:0,0:0:0:0:
260,67,92130,2,0,L|239:196,1,116.999994644165,8|0,1:2|2:0,0:0:0:0:
411,197,92599,2,0,L|424:74,2,116.999994644165,8|0|8,1:2|2:0|0:2,0:0:0:0:
424,296,93380,1,0,2:0:0:0:
291,264,93537,1,8,0:0:0:0:
212,320,93693,2,0,P|155:334|82:315,1,116.999994644165,8|0,1:2|2:0,0:0:0:0:
96,205,94162,6,0,P|81:125|62:89,1,116.999994644165,8|0,1:2|2:0,0:0:0:0:
212,98,94630,2,0,P|226:177|245:213,1,116.999994644165,8|0,1:2|2:0,0:0:0:0:
85,205,95099,2,0,P|81:168|72:138,1,58.4999973220826,8|0,1:2|2:0,0:0:0:0:
222,95,95412,2,0,L|218:174,1,67.5000025749208,8|8,0:2|0:2,0:0:0:0:
390,265,95724,2,0,L|394:186,1,67.5000025749208,8|8,0:2|0:2,0:0:0:0:
222,95,96037,5,8,0:0:0:0:
221,237,96193,1,8,0:0:0:0:
325,69,96349,1,8,0:0:0:0:
317,267,96505,1,8,0:0:0:0:
147,164,96662,5,12,0:2:0:0:
362,164,96818,2,0,P|414:206|413:322,1,180,8|8,0:2|0:2,0:0:0:0:
464,137,97287,1,8,0:0:0:0:
376,34,97443,1,8,0:2:0:0:
276,162,97599,2,0,P|318:174|375:157,1,90,0|0,0:0|0:0,0:0:0:0:
376,34,97912,6,0,P|285:17|185:40,1,180,8|0,0:2|0:0,0:0:0:0:
163,181,98380,1,8,0:2:0:0:
56,124,98537,2,0,P|53:77|55:35,1,90,8|8,0:0|0:2,0:0:0:0:
163,181,98849,2,0,P|167:226|165:271,1,90
233,49,99162,5,12,0:2:0:0:
331,145,99318,2,0,P|375:144|425:124,2,90,8|0|8,0:2|2:0|0:2,0:0:0:0:
144,88,99787,1,8,0:0:0:0:
278,217,99943,1,8,0:2:0:0:
118,188,100099,2,0,P|110:237|123:287,1,90
341,312,100412,6,0,P|365:238|308:124,1,180,8|0,0:2|0:0,0:0:0:0:
207,104,100880,1,8,0:2:0:0:
256,311,101037,2,0,P|296:324|346:308,1,90,8|8,0:0|0:2,0:0:0:0:
416,146,101349,2,0,P|376:133|326:149,1,90,8|8,0:0|0:2,0:0:0:0:
220,234,101662,5,12,0:2:0:0:
127,124,101818,2,0,P|84:111|41:124,2,90,8|0|8,0:2|2:0|0:2,0:0:0:0:
174,316,102287,1,8,0:0:0:0:
85,191,102443,1,8,0:2:0:0:
251,232,102599,2,0,P|292:232|352:224,1,90
456,97,102912,6,0,B|419:83|419:83|388:127|328:136|282:100,1,180,8|0,0:2|0:0,0:0:0:0:
429,179,103380,1,8,0:2:0:0:
344,29,103537,2,0,P|299:13|246:29,1,90,8|8,0:0|0:2,0:0:0:0:
117,100,103849,2,0,P|162:116|215:100,1,90,0|0,0:0|0:0,0:0:0:0:
338,197,104162,5,12,0:2:0:0:
189,260,104318,2,0,P|189:301|201:348,2,90,8|0|8,0:2|2:0|0:2,0:0:0:0:
307,119,104787,1,8,0:0:0:0:
281,275,104943,1,8,0:2:0:0:
441,208,105099,2,0,L|449:117,1,90,0|0,0:0|0:0,0:0:0:0:
312,71,105412,5,8,0:0:0:0:
238,214,105568,1,8,0:2:0:0:
199,30,105724,1,8,3:0:0:0:
312,71,105880,1,8,3:2:0:0:
155,128,106037,1,8,0:0:0:0:
339,179,106193,1,8,0:2:0:0:
111,221,106349,2,0,B|91:258|91:258|103:319,1,90,8|0,0:0|0:0,0:0:0:0:
58,130,106662,5,12,0:2:0:0:
42,358,106818,2,0,P|87:382|180:311,1,180,8|8,0:2|0:2,0:0:0:0:
227,68,107287,1,8,0:0:0:0:
265,188,107443,1,8,0:2:0:0:
406,110,107599,2,0,P|365:106|306:105,1,90,0|0,0:0|0:0,0:0:0:0:
218,266,107912,6,0,B|309:311|300:224|409:272,1,180,8|0,0:2|0:0,0:0:0:0:
324,127,108380,1,8,0:2:0:0:
467,281,108537,2,0,P|441:330|403:341,1,90,8|8,0:0|0:2,0:0:0:0:
265,188,108849,2,0,P|291:143|327:127,1,90
476,205,109162,5,12,0:2:0:0:
390,73,109318,2,0,P|357:46|296:49,2,90,8|0|8,0:2|2:0|0:2,0:0:0:0:
393,253,109787,1,8,0:0:0:0:
325,127,109943,1,8,0:2:0:0:
209,273,110099,2,0,L|199:178,1,90
41,169,110412,6,0,L|51:74,1,90,8|8,0:2|0:2,0:0:0:0:
237,64,110724,1,8,0:0:0:0:
139,18,110880,1,8,0:2:0:0:
246,171,111037,1,8,3:0:0:0:
237,64,111193,1,8,3:2:0:0:
158,233,111349,2,0,P|183:267|235:279,1,90,8|0,0:0|0:0,0:0:0:0:
349,146,111662,5,12,0:2:0:0:
452,245,111818,2,0,L|460:340,2,90,8|0|8,0:2|2:0|0:2,0:0:0:0:
386,69,112287,1,8,0:0:0:0:
377,223,112443,1,8,0:2:0:0:
265,105,112599,2,0,L|266:214,1,90,0|0,0:0|0:0,0:0:0:0:
157,339,112912,6,0,P|77:331|53:243,1,180,8|0,0:2|0:0,0:0:0:0:
73,94,113380,1,8,0:2:0:0:
196,217,113537,2,0,P|162:247|112:272,1,90,8|8,0:0|0:2,0:0:0:0:
162,122,113849,2,0,P|201:87|246:67,1,90
338,239,114162,5,12,0:2:0:0:
453,139,114318,2,0,P|465:93|466:46,2,90,8|0|8,0:2|2:0|0:2,0:0:0:0:
397,311,114787,1,8,0:0:0:0:
366,152,114943,1,8,0:2:0:0:
306,312,115099,2,0,P|269:285|266:226,1,90,0|8,0:0|0:2,0:0:0:0:
324,91,115412,5,8,0:0:0:0:
338,239,115568,1,8,0:2:0:0:
196,312,115724,1,0,0:0:0:0:
335,120,115880,1,8,0:0:0:0:
318,264,116037,1,8,0:2:0:0:
165,302,116193,1,8,0:2:0:0:
345,148,116349,6,0,B|390:142|390:142|445:158,1,90,8|0,0:0|2:0,0:0:0:0:
300,289,116662,5,12,0:2:0:0:
256,192,116818,12,0,119162,2:0:0:0:
56,326,126662,6,0,L|164:337,1,99.0000030212403,10|8,0:1|0:0,0:0:0:0:
235,312,127130,1,0,0:0:0:0:
315,285,127287,1,8,0:0:0:0:
323,293,127599,2,0,L|323:237,1,49.5000015106202,8|0,0:1|0:0,0:0:0:0:
411,189,127912,6,0,L|411:239,1,49.5000015106202,10|8,0:1|0:0,0:0:0:0:
416,249,128224,1,8,0:0:0:0:
423,259,128537,2,0,L|423:200,1,49.5000015106202,8|0,0:0|0:0,0:0:0:0:
330,253,128849,2,0,L|330:302,1,49.5000015106202,8|0,0:0|0:0,0:0:0:0:
497,286,129162,6,0,L|496:187,1,99.0000030212403,10|8,0:1|0:0,0:0:0:0:
446,69,129630,2,0,L|425:122,1,49.5000015106202,8|8,0:1|0:2,0:0:0:0:
423,126,130099,1,8,0:1:0:0:
418,137,130412,6,0,B|369:144|369:144|306:137,1,99.0000030212403,10|8,0:1|0:0,0:0:0:0:
233,117,130880,1,8,0:0:0:0:
298,56,131037,2,0,L|288:5,2,49.5000015106202,8|0|8,0:0|0:0|0:0,0:0:0:0:
210,338,131662,6,0,L|187:237,1,99.0000030212403,10|8,0:1|0:0,0:0:0:0:
238,168,132130,1,8,0:1:0:0:
326,180,132287,1,8,0:0:0:0:
185,229,132599,1,8,0:1:0:0:
181,218,132912,5,2,0:0:0:0:
159,136,133068,2,0,L|168:76,1,49.5000015106202,8|8,0:1|0:0,0:0:0:0:
168,74,133537,2,0,L|108:65,1,49.5000015106202,8|0,0:0|0:0,0:0:0:0:
244,133,133849,2,0,L|304:142,1,49.5000015106202,8|0,0:0|0:0,0:0:0:0:
386,79,134162,6,0,P|410:115|363:152,1,99.0000030212403,10|8,0:1|0:0,0:0:0:0:
294,141,134630,1,8,0:1:0:0:
211,159,134787,1,8,0:0:0:0:
378,152,135099,1,8,0:1:0:0:
378,164,135412,6,0,P|372:219|415:263,1,99.0000030212403,10|8,0:1|0:0,0:0:0:0:
476,276,135880,1,8,0:0:0:0:
497,193,136037,2,0,L|448:193,2,49.5000015106202,8|0|8,0:0|0:0|0:0,0:0:0:0:
232,194,136662,6,0,L|296:194,1,62.9999980773926,10|0,0:0|2:0,0:0:0:0:
426,109,136974,2,0,P|359:136|298:111,1,125.999996154785,8|0,0:0|2:0,0:0:0:0:
180,82,137443,2,0,L|244:82,1,62.9999980773926,8|0,0:0|2:0,0:0:0:0:
313,37,137755,1,0,2:0:0:0:
135,18,137912,6,0,P|101:58|125:136,1,125.999996154785,8|0,0:0|2:0,0:0:0:0:
188,222,138380,2,0,L|184:150,1,62.9999980773926,8|0,0:0|2:0,0:0:0:0:
180,82,138693,1,0,2:0:0:0:
263,181,138849,1,8,0:0:0:0:
264,199,138927,1,0,2:0:0:0:
265,218,139005,1,0,2:0:0:0:
266,237,139083,1,0,2:0:0:0:
268,256,139162,6,0,P|320:260|351:250,1,62.9999980773926,10|0,0:0|2:0,0:0:0:0:
427,212,139474,2,0,P|436:280|406:334,1,125.999996154785,8|0,0:0|2:0,0:0:0:0:
340,186,139943,2,0,L|346:119,1,62.9999980773926,8|0,0:0|2:0,0:0:0:0:
410,70,140255,1,0,2:0:0:0:
427,212,140412,6,0,P|397:260|319:277,1,125.999996154785,8|0,0:0|2:0,0:0:0:0:
201,280,140880,2,0,L|270:249,1,62.9999980773926,8|0,0:0|2:0,0:0:0:0:
340,186,141193,1,0,2:0:0:0:
213,194,141349,1,8,0:0:0:0:
195,202,141427,1,0,2:0:0:0:
178,210,141505,1,0,2:0:0:0:
161,218,141583,1,0,2:0:0:0:
145,228,141662,6,0,P|117:207|86:201,1,62.9999980773926,10|0,0:0|2:0,0:0:0:0:
83,299,141974,2,0,P|142:323|210:292,1,125.999996154785,8|0,0:0|2:0,0:0:0:0:
239,180,142443,2,0,L|253:248,1,62.9999980773926,8|0,0:0|2:0,0:0:0:0:
277,317,142755,1,0,2:0:0:0:
319,199,142912,6,0,B|304:133|304:133|244:96,1,125.999996154785,8|0,0:0|2:0,0:0:0:0:
117,93,143380,2,0,L|177:132,1,62.9999980773926,8|0,0:0|2:0,0:0:0:0:
239,180,143693,1,0,2:0:0:0:
195,54,143849,1,8,0:0:0:0:
179,43,143927,1,0,2:0:0:0:
163,33,144005,1,0,2:0:0:0:
147,23,144083,1,0,2:0:0:0:
131,11,144162,6,0,P|89:13|68:20,1,62.9999980773926,10|0,0:0|2:0,0:0:0:0:
48,163,144474,2,0,P|93:176|178:138,1,125.999996154785,8|0,0:0|2:0,0:0:0:0:
267,80,144943,2,0,P|297:75|334:84,1,62.9999980773926,8|0,0:0|2:0,0:0:0:0:
295,155,145255,1,0,2:0:0:0:
340,9,145412,6,0,P|391:35|402:103,1,125.999996154785,8|0,0:0|2:0,0:0:0:0:
368,231,145880,2,0,L|355:161,1,62.9999980773926,8|0,0:0|2:0,0:0:0:0:
329,82,146193,1,0,2:0:0:0:
434,171,146349,1,8,0:0:0:0:
437,189,146427,1,0,2:0:0:0:
440,208,146505,1,0,2:0:0:0:
444,226,146583,1,0,2:0:0:0:
447,246,146662,6,0,P|430:285|387:302,1,67.5000025749208,10|0,0:2|2:0,0:0:0:0:
275,302,146974,2,0,L|193:291,2,67.5000025749208,8|0|0,0:0|2:0|2:0,0:0:0:0:
368,231,147443,2,0,L|286:220,1,67.5000025749208,8|0,0:0|2:0,0:0:0:0:
215,208,147755,1,0,2:0:0:0:
358,151,147912,6,0,L|440:140,2,67.5000025749208,8|0|0,0:0|2:0|2:0,0:0:0:0:
265,80,148380,2,0,L|347:69,1,67.5000025749208,8|0,0:0|2:0,0:0:0:0:
418,57,148693,1,0,2:0:0:0:
277,166,148849,1,8,0:0:0:0:
256,168,148927,1,0,2:0:0:0:
236,171,149005,1,0,2:0:0:0:
216,174,149083,1,0,2:0:0:0:
196,176,149162,6,0,P|199:137|186:102,1,67.5000025749208,10|0,0:2|2:0,0:0:0:0:
70,84,149474,2,0,P|67:123|80:158,2,67.5000025749208,8|0|0,0:0|2:0|2:0,0:0:0:0:
190,110,149943,2,0,P|199:142|196:176,1,67.5000025749208,8|0,0:0|2:0,0:0:0:0:
155,254,150255,1,0,2:0:0:0:
45,230,150412,6,0,P|41:263|50:295,2,67.5000025749208,8|0|0,0:0|2:0|2:0,0:0:0:0:
155,254,150880,2,0,P|163:286|160:319,1,67.5000025749208,8|0,0:0|2:0,0:0:0:0:
107,384,151193,1,0,2:0:0:0:
234,327,151349,1,8,0:0:0:0:
237,307,151427,1,0,2:0:0:0:
238,286,151505,1,0,2:0:0:0:
235,265,151583,1,0,2:0:0:0:
231,244,151662,6,0,P|227:208|234:166,1,67.5000025749208,10|0,0:2|2:0,0:0:0:0:
284,84,151974,2,0,L|377:66,2,67.5000025749208,8|0|0,0:0|2:0|2:0,0:0:0:0:
385,145,152443,2,0,P|414:124|427:93,1,67.5000025749208,8|0,0:0|2:0,0:0:0:0:
408,15,152755,1,0,2:0:0:0:
309,160,152912,6,0,L|327:253,2,67.5000025749208,8|0|0,0:0|2:0|2:0,0:0:0:0:
248,261,153380,2,0,P|269:290|300:303,1,67.5000025749208,8|0,0:0|2:0,0:0:0:0:
378,284,153693,1,0,2:0:0:0:
234,186,153849,1,8,0:0:0:0:
214,191,153927,1,0,2:0:0:0:
196,200,154005,1,0,2:0:0:0:
182,215,154083,1,0,2:0:0:0:
174,234,154162,6,0,P|136:222|118:200,1,67.5000025749208,10|0,0:2|2:0,0:0:0:0:
141,62,154474,2,0,P|151:103|144:135,2,67.5000025749208,8|0|0,0:0|2:0|2:0,0:0:0:0:
36,112,154943,2,0,P|35:154|53:191,1,67.5000025749208,8|0,0:0|2:0,0:0:0:0:
100,244,155255,1,0,2:0:0:0:
213,157,155412,6,0,P|254:147|286:154,2,67.5000025749208,8|0|0,0:0|2:0|2:0,0:0:0:0:
263,262,155880,2,0,P|305:263|342:245,1,67.5000025749208,8|0,0:0|2:0,0:0:0:0:
395,198,156193,1,0,2:0:0:0:
331,330,156349,1,8,0:0:0:0:
301,337,156427,1,0,2:0:0:0:
270,338,156505,1,0,2:0:0:0:
240,333,156583,1,0,2:0:0:0:
215,322,156662,5,12,0:2:0:0:
258,182,156818,1,8,0:2:0:0:
51,276,157130,1,8,0:2:0:0:
51,276,157287,2,0,L|56:197,1,72,8|0,0:0|2:0,0:0:0:0:
111,113,157599,5,12,0:2:0:0:
187,260,157755,1,8,0:2:0:0:
193,134,157912,1,0,2:0:0:0:
123,315,158068,1,8,0:2:0:0:
261,200,158224,2,0,P|276:241|272:280,1,72,8|8,0:0|0:2,0:0:0:0:
124,182,158537,2,0,P|109:141|113:102,1,72,8|8,3:0|3:2,0:0:0:0:
279,126,158849,1,8,0:0:0:0:
307,132,158927,1,0,2:0:0:0:
335,129,159005,1,8,0:0:0:0:
362,119,159083,1,0,2:0:0:0:
386,102,159162,5,12,0:2:0:0:
436,255,159318,1,8,0:2:0:0:
220,48,159630,1,8,0:2:0:0:
220,48,159787,2,0,P|192:81|160:94,1,72,8|0,0:0|2:0,0:0:0:0:
62,105,160099,5,12,0:2:0:0:
121,268,160255,1,8,0:2:0:0:
80,116,160412,1,0,2:0:0:0:
214,167,160568,1,8,0:2:0:0:
32,244,160724,2,0,L|53:321,1,72,8|8,0:0|0:2,0:0:0:0:
204,250,161037,2,0,P|236:242|288:244,1,72,8|8,3:0|3:2,0:0:0:0:
418,321,161349,2,0,P|426:281|420:245,1,72,8|8,0:0|0:2,0:0:0:0:
359,119,161662,5,12,0:2:0:0:
214,167,161818,1,8,0:2:0:0:
454,164,162130,1,8,0:2:0:0:
454,164,162287,2,0,P|462:118|456:89,1,72,8|0,0:0|2:0,0:0:0:0:
292,57,162599,5,12,0:2:0:0:
318,230,162755,1,8,0:2:0:0:
205,145,162912,1,0,2:0:0:0:
279,303,163068,1,8,0:2:0:0:
361,154,163224,2,0,B|356:103|356:103|373:72,1,72,8|8,0:0|0:2,0:0:0:0:
477,231,163537,2,0,L|470:316,1,72,8|0,3:0|0:0,0:0:0:0:
279,303,163849,1,8,0:0:0:0:
281,270,163927,1,0,2:0:0:0:
284,238,164005,1,8,0:0:0:0:
287,206,164083,1,0,2:0:0:0:
289,171,164162,5,12,0:2:0:0:
191,340,164318,1,8,0:2:0:0:
352,56,164630,5,8,0:2:0:0:
207,137,164787,2,0,P|201:177|215:217,1,76.5000014591217,8|0,0:0|2:0,0:0:0:0:
367,253,165099,5,12,0:2:0:0:
352,56,165255,1,8,0:2:0:0:
136,246,165568,5,8,0:2:0:0:
245,65,165724,2,0,P|208:55|168:66,1,76.5000014591217,8|8,0:0|0:2,0:0:0:0:
54,162,166037,5,8,0:0:0:0:
247,192,166193,1,12,0:2:0:0:
98,93,166349,1,0,2:0:0:0:
101,265,166505,1,8,0:0:0:0:
101,265,166583,1,0,0:0:0:0:
101,265,166662,6,0,P|117:309|146:335,1,76.5000014591217,12|0,0:2|2:0,0:0:0:0:
171,159,166974,1,8,0:2:0:0:
42,194,167130,1,8,0:0:0:0:
195,285,167287,1,8,0:2:0:0:
23,208,167443,1,8,0:2:0:0:
224,216,167599,1,8,0:0:0:0:
89,111,167755,1,8,0:2:0:0:
278,85,167912,5,8,0:0:0:0:
244,225,168068,1,8,0:2:0:0:
260,78,168224,5,8,0:0:0:0:
266,238,168380,1,8,0:2:0:0:
444,150,168537,6,0,L|447:77,2,66.0000020141602,8|8|0,0:0|0:0|0:0,0:0:0:0:
392,229,168849,2,0,L|396:294,2,66.0000020141602,8|8|0,0:0|0:0|0:0,0:0:0:0:
240,280,169162,5,12,0:2:0:0:
175,116,169318,2,0,P|266:132|292:228,1,180,8|8,0:2|0:2,0:0:0:0:
273,365,169787,1,8,0:0:0:0:
207,200,169943,1,8,0:2:0:0:
372,250,170099,2,0,P|382:211|368:150,1,90
248,130,170412,6,0,B|202:111|166:130|166:130|113:104|66:137,1,180,8|0,0:2|0:0,0:0:0:0:
207,201,170880,1,8,0:2:0:0:
101,46,171037,2,0,P|57:54|9:88,1,90,8|8,0:0|0:2,0:0:0:0:
31,229,171349,2,0,L|118:200,1,90
171,337,171662,5,12,0:2:0:0:
283,166,171818,2,0,L|370:144,2,90,8|0|8,0:2|2:0|0:2,0:0:0:0:
261,358,172287,1,8,0:0:0:0:
184,185,172443,1,8,0:2:0:0:
407,214,172599,2,0,P|442:182|444:129,1,90
287,45,172912,6,0,P|195:34|100:46,1,180,8|0,0:2|0:0,0:0:0:0:
59,188,173380,1,8,0:2:0:0:
214,279,173537,2,0,P|231:228|211:190,1,90,8|8,0:0|0:2,0:0:0:0:
62,105,173849,2,0,P|45:156|65:194,1,90,0|0,0:0|0:0,0:0:0:0:
199,126,174162,5,12,0:2:0:0:
108,271,174318,2,0,B|100:331|100:331|103:366,2,90,8|0|8,0:2|2:0|0:2,0:0:0:0:
137,69,174787,1,8,0:0:0:0:
184,214,174943,1,8,0:2:0:0:
272,68,175099,2,0,P|319:61|368:72,1,90,0|0,0:0|0:0,0:0:0:0:
460,271,175412,6,0,B|442:227|402:218|402:218|351:257|290:210,1,180,8|0,0:2|0:0,0:0:0:0:
174,109,175880,1,8,0:2:0:0:
361,69,176037,2,0,L|353:165,1,90,8|8,0:0|0:2,0:0:0:0:
299,311,176349,2,0,L|307:215,1,90,0|0,0:0|0:0,0:0:0:0:
439,145,176662,5,12,0:2:0:0:
262,103,176818,2,0,P|218:96|175:108,2,90,8|0|8,0:2|2:0|0:2,0:0:0:0:
403,220,177287,1,8,0:0:0:0:
361,69,177443,1,8,0:2:0:0:
290,214,177599,2,0,P|251:219|194:204,1,90,0|0,0:0|0:0,0:0:0:0:
131,61,177912,5,8,0:0:0:0:
190,202,178068,1,8,0:2:0:0:
57,109,178224,1,8,3:0:0:0:
183,194,178380,1,8,3:2:0:0:
20,192,178537,1,8,0:2:0:0:
177,187,178693,1,8,0:2:0:0:
41,275,178849,2,0,P|77:295|132:295,1,90,0|0,0:0|0:0,0:0:0:0:
168,179,179162,5,12,0:2:0:0:
19,347,179318,2,0,P|70:368|203:335,1,180,8|8,0:2|0:2,0:0:0:0:
262,180,179787,1,8,0:0:0:0:
145,278,179943,1,8,0:2:0:0:
284,340,180099,2,0,L|313:250,1,90,0|0,0:0|0:0,0:0:0:0:
305,101,180412,6,0,B|214:56|223:143|114:95,1,180,8|0,0:2|0:0,0:0:0:0:
33,193,180880,1,8,0:2:0:0:
262,180,181037,2,0,L|304:100,1,90,8|8,0:0|0:2,0:0:0:0:
175,23,181349,2,0,L|132:102,1,90,0|0,0:0|0:0,0:0:0:0:
238,259,181662,5,12,0:2:0:0:
111,343,181818,2,0,P|63:356|11:344,2,90,8|0|8,0:2|2:0|0:2,0:0:0:0:
199,185,182287,1,8,0:0:0:0:
197,337,182443,1,8,0:2:0:0:
120,204,182599,2,0,P|122:158|149:120,1,90,0|0,0:0|0:0,0:0:0:0:
308,124,182912,6,0,P|332:161|333:205,1,90,8|8,0:2|0:2,0:0:0:0:
279,348,183224,1,8,0:0:0:0:
430,251,183380,1,8,0:2:0:0:
259,185,183537,1,8,3:0:0:0:
376,338,183693,1,8,0:2:0:0:
451,161,183849,2,0,L|436:66,1,90,8|0,0:0|0:0,0:0:0:0:
346,214,184162,5,12,0:2:0:0:
248,62,184318,2,0,L|133:53,2,90,8|0|8,0:2|2:0|0:2,0:0:0:0:
263,242,184787,1,8,0:0:0:0:
367,130,184943,1,8,0:2:0:0:
216,156,185099,2,0,P|178:189|168:234,1,90,0|0,0:0|0:0,0:0:0:0:
357,221,185412,6,0,P|303:153|216:156,1,180,8|0,0:2|0:0,0:0:0:0:
265,300,185880,1,8,0:2:0:0:
417,169,186037,2,0,P|392:127|344:96,1,90,8|8,0:0|0:2,0:0:0:0:
216,49,186349,2,0,P|241:91|289:122,1,90,0|0,0:0|0:0,0:0:0:0:
443,53,186662,5,12,0:2:0:0:
478,229,186818,2,0,L|490:320,2,90,8|0|8,0:2|2:0|0:2,0:0:0:0:
360,103,187287,1,8,0:0:0:0:
392,252,187443,1,8,0:2:0:0:
276,151,187599,2,0,P|232:142|179:155,1,90,0|8,0:0|0:2,0:0:0:0:
52,256,187912,5,8,0:0:0:0:
175,335,188068,2,0,P|160:291|150:242,1,90,8|0,0:2|0:0,0:0:0:0:
161,131,188380,1,8,0:2:0:0:
378,196,188537,5,8,0:0:0:0:
163,240,188693,1,8,0:0:0:0:
276,85,188849,1,8,0:0:0:0:
271,321,189005,1,8,0:0:0:0:
264,109,189162,5,12,0:2:0:0:
455,169,189318,2,0,P|448:261|335:274,1,198.000006042481,8|8,0:2|0:2,0:0:0:0:
399,91,189787,1,8,0:0:0:0:
293,221,189943,1,8,0:2:0:0:
309,45,190099,2,0,P|260:31|198:63,1,99.0000030212403,0|0,0:0|0:0,0:0:0:0:
140,233,190412,5,8,0:2:0:0:
44,64,190568,2,0,B|37:218|37:218|52:266,1,198.000006042481,8|8,0:2|0:2,0:0:0:0:
211,176,191037,1,8,0:0:0:0:
187,321,191193,1,8,0:2:0:0:
128,146,191349,2,0,P|160:104|228:90,1,99.0000030212403,0|0,0:0|0:0,0:0:0:0:
241,255,191662,5,12,0:2:0:0:
437,186,191818,2,0,P|429:254|306:280,1,198.000006042481,8|8,0:2|0:2,0:0:0:0:
276,105,192287,1,8,0:0:0:0:
358,211,192443,1,8,0:2:0:0:
207,163,192599,2,0,L|94:160,1,99.0000030212403,0|0,0:0|0:0,0:0:0:0:
36,302,192912,5,8,0:2:0:0:
170,266,193068,2,0,B|234:230|312:305|348:269|353:239|336:223,1,198.000006042481,8|8,0:2|0:2,0:0:0:0:
250,75,193537,1,8,0:0:0:0:
278,189,193693,1,8,0:2:0:0:
391,76,193849,1,8,3:0:0:0:
286,170,194005,1,8,3:0:0:0:
469,202,194162,5,12,0:2:0:0:
292,156,194318,2,0,B|242:156|203:214|202:263|202:263|140:263,1,198.000006042481,8|8,0:2|0:2,0:0:0:0:
40,189,194787,2,0,L|146:189,1,99.0000030212403,8|8,0:0|0:2,0:0:0:0:
253,35,195099,2,0,P|201:40|169:78,1,99.0000030212403,0|0,0:0|0:0,0:0:0:0:
226,240,195412,5,8,0:2:0:0:
241,109,195568,2,0,P|303:122|400:37,1,198.000006042481,8|8,0:2|0:2,0:0:0:0:
480,146,196037,2,0,L|463:255,1,99.0000030212403,8|8,0:0|0:2,0:0:0:0:
299,347,196349,2,0,L|292:249,1,99.0000030212403,0|0,0:0|0:0,0:0:0:0:
324,121,196662,5,12,0:2:0:0:
437,259,196818,2,0,B|439:201|392:167|392:167|409:144|414:109|393:76,1,198.000006042481,8|8,0:2|0:2,0:0:0:0:
215,136,197287,1,8,0:0:0:0:
346,245,197443,1,8,0:2:0:0:
131,150,197599,2,0,P|157:201|217:214,1,99.0000030212403,0|0,0:0|0:0,0:0:0:0:
373,171,197912,5,8,0:0:0:0:
307,30,198068,1,8,0:2:0:0:
215,136,198224,1,8,3:0:0:0:
320,45,198380,1,8,0:2:0:0:
279,217,198537,1,8,0:0:0:0:
219,45,198693,1,8,0:2:0:0:
438,105,198849,2,0,P|464:153|447:230,1,99.0000030212403,8|0,0:0|0:0,0:0:0:0:
297,125,199162,5,12,0:2:0:0:
164,299,199318,2,0,P|262:336|329:271,1,198.000006042481,8|8,0:2|0:2,0:0:0:0:
320,116,199787,1,8,0:0:0:0:
402,243,199943,1,8,0:2:0:0:
239,258,200099,2,0,B|219:187|219:187|218:143,1,99.0000030212403,0|0,0:0|0:0,0:0:0:0:
358,44,200412,5,8,0:2:0:0:
307,217,200568,2,0,P|354:275|477:221,1,198.000006042481,8|8,0:2|0:2,0:0:0:0:
436,78,201037,1,8,0:0:0:0:
391,203,201193,1,8,0:2:0:0:
296,45,201349,2,0,P|255:77|185:54,1,99.0000030212403,0|0,0:0|0:0,0:0:0:0:
47,69,201662,5,12,0:2:0:0:
181,176,201818,2,0,B|154:232|159:298|159:298|120:328|63:289,1,198.000006042481,8|8,0:2|0:2,0:0:0:0:
134,110,202287,1,8,0:0:0:0:
247,233,202443,1,8,0:2:0:0:
120,383,202599,2,0,P|169:380|220:339,1,99.0000030212403,0|0,0:0|0:0,0:0:0:0:
215,136,202912,5,8,0:2:0:0:
324,242,203068,1,8,0:2:0:0:
173,292,203224,1,8,0:0:0:0:
346,325,203380,1,8,0:2:0:0:
299,157,203537,1,8,3:0:0:0:
184,276,203693,1,8,3:0:0:0:
358,235,203849,2,0,P|379:191|379:131,1,99.0000030212403,8|0,0:0|0:0,0:0:0:0:
270,77,204162,5,12,0:2:0:0:
284,270,204318,2,0,P|383:315|437:250,1,198.000006042481,8|8,0:2|0:2,0:0:0:0:
443,120,204787,1,8,0:0:0:0:
512,283,204943,1,8,0:2:0:0:
359,235,205099,2,0,P|347:189|370:128,1,99.0000030212403,0|0,0:0|0:0,0:0:0:0:
432,47,205412,5,8,0:2:0:0:
275,94,205568,2,0,P|251:192|275:287,1,198.000006042481,8|8,0:2|0:2,0:0:0:0:
408,319,206037,1,8,0:0:0:0:
463,191,206193,1,8,0:2:0:0:
347,111,206349,2,0,B|394:126|394:126|457:117,1,99.0000030212403,0|0,0:0|0:0,0:0:0:0:
329,30,206662,5,12,0:2:0:0:
184,193,206818,2,0,P|216:141|141:34,1,198.000006042481,8|8,0:2|0:2,0:0:0:0:
112,230,207287,2,0,P|152:270|206:268,1,99.0000030212403,8|8,0:0|0:2,0:0:0:0:
282,202,207599,2,0,P|329:192|375:208,1,99.0000030212403,0|8,0:0|0:2,0:0:0:0:
396,222,207833,1,8,0:2:0:0:
413,240,207912,5,8,0:0:0:0:
313,355,208068,1,8,0:2:0:0:
90,173,208380,1,8,0:2:0:0:
235,113,208537,1,8,0:0:0:0:
111,14,208693,1,8,0:2:0:0:
76,189,208849,2,0,B|60:239|89:285|75:350,1,148.50000453186,0|0,2:0|2:0,0:0:0:0:
73,349,209162,5,12,0:2:0:0:
256,192,209318,12,0,213146,2:0:0:0:
