osu file format v14

[General]
AudioFilename: ONE OK ROCK - Clock Strikes.mp3
AudioLeadIn: 0
PreviewTime: 51349
Countdown: 0
SampleSet: Normal
StackLeniency: 0.7
Mode: 0
LetterboxInBreaks: 0
WidescreenStoryboard: 0

[Editor]
DistanceSpacing: 1.1
BeatDivisor: 8
GridSize: 4
TimelineZoom: 4.000004

[Metadata]
Title:Clock Strikes
TitleUnicode:Clock Strikes
Artist:ONE OK ROCK
ArtistUnicode:ONE OK ROCK
Creator:Saut
Version:Hard
Source:
Tags:人生×僕= Jinsei x Boku taka toru ryota tomoya pishifat moway pkhg
BeatmapID:633371
BeatmapSetID:249624

[Difficulty]
HPDrainRate:5
CircleSize:4
OverallDifficulty:6
ApproachRate:8
SliderMultiplier:1.6
SliderTickRate:2

[Events]
//Background and Video events
0,0,"bg.jpg",0,0
//Break Periods
2,47130,49818
2,71974,80912
2,119474,125912
//Storyboard Layer 0 (Background)
//Storyboard Layer 1 (Fail)
//Storyboard Layer 2 (Pass)
//Storyboard Layer 3 (Foreground)
//Storyboard Sound Samples

[TimingPoints]
6662,312.5,4,1,1,100,1,0
6662,-133.333333333333,4,2,1,50,0,0
26193,-111.111111111111,4,1,1,65,0,0
26662,-105.263157894737,4,1,1,60,0,0
36662,-105.263157894737,4,1,1,65,0,0
46505,-125,4,1,1,50,0,0
50568,-111.111111111111,4,3,1,60,0,0
51662,-100,4,1,1,85,0,1
51818,-100,4,1,1,75,0,1
54162,-100,4,1,1,85,0,1
54318,-100,4,1,1,75,0,1
56662,-100,4,1,1,85,0,1
56818,-100,4,1,1,75,0,1
59162,-100,4,1,1,85,0,1
59318,-100,4,1,1,75,0,1
61662,-100,4,1,1,85,0,1
61818,-100,4,1,1,75,0,1
64162,-100,4,1,1,85,0,1
64318,-100,4,1,1,75,0,1
66662,-100,4,1,1,85,0,1
66818,-100,4,1,1,75,0,1
69162,-100,4,1,1,85,0,1
69318,-100,4,1,1,75,0,1
71662,-142.857142857143,4,1,1,85,0,0
81662,-105.263157894737,4,1,1,60,0,0
91662,-133.333333333333,4,1,1,55,0,0
96037,-105.263157894737,4,1,1,70,0,0
96662,-100,4,1,1,85,0,1
96818,-100,4,1,1,75,0,1
99162,-100,4,1,1,85,0,1
99318,-100,4,1,1,75,0,1
101349,-100,4,1,2,75,0,1
101505,-100,4,1,1,75,0,1
101662,-100,4,1,1,85,0,1
101818,-100,4,1,1,75,0,1
104162,-100,4,1,1,85,0,1
104318,-100,4,1,1,75,0,1
106662,-100,4,1,1,85,0,1
106818,-100,4,1,1,75,0,1
109162,-100,4,1,1,85,0,1
109318,-100,4,1,1,75,0,1
111662,-100,4,1,1,85,0,1
111818,-100,4,1,1,75,0,1
114162,-100,4,1,1,85,0,1
114318,-100,4,1,1,75,0,1
116662,-100,4,1,1,75,0,0
126662,-181.818181818182,4,2,3,50,0,0
136662,-142.857142857143,4,1,1,50,0,0
146662,-133.333333333333,4,1,1,55,0,0
156662,-125,4,1,1,60,0,0
164162,-117.647058823529,4,1,1,65,0,0
167912,-117.647058823529,4,3,1,65,0,0
168537,-90.9090909090909,4,1,1,70,0,0
169162,-100,4,1,1,85,0,1
169318,-100,4,1,1,75,0,1
171662,-100,4,1,1,85,0,1
171818,-100,4,1,1,75,0,1
174162,-100,4,1,1,85,0,1
174318,-100,4,1,1,75,0,1
176662,-100,4,1,1,85,0,1
176818,-100,4,1,1,75,0,1
179162,-100,4,1,1,85,0,1
179318,-100,4,1,1,75,0,1
181662,-100,4,1,1,85,0,1
181818,-100,4,1,1,75,0,1
184162,-100,4,1,1,85,0,1
184318,-100,4,1,1,75,0,1
186662,-100,4,1,1,85,0,1
186818,-100,4,1,1,75,0,1
187912,-100,4,1,1,75,0,0
189162,-100,4,1,1,85,0,1
189318,-100,4,1,1,75,0,0
191662,-100,4,1,1,85,0,0
191818,-100,4,1,1,75,0,0
194162,-100,4,1,1,85,0,1
194318,-100,4,1,1,75,0,0
196662,-100,4,1,1,85,0,0
196818,-100,4,1,1,75,0,0
199162,-100,4,1,1,85,0,1
199318,-100,4,1,1,75,0,0
201662,-100,4,1,1,85,0,0
201818,-100,4,1,1,75,0,0
204162,-100,4,1,1,85,0,1
204318,-100,4,1,1,75,0,0
206662,-100,4,1,1,85,0,0
206818,-100,4,1,1,75,0,0
209162,-166.666666666667,4,1,1,85,0,1
209318,-166.666666666667,4,1,1,50,0,0
212287,-166.666666666667,4,1,1,45,0,0
212443,-166.666666666667,4,1,1,40,0,0
212599,-166.666666666667,4,1,1,35,0,0
212755,-166.666666666667,4,1,1,30,0,0
212912,-166.666666666667,4,1,1,20,0,0
213029,-166.666666666667,4,1,1,10,0,0
213146,-166.666666666667,4,1,1,40,0,0

[Colours]
Combo1 : 85,74,123
Combo2 : 201,185,185
Combo3 : 225,230,208
Combo4 : 204,85,77
Combo5 : 119,119,132

[HitObjects]
96,72,6662,5,8,0:2:0:0:
127,147,6818,2,0,B|254:161,1,120.000004577637,2|0,0:0|0:0,0:0:0:0:
321,119,7287,2,0,P|331:145|329:181,1,60.0000022888184,2|0,0:0|0:0,0:0:0:0:
279,239,7599,1,0,0:0:0:0:
247,160,7755,6,0,P|258:115|322:119,1,120.000004577637,2|0,0:0|0:0,0:0:0:0:
393,149,8224,2,0,L|461:133,1,60.0000022888184,2|0,0:0|0:0,0:0:0:0:
467,58,8537,1,0,0:0:0:0:
505,208,8849,2,0,L|438:223,1,60.0000022888184,0|0,0:0|0:0,0:0:0:0:
386,276,9162,5,0,0:0:0:0:
449,327,9318,2,0,P|412:354|341:344,1,120.000004577637,2|0,0:0|0:0,0:0:0:0:
303,273,9787,2,0,L|243:283,1,60.0000022888184,2|0,0:0|0:0,0:0:0:0:
164,296,10099,1,0,0:0:0:0:
184,374,10255,6,0,P|232:340|244:283,1,120.000004577637,2|0,0:0|0:0,0:0:0:0:
268,205,10724,2,0,L|339:196,1,60.0000022888184,2|0,0:0|0:0,0:0:0:0:
383,138,11037,1,0,0:0:0:0:
219,136,11349,2,0,L|157:144,1,60.0000022888184,0|0,0:0|0:0,0:0:0:0:
81,118,11662,5,0,0:0:0:0:
68,204,11818,2,0,B|108:194|108:194|123:213|154:224|186:211,1,120.000004577637,2|0,0:0|0:0,0:0:0:0:
258,239,12287,2,0,L|333:247,1,60.0000022888184,2|0,0:0|0:0,0:0:0:0:
376,189,12599,1,0,0:0:0:0:
334,120,12755,6,0,B|290:126|290:126|259:116|259:116|215:122,1,120.000004577637,2|0,0:0|0:0,0:0:0:0:
141,155,13224,2,0,L|133:95,1,60.0000022888184,2|0,0:0|0:0,0:0:0:0:
209,62,13537,2,0,L|216:121,1,60.0000022888184,0|0,0:0|0:0,0:0:0:0:
200,204,13849,2,0,L|259:196,1,60.0000022888184,0|0,0:0|0:0,0:0:0:0:
341,205,14162,5,0,0:0:0:0:
415,238,14318,2,0,B|443:177|395:168|413:119,1,120.000004577637,2|0,0:0|0:0,0:0:0:0:
436,43,14787,2,0,L|354:57,1,60.0000022888184,2|0,0:0|0:0,0:0:0:0:
335,123,15099,1,0,0:0:0:0:
272,72,15255,6,0,P|253:113|280:183,1,120.000004577637,2|0,0:0|0:0,0:0:0:0:
358,177,15724,2,0,P|352:147|334:123,1,60.0000022888184,2|0,0:0|0:0,0:0:0:0:
277,181,16037,6,0,P|252:234|354:330,1,210.000008010865,0|0,0:0|0:0,0:0:0:0:
373,324,16662,6,0,L|391:253,1,60.0000022888184,8|8,0:2|0:2,0:0:0:0:
450,206,16974,2,0,L|432:135,1,60.0000022888184,8|0,0:0|0:0,0:0:0:0:
364,186,17287,2,0,L|230:189,1,120.000004577637,2|0,0:0|0:0,0:0:0:0:
208,116,17755,6,0,L|268:115,1,60.0000022888184,2|0,0:0|0:0,0:0:0:0:
345,82,18068,2,0,P|328:50|284:41,1,60.0000022888184,0|2,0:0|0:0,0:0:0:0:
268,115,18380,2,0,L|268:177,1,60.0000022888184,0|0,0:0|0:0,0:0:0:0:
327,232,18693,2,0,P|285:255|204:227,1,120.000004577637
133,246,19162,6,0,L|140:184,1,60.0000022888184,8|8,0:2|0:2,0:0:0:0:
66,144,19474,2,0,L|59:206,1,60.0000022888184,8|0,0:0|0:0,0:0:0:0:
64,284,19787,2,0,P|83:309|130:323,1,60.0000022888184,2|0,0:0|0:0,0:0:0:0:
187,302,20099,1,0,0:0:0:0:
239,240,20255,6,0,P|290:228|377:250,1,120.000004577637,2|0,0:0|0:0,0:0:0:0:
425,282,20724,2,0,L|440:216,1,60.0000022888184,2|0,0:0|0:0,0:0:0:0:
479,160,21037,2,0,B|449:141|418:140|375:160|365:204|365:204|355:243,1,180.000006866455
319,321,21662,6,0,P|288:326|243:315,1,60.0000022888184,8|8,0:2|0:2,0:0:0:0:
187,267,21974,2,0,P|157:262|127:267,1,60.0000022888184,8|0,0:0|0:0,0:0:0:0:
55,222,22287,2,0,L|56:159,1,60.0000022888184,2|0,0:0|0:0,0:0:0:0:
23,84,22599,1,0,0:0:0:0:
106,91,22755,6,0,B|135:125|135:125|136:200,1,120.000004577637,2|0,0:0|0:0,0:0:0:0:
172,276,23224,1,2,0:0:0:0:
136,352,23380,2,0,P|169:358|205:348,1,60.0000022888184
291,260,23849,2,0,P|297:227|287:191,1,60.0000022888184
203,170,24162,6,0,P|197:203|207:239,1,60.0000022888184,8|8,0:2|0:2,0:0:0:0:
246,96,24474,2,0,P|214:84|174:91,1,60.0000022888184,8|0,0:0|0:0,0:0:0:0:
115,120,24787,2,0,L|116:185,1,60.0000022888184,2|0,0:0|0:0,0:0:0:0:
166,242,25099,1,0,0:0:0:0:
214,307,25255,6,0,P|214:336|200:362,1,60.0000022888184,2|0,0:0|0:0,0:0:0:0:
133,316,25568,1,0,0:0:0:0:
166,242,25724,2,0,P|198:225|234:229,2,60.0000022888184,2|0|0,0:0|0:0|0:0,0:0:0:0:
133,316,26193,6,0,L|92:316,5,35.9999989013672,0|0|8|0|8|0,2:0|2:0|0:0|0:0|0:0|0:0,0:0:0:0:
63,307,26662,6,0,P|51:267|67:219,1,75.9999979705811,12|0,0:2|0:0,0:0:0:0:
104,164,26974,2,0,P|144:168|196:135,1,75.9999979705811,8|0,0:0|0:0,0:0:0:0:
221,83,27287,1,8,0:2:0:0:
300,48,27443,2,0,L|304:136,1,75.9999979705811,8|0,0:2|0:0,0:0:0:0:
313,205,27755,6,0,P|360:165|298:126,1,151.999995941162,8|8,0:0|0:2,0:0:0:0:
235,206,28224,2,0,P|245:246|291:278,1,75.9999979705811,8|0,0:0|0:0,0:0:0:0:
360,274,28537,2,0,P|394:260|421:223,1,75.9999979705811,8|8,0:2|0:2,0:0:0:0:
443,149,28849,2,0,L|491:183,3,37.9999989852906,0|0|0|0,2:0|2:0|2:0|2:0,0:0:0:0:
500,193,29162,6,0,P|512:231|497:288,1,75.9999979705811,8|8,0:2|0:2,0:0:0:0:
490,348,29474,2,0,L|405:340,1,75.9999979705811,8|0,0:0|0:0,0:0:0:0:
346,291,29787,1,8,0:2:0:0:
346,291,29943,2,0,L|253:302,1,75.9999979705811,8|0,0:2|0:0,0:0:0:0:
189,332,30255,6,0,B|168:283|212:245|188:181,1,151.999995941162,8|8,0:2|0:2,0:0:0:0:
257,149,30724,2,0,P|272:191|268:236,1,75.9999979705811,8|0,0:0|0:0,0:0:0:0:
271,300,31037,1,8,0:2:0:0:
189,332,31193,1,8,0:2:0:0:
106,300,31349,2,0,L|106:256,3,37.9999989852906,8|0|8|0,0:0|0:0|0:0|0:0,0:0:0:0:
107,227,31662,6,0,P|108:184|91:156,1,75.9999979705811,12|8,0:2|0:2,0:0:0:0:
72,63,31974,2,0,P|108:85|141:84,1,75.9999979705811,8|0,0:0|0:0,0:0:0:0:
231,115,32287,1,8,0:2:0:0:
231,115,32443,2,0,P|193:135|177:164,1,75.9999979705811,8|0,0:2|0:0,0:0:0:0:
189,244,32755,6,0,B|219:258|264:256|284:231|284:231|253:213|254:169,1,151.999995941162,8|8,0:0|0:2,0:0:0:0:
232,115,33224,2,0,P|269:109|307:130,1,75.9999979705811,8|0,0:0|0:0,0:0:0:0:
388,129,33537,1,8,0:2:0:0:
460,88,33693,1,8,0:2:0:0:
460,171,33849,2,0,L|480:207,3,37.9999989852906,0|0|0|0,2:0|2:0|2:0|2:0,0:0:0:0:
499,231,34162,6,0,P|466:249|428:246,1,75.9999979705811,8|8,0:2|0:2,0:0:0:0:
345,196,34474,2,0,P|311:193|270:217,1,75.9999979705811,8|0,0:0|0:0,0:0:0:0:
251,308,34787,1,8,0:2:0:0:
351,348,34943,2,0,L|326:277,1,75.9999979705811,8|0,0:2|0:0,0:0:0:0:
275,212,35255,6,0,B|301:142|301:142|261:120|255:81,1,151.999995941162,8|8,0:2|0:2,0:0:0:0:
295,6,35724,2,0,P|325:28|339:64,1,75.9999979705811,8|0,0:0|0:0,0:0:0:0:
297,143,36037,2,0,L|210:163,1,75.9999979705811,8|8,0:2|0:2,0:0:0:0:
134,132,36349,2,0,L|128:171,3,37.9999989852906,8|0|8|0,0:0|0:0|0:0|0:0,0:0:0:0:
121,203,36662,6,0,L|100:307,1,75.9999979705811,12|8,0:2|0:2,0:0:0:0:
179,317,36974,2,0,L|200:213,1,75.9999979705811,8|0,0:0|0:0,0:0:0:0:
215,162,37287,1,8,0:2:0:0:
281,104,37443,2,0,L|300:182,1,75.9999979705811,8|8,0:2|0:0,0:0:0:0:
364,229,37755,6,0,B|379:188|379:188|371:155|371:155|395:85,1,151.999995941162,8|8,0:2|0:2,0:0:0:0:
438,12,38224,1,8,0:0:0:0:
475,86,38380,2,0,L|449:165,1,75.9999979705811,0|8,0:0|0:2,0:0:0:0:
469,240,38693,1,8,0:2:0:0:
438,317,38849,2,0,P|400:325|360:312,1,75.9999979705811,8|0,0:0|0:0,0:0:0:0:
311,250,39162,5,8,0:2:0:0:
234,282,39318,1,8,0:2:0:0:
176,221,39474,2,0,P|207:200|245:199,1,75.9999979705811,8|0,0:0|0:0,0:0:0:0:
311,250,39787,2,0,P|318:292|303:329,1,75.9999979705811,8|8,0:2|0:2,0:0:0:0:
230,355,40099,2,0,P|223:313|238:276,1,75.9999979705811,8|8,0:0|0:2,0:0:0:0:
312,251,40412,6,0,L|321:169,1,75.9999979705811,0|8,0:0|0:2,0:0:0:0:
349,97,40724,1,8,0:0:0:0:
295,32,40880,2,0,L|202:42,1,75.9999979705811,0|8,0:0|0:2,0:0:0:0:
180,114,41193,2,0,L|87:124,2,75.9999979705811,8|8|8,0:2|0:0|0:2,0:0:0:0:
247,163,41662,6,0,L|322:154,1,75.9999979705811,12|8,0:2|0:2,0:0:0:0:
378,92,41974,2,0,L|453:83,2,75.9999979705811,8|0|8,0:0|0:0|0:2,0:0:0:0:
405,171,42443,1,8,0:2:0:0:
405,171,42599,2,0,P|417:209|439:243,1,75.9999979705811,8|8,0:0|0:2,0:0:0:0:
459,320,42912,6,0,P|420:311|379:313,1,75.9999979705811,0|8,0:0|0:2,0:0:0:0:
302,328,43224,1,8,0:0:0:0:
222,301,43380,2,0,L|208:224,1,75.9999979705811,0|8,0:0|0:2,0:0:0:0:
125,210,43693,2,0,L|139:133,1,75.9999979705811,8|8,0:2|0:0,0:0:0:0:
221,144,44005,1,0,0:0:0:0:
208,226,44162,6,0,P|244:237|284:227,1,75.9999979705811,8|8,0:2|0:2,0:0:0:0:
363,232,44474,2,0,P|396:214|417:178,1,75.9999979705811,8|0,0:0|0:0,0:0:0:0:
469,117,44787,2,0,P|428:100|384:109,1,75.9999979705811,8|8,0:2|0:0,0:0:0:0:
417,183,45099,2,0,P|434:216|470:237,1,75.9999979705811,8|0,0:2|0:0,0:0:0:0:
492,326,45412,6,0,L|415:311,1,75.9999979705811,8|8,0:2|0:2,0:0:0:0:
334,322,45724,2,0,L|319:245,1,75.9999979705811,8|8,0:0|0:2,0:0:0:0:
412,213,46037,2,0,L|427:136,1,75.9999979705811,8|8,0:0|0:2,0:0:0:0:
318,98,46349,1,8,0:0:0:0:
294,17,46505,6,0,L|167:29,1,128,8|0,0:2|2:0,0:0:0:0:
384,63,50568,6,0,L|471:49,2,71.9999978027344,8|8|0,0:0|0:2|0:0,0:0:0:0:
284,105,51037,2,0,L|197:91,1,71.9999978027344,8|8,1:0|0:2,0:0:0:0:
180,86,51662,5,12,0:2:0:0:
114,40,51818,2,0,B|79:86|126:145|97:200,1,160,8|8,0:2|0:2,0:0:0:0:
62,266,52287,2,0,P|100:276|141:262,1,80,8|8,0:0|0:2,0:0:0:0:
179,196,52599,2,0,P|184:147|177:109,1,80,0|0,0:0|0:0,0:0:0:0:
243,68,52912,5,8,0:2:0:0:
305,117,53068,2,0,B|296:158|305:195|305:195|368:177|388:197,1,160,0|8,0:0|0:2,0:0:0:0:
457,226,53537,1,8,0:0:0:0:
460,304,53693,2,0,P|392:270|384:194,1,160,8|0,0:2|0:0,0:0:0:0:
416,121,54162,5,12,0:2:0:0:
482,78,54318,2,0,B|506:114|495:159|468:181|468:181|456:232,1,160,8|8,0:2|0:2,0:0:0:0:
473,304,54787,2,0,L|391:314,1,80,8|8,0:0|0:2,0:0:0:0:
298,233,55099,2,0,L|377:242,1,80
232,283,55412,5,8,0:2:0:0:
194,209,55568,2,0,P|169:142|219:76,1,160,0|8,0:0|0:2,0:0:0:0:
327,163,56037,2,0,L|247:151,1,80,8|8,0:0|0:2,0:0:0:0:
139,65,56349,2,0,L|231:78,1,80,8|0,0:2|0:0,0:0:0:0:
294,50,56662,5,12,0:2:0:0:
361,92,56818,2,0,B|405:128|405:128|395:254,1,160,8|8,0:2|0:2,0:0:0:0:
371,306,57287,1,8,0:0:0:0:
320,243,57443,2,0,L|329:140,2,80,8|0|0,0:2|0:0|0:0,0:0:0:0:
294,319,57912,5,8,0:2:0:0:
242,257,58068,2,0,B|226:300|206:317|206:317|165:293|98:301,1,160,0|8,0:0|0:2,0:0:0:0:
39,297,58537,1,8,0:0:0:0:
87,233,58693,2,0,P|167:230|242:257,1,160,8|0,0:2|0:0,0:0:0:0:
294,319,59162,5,12,0:2:0:0:
372,305,59318,2,0,P|412:258|377:168,1,160,8|8,0:2|0:2,0:0:0:0:
303,165,59787,2,0,P|308:204|334:235,1,80,8|8,0:0|0:2,0:0:0:0:
459,171,60099,2,0,P|420:160|383:172,1,80,0|0,0:0|0:0,0:0:0:0:
334,235,60412,6,0,P|294:244|259:227,1,80,8|8,0:0|0:2,0:0:0:0:
273,98,60724,2,0,P|300:128|303:166,1,80,8|8,3:0|3:2,0:0:0:0:
183,218,61037,2,0,P|195:178|227:157,1,80,8|8,0:0|0:2,0:0:0:0:
261,228,61349,2,0,L|250:329,1,80,8|0,0:0|0:0,0:0:0:0:
187,354,61662,5,12,0:2:0:0:
116,317,61818,2,0,L|134:149,1,160,8|8,0:2|0:2,0:0:0:0:
153,80,62287,2,0,P|179:100|228:96,1,80,8|8,0:0|0:2,0:0:0:0:
285,46,62599,2,0,L|353:99,1,80,0|0,0:0|0:0,0:0:0:0:
379,169,62912,5,8,0:2:0:0:
424,103,63068,2,0,P|458:174|418:238,1,160,0|8,0:0|0:2,0:0:0:0:
338,247,63537,1,8,0:0:0:0:
273,199,63693,2,0,B|248:175|248:175|260:244|237:303,1,160,8|0,0:2|0:0,0:0:0:0:
206,372,64162,5,12,0:2:0:0:
157,308,64318,2,0,P|176:252|160:137,1,160,8|8,0:2|0:2,0:0:0:0:
171,72,64787,1,8,0:0:0:0:
100,110,64943,2,0,L|3:105,2,80,8|0|0,0:2|0:0|0:0,0:0:0:0:
167,153,65412,6,0,L|248:158,1,80,8|8,0:2|0:2,0:0:0:0:
322,132,65724,2,0,P|325:177|297:215,1,80,8|8,0:0|3:2,0:0:0:0:
187,251,66037,2,0,P|232:248|270:276,1,80,8|8,3:0|3:2,0:0:0:0:
350,372,66349,2,0,P|305:375|267:347,1,80,8|0,0:0|0:0,0:0:0:0:
328,297,66662,5,12,0:2:0:0:
396,256,66818,2,0,B|410:187|339:171|361:104,1,160,8|8,0:2|0:2,0:0:0:0:
498,80,67287,2,0,P|470:115|424:126,1,80,8|8,0:0|0:2,0:0:0:0:
355,21,67599,2,0,P|399:26|431:61,1,80
361,106,67912,5,8,0:2:0:0:
305,163,68068,2,0,P|245:199|165:149,1,160,0|8,0:0|0:2,0:0:0:0:
172,82,68537,2,0,P|211:90|239:119,1,80,8|8,0:0|0:2,0:0:0:0:
171,161,68849,2,0,P|132:153|104:124,1,80,0|0,0:0|0:0,0:0:0:0:
90,45,69162,5,12,0:2:0:0:
20,85,69318,2,0,L|38:255,1,160,8|8,0:2|0:2,0:0:0:0:
35,324,69787,2,0,P|76:318|105:288,1,80,8|8,0:0|0:2,0:0:0:0:
128,216,70099,2,0,P|157:190|197:185,1,80,0|8,0:0|0:2,0:0:0:0:
280,212,70412,6,0,L|306:119,2,80,8|8|8,0:0|0:2|0:2,0:0:0:0:
315,283,70880,2,0,L|289:376,2,80,8|8|8,0:0|0:2|0:2,0:0:0:0:
368,209,71349,2,0,L|390:130,1,80,8|0,0:0|2:0,0:0:0:0:
414,58,71662,5,12,0:2:0:0:
156,272,81662,5,8,0:2:0:0:
156,272,81818,1,8,0:2:0:0:
232,308,81974,2,0,P|272:316|308:308,1,75.9999979705811,8|0,0:0|2:0,0:0:0:0:
356,244,82287,2,0,P|393:236|429:244,1,75.9999979705811,0|0,2:0|2:0,0:0:0:0:
468,320,82599,2,0,P|430:327|394:319,1,75.9999979705811,8|0,0:0|2:0,0:0:0:0:
356,244,82912,6,0,L|356:160,2,75.9999979705811,0|0|8,2:0|2:0|0:0,0:0:0:0:
324,320,83380,1,0,2:0:0:0:
244,300,83537,2,0,P|224:259|232:220,1,75.9999979705811,0|0,2:0|2:0,0:0:0:0:
252,148,83849,2,0,P|207:144|176:118,1,75.9999979705811,8|0,0:0|0:0,0:0:0:0:
157,46,84162,5,8,0:2:0:0:
157,46,84318,1,8,0:2:0:0:
78,75,84474,2,0,L|90:163,1,75.9999979705811,8|0,0:0|2:0,0:0:0:0:
174,202,84787,2,0,L|184:119,2,75.9999979705811,0|0|8,2:0|2:0|0:0,0:0:0:0:
106,250,85255,6,0,P|143:280|238:254,1,151.999995941162,0|0,2:0|2:0,0:0:0:0:
290,190,85724,1,8,0:0:0:0:
307,272,85880,2,0,P|269:272|236:256,1,75.9999979705811,0|0,2:0|2:0,0:0:0:0:
206,177,86193,1,0,2:0:0:0:
236,99,86349,2,0,P|269:82|307:82,1,75.9999979705811,8|0,0:0|0:0,0:0:0:0:
385,114,86662,5,8,0:2:0:0:
385,114,86818,1,8,0:2:0:0:
454,160,86974,2,0,P|463:199|436:251,1,75.9999979705811,8|0,0:0|2:0,0:0:0:0:
376,268,87287,2,0,P|367:229|394:177,2,75.9999979705811,0|0|8,2:0|2:0|0:0,0:0:0:0:
446,312,87755,1,0,2:0:0:0:
376,268,87912,6,0,P|337:259|285:286,1,75.9999979705811,0|0,2:0|2:0,0:0:0:0:
233,314,88224,1,8,0:0:0:0:
164,265,88380,2,0,B|151:224|151:224|152:154|152:154|135:109,1,151.999995941162,0|0,2:0|2:0,0:0:0:0:
71,168,88849,2,0,L|71:269,1,75.9999979705811,8|0,0:0|0:0,0:0:0:0:
92,324,89162,5,8,0:2:0:0:
92,324,89318,1,8,0:2:0:0:
172,348,89474,1,8,0:0:0:0:
240,300,89630,2,0,B|256:240|240:180|240:180|236:152|272:164,1,151.999995941162,0|0,2:0|2:0,0:0:0:0:
320,212,90099,2,0,P|322:254|312:306,1,75.9999979705811,8|0,0:0|2:0,0:0:0:0:
394,349,90412,6,0,P|392:307|402:255,1,75.9999979705811,0|0,2:0|2:0,0:0:0:0:
421,193,90724,2,0,P|425:155|423:117,1,75.9999979705811,8|0,0:0|2:0,0:0:0:0:
389,40,91037,2,0,P|353:54|322:75,1,75.9999979705811,0|0,2:0|2:0,0:0:0:0:
269,144,91349,2,0,P|299:167|332:184,1,75.9999979705811,8|8,0:0|0:0,0:0:0:0:
421,193,91662,6,0,P|400:244|330:275,1,120.000004577637,8|0,1:2|2:0,0:0:0:0:
321,272,92130,2,0,P|263:262|192:279,1,120.000004577637,8|0,1:2|2:0,0:0:0:0:
181,282,92599,1,8,1:2:0:0:
74,203,92912,5,0,2:0:0:0:
108,330,93224,1,0,0:0:0:0:
155,206,93537,2,0,L|155:134,2,60.0000022888184,8|8|0,0:0|1:2|0:0,0:0:0:0:
109,330,94162,6,0,B|129:353|129:353|174:340|224:354,1,120.000004577637,8|0,1:2|2:0,0:0:0:0:
240,360,94630,2,0,P|257:298|246:242,1,120.000004577637,8|0,1:2|2:0,0:0:0:0:
231,225,95099,1,8,1:2:0:0:
173,105,95412,6,0,L|162:175,1,60.0000022888184,8|8,0:2|0:2,0:0:0:0:
83,201,95724,2,0,L|94:131,1,60.0000022888184,8|8,0:2|0:2,0:0:0:0:
99,58,96037,5,8,0:0:0:0:
99,58,96193,1,8,0:0:0:0:
174,21,96349,1,8,0:0:0:0:
174,21,96505,1,8,0:0:0:0:
256,42,96662,5,12,0:2:0:0:
299,109,96818,2,0,P|373:130|455:104,1,160,8|8,0:2|0:2,0:0:0:0:
503,46,97287,2,0,P|472:25|409:45,1,80,8|8,0:0|0:2,0:0:0:0:
375,86,97599,2,0,P|373:128|410:174,1,80,0|0,0:0|0:0,0:0:0:0:
442,221,97912,5,8,0:2:0:0:
395,285,98068,2,0,P|319:299|230:281,1,160,0|8,0:0|0:2,0:0:0:0:
177,221,98537,1,8,0:0:0:0:
164,307,98693,2,0,B|205:311|240:282|240:282|247:235|293:210,1,160,8|0,0:2|0:0,0:0:0:0:
343,169,99162,5,12,0:2:0:0:
322,90,99318,2,0,P|266:142|280:218,1,160,8|8,0:2|0:2,0:0:0:0:
320,287,99787,2,0,L|406:275,1,80,8|8,0:0|0:2,0:0:0:0:
488,337,100099,2,0,L|402:349,1,80,0|0,0:0|0:0,0:0:0:0:
321,287,100412,5,8,0:2:0:0:
344,210,100568,2,0,B|360:156|327:102|350:40,1,160,0|8,0:0|0:2,0:0:0:0:
415,91,101037,2,0,B|411:108|425:152|418:186,1,80,8|8,0:0|0:2,0:0:0:0:
275,180,101349,2,0,B|278:158|264:118|273:86,1,80,8|8,0:0|0:2,0:0:0:0:
206,52,101662,5,12,0:2:0:0:
160,117,101818,2,0,B|138:152|138:152|184:213|134:269,1,160,8|8,0:2|0:2,0:0:0:0:
65,288,102287,1,8,0:0:0:0:
77,209,102443,2,0,P|50:192|-8:198,2,80,8|0|0,0:2|0:0|0:0,0:0:0:0:
141,261,102912,5,8,0:2:0:0:
211,298,103068,2,0,P|260:310|335:221,1,160,0|8,0:0|0:2,0:0:0:0:
299,167,103537,2,0,P|267:191|254:228,1,80,8|8,0:0|0:2,0:0:0:0:
211,297,103849,2,0,P|231:331|230:371,1,80
153,353,104162,5,12,0:2:0:0:
76,330,104318,2,0,B|58:312|58:312|141:216|71:167,1,160,8|8,0:2|0:2,0:0:0:0:
21,224,104787,1,8,0:0:0:0:
157,299,104943,2,0,P|178:220|151:142,1,160,8|0,0:2|0:0,0:0:0:0:
79,151,105412,6,0,P|118:160|160:143,1,80,8|8,0:0|0:2,0:0:0:0:
254,38,105724,2,0,P|215:29|173:46,1,80,8|8,3:0|3:2,0:0:0:0:
224,182,106037,2,0,P|233:143|216:101,1,80,8|8,0:0|0:2,0:0:0:0:
110,8,106349,2,0,P|101:47|118:89,1,80,8|0,0:0|0:0,0:0:0:0:
155,147,106662,5,12,0:2:0:0:
128,230,106818,2,0,P|237:221|293:208,1,160,8|8,0:2|0:2,0:0:0:0:
392,164,107287,2,0,P|365:196|363:241,1,80,8|8,0:0|0:2,0:0:0:0:
414,302,107599,2,0,P|441:270|443:225,1,80
392,164,107912,5,8,0:2:0:0:
319,115,108068,2,0,B|308:128|300:143|300:143|306:70|280:6,1,160
209,64,108537,1,8,0:0:0:0:
222,150,108693,2,0,B|225:188|247:203|247:203|189:308,1,160,8|0,0:2|0:0,0:0:0:0:
113,311,109162,5,12,0:2:0:0:
152,232,109318,2,0,P|217:217|274:285,1,160,8|8,0:2|0:2,0:0:0:0:
338,340,109787,2,0,L|363:248,1,80,8|8,0:0|0:2,0:0:0:0:
433,215,110099,2,0,L|408:123,1,80
335,96,110412,5,8,0:2:0:0:
275,160,110568,2,0,P|235:168|192:157,2,80,8|8|8,0:2|0:0|0:2,0:0:0:0:
237,79,111037,2,0,P|197:71|154:82,1,80,8|8,3:0|3:2,0:0:0:0:
176,230,111349,2,0,P|212:243|258:240,1,80,8|0,0:0|0:0,0:0:0:0:
334,206,111662,5,12,0:2:0:0:
285,309,111818,2,0,P|219:320|121:281,1,160,8|8,0:2|0:2,0:0:0:0:
89,213,112287,1,8,0:0:0:0:
128,134,112443,2,0,L|128:48,2,80,8|0|0,0:2|0:0|0:0,0:0:0:0:
173,210,112912,5,8,0:2:0:0:
229,277,113068,2,0,P|278:289|353:200,1,160,0|8,0:0|0:2,0:0:0:0:
343,132,113537,2,0,P|307:113|268:116,1,80,8|8,0:0|0:2,0:0:0:0:
353,221,113849,2,0,P|388:239|427:236,1,80,0|0,0:0|0:0,0:0:0:0:
499,185,114162,5,12,0:2:0:0:
432,72,114318,2,0,B|410:40|410:40|427:108|401:171,1,160,8|8,0:2|0:2,0:0:0:0:
353,221,114787,1,8,0:0:0:0:
388,292,114943,2,0,P|434:231|406:160,1,160,8|8,0:2|0:2,0:0:0:0:
318,149,115412,5,8,0:0:0:0:
248,203,115568,2,0,B|180:247|160:188|88:231,1,160,8|8,0:2|0:0,0:0:0:0:
251,281,116037,2,0,P|257:240|240:188,1,80,8|8,0:2|0:2,0:0:0:0:
92,149,116349,2,0,P|86:190|103:242,1,80,8|0,0:0|0:0,0:0:0:0:
173,294,116662,5,12,0:2:0:0:
256,192,116818,12,0,119162,2:0:0:0:
88,328,126662,6,0,P|128:336|188:320,1,88.000002685547,10|8,0:1|0:0,0:0:0:0:
212,308,127130,2,0,L|272:320,1,44.0000013427735,0|8,0:0|0:0,0:0:0:0:
372,296,127599,2,0,L|312:284,1,44.0000013427735,8|0,0:1|0:0,0:0:0:0:
300,256,127912,6,0,L|312:196,1,44.0000013427735,10|8,0:1|0:0,0:0:0:0:
316,169,128224,1,8,0:0:0:0:
424,64,128537,2,0,L|436:120,1,44.0000013427735,8|0,0:0|0:0,0:0:0:0:
445,149,128849,2,0,L|433:205,1,44.0000013427735,8|0,0:0|0:0,0:0:0:0:
420,233,129162,6,0,B|382:252|382:252|333:245,1,88.000002685547,10|8,0:1|0:0,0:0:0:0:
294,233,129630,2,0,L|242:245,1,44.0000013427735,8|8,0:1|0:2,0:0:0:0:
212,322,130099,1,8,0:1:0:0:
164,248,130412,6,0,P|155:204|161:159,1,88.000002685547,10|8,0:1|0:0,0:0:0:0:
175,120,130880,1,8,0:0:0:0:
194,80,131037,2,0,L|134:67,2,44.0000013427735,8|0|8,0:0|0:0|0:0,0:0:0:0:
279,102,131662,6,0,P|321:109|372:95,1,88.000002685547,10|8,0:1|0:0,0:0:0:0:
404,79,132130,1,8,0:1:0:0:
444,97,132287,1,8,0:0:0:0:
401,174,132599,1,8,0:1:0:0:
449,247,132912,5,2,0:0:0:0:
414,274,133068,2,0,L|361:278,1,44.0000013427735,8|8,0:1|0:0,0:0:0:0:
295,321,133537,2,0,L|241:307,1,44.0000013427735,8|0,0:0|0:0,0:0:0:0:
211,292,133849,2,0,L|186:237,1,44.0000013427735,8|0,0:0|0:0,0:0:0:0:
183,208,134162,6,0,B|144:193|144:193|90:219,1,88.000002685547,10|8,0:1|0:0,0:0:0:0:
62,231,134630,1,8,0:1:0:0:
22,211,134787,1,8,0:0:0:0:
67,135,135099,1,8,0:1:0:0:
121,65,135412,6,0,L|223:74,1,88.000002685547,10|8,0:1|0:0,0:0:0:0:
251,81,135880,1,8,0:0:0:0:
290,61,136037,2,0,L|279:5,2,44.0000013427735,8|0|8,0:0|0:0|0:0,0:0:0:0:
357,190,136662,6,0,L|383:121,1,55.9999982910157,10|0,0:0|2:0,0:0:0:0:
455,138,136974,2,0,L|414:252,1,111.999996582031,8|0,0:0|2:0,0:0:0:0:
342,269,137443,2,0,P|305:254|290:233,1,55.9999982910157,8|0,0:0|2:0,0:0:0:0:
267,169,137755,1,0,2:0:0:0:
220,232,137912,6,0,P|222:266|238:295,2,55.9999982910157,8|0|0,0:0|2:0|2:0,0:0:0:0:
151,193,138380,2,0,P|141:225|146:258,2,55.9999982910157,8|0|0,0:0|2:0|2:0,0:0:0:0:
194,127,138849,2,0,P|203:94|198:61,1,55.9999982910157,8|0,0:0|2:0,0:0:0:0:
273,39,139162,6,0,L|348:52,1,55.9999982910157,10|0,0:0|2:0,0:0:0:0:
406,44,139474,2,0,P|389:100|334:125,1,111.999996582031,8|0,0:0|2:0,0:0:0:0:
274,160,139943,2,0,L|291:214,1,55.9999982910157,8|0,0:0|2:0,0:0:0:0:
288,291,140255,1,0,2:0:0:0:
221,247,140412,6,0,L|160:250,2,55.9999982910157,8|0|0,0:0|2:0|2:0,0:0:0:0:
197,321,140880,2,0,L|126:325,2,55.9999982910157,8|0|0,0:0|2:0|2:0,0:0:0:0:
274,307,141349,2,0,L|348:315,1,55.9999982910157,8|0,0:0|2:0,0:0:0:0:
401,346,141662,6,0,L|409:284,1,55.9999982910157,10|0,0:0|2:0,0:0:0:0:
419,212,141974,2,0,P|409:158|426:89,1,111.999996582031,8|0,0:0|2:0,0:0:0:0:
462,36,142443,2,0,L|505:73,1,55.9999982910157,8|0,0:0|2:0,0:0:0:0:
506,150,142755,1,0,2:0:0:0:
500,228,142912,6,0,B|445:241|445:241|379:223,1,111.999996582031,8|0,0:0|2:0,0:0:0:0:
319,193,143380,2,0,L|260:201,1,55.9999982910157,8|0,0:0|2:0,0:0:0:0:
187,219,143693,1,0,2:0:0:0:
241,275,143849,2,0,L|300:267,1,55.9999982910157,8|0,0:0|2:0,0:0:0:0:
375,263,144162,6,0,L|440:277,1,55.9999982910157,10|0,0:0|2:0,0:0:0:0:
505,293,144474,2,0,P|500:238|459:202,1,111.999996582031,8|0,0:0|2:0,0:0:0:0:
382,185,144943,2,0,L|397:119,1,55.9999982910157,8|0,0:0|2:0,0:0:0:0:
378,53,145255,1,0,2:0:0:0:
300,65,145412,6,0,L|326:132,1,55.9999982910157,8|0,0:0|2:0,0:0:0:0:
308,193,145724,1,0,2:0:0:0:
258,254,145880,2,0,L|190:247,2,55.9999982910157,8|0|0,0:0|2:0|2:0,0:0:0:0:
335,266,146349,1,8,0:0:0:0:
412,278,146505,1,0,2:0:0:0:
412,278,146662,6,0,L|422:218,1,60.0000022888184,10|0,0:2|2:0,0:0:0:0:
407,136,146974,2,0,L|397:76,2,60.0000022888184,8|0|0,0:0|2:0|2:0,0:0:0:0:
479,92,147443,2,0,L|469:32,2,60.0000022888184,8|0|0,0:0|2:0|2:0,0:0:0:0:
479,176,147912,2,0,L|489:236,2,60.0000022888184,8|0|0,0:0|2:0|2:0,0:0:0:0:
407,220,148380,2,0,L|417:280,2,60.0000022888184,8|0|0,0:0|2:0|2:0,0:0:0:0:
354,153,148849,1,8,0:0:0:0:
283,108,149005,1,0,2:0:0:0:
283,108,149162,6,0,L|201:114,1,60.0000022888184,10|0,0:2|2:0,0:0:0:0:
145,81,149474,2,0,P|120:62|104:29,2,60.0000022888184,8|0|0,0:0|2:0|2:0,0:0:0:0:
223,113,149943,2,0,P|219:142|204:168,2,60.0000022888184,8|0|0,0:0|2:0|2:0,0:0:0:0:
211,29,150412,2,0,P|238:17|268:17,2,60.0000022888184,8|0|0,0:0|2:0|2:0,0:0:0:0:
145,81,150880,2,0,L|146:144,2,60.0000022888184,8|0|0,0:0|2:0|2:0,0:0:0:0:
67,47,151349,1,8,0:0:0:0:
36,125,151505,1,0,2:0:0:0:
36,125,151662,6,0,L|42:187,1,60.0000022888184,10|0,0:2|2:0,0:0:0:0:
82,258,151974,2,0,P|52:267|20:267,2,60.0000022888184,8|0|0,0:0|2:0|2:0,0:0:0:0:
156,296,152443,2,0,P|165:326|165:358,2,60.0000022888184,8|0|0,0:0|2:0|2:0,0:0:0:0:
191,219,152912,2,0,P|221:210|253:210,2,60.0000022888184,8|0|0,0:0|2:0|2:0,0:0:0:0:
115,181,153380,2,0,P|106:151|106:119,2,60.0000022888184,8|0|0,0:0|2:0|2:0,0:0:0:0:
116,265,153849,1,8,0:0:0:0:
181,317,154005,1,0,2:0:0:0:
181,317,154162,6,0,L|253:321,1,60.0000022888184,10|0,0:2|2:0,0:0:0:0:
319,289,154474,2,0,L|391:293,2,60.0000022888184,8|0|0,0:0|2:0|2:0,0:0:0:0:
248,243,154943,2,0,L|188:239,2,60.0000022888184,8|0|0,0:0|2:0|2:0,0:0:0:0:
323,204,155412,2,0,L|395:208,2,60.0000022888184,8|0|0,0:0|2:0|2:0,0:0:0:0:
251,160,155880,2,0,L|191:156,2,60.0000022888184,8|0|0,0:0|2:0|2:0,0:0:0:0:
326,122,156349,1,8,0:0:0:0:
253,79,156505,1,0,2:0:0:0:
253,79,156583,1,0,2:0:0:0:
253,79,156662,5,8,0:0:0:0:
167,105,156818,2,0,P|101:105|56:66,1,128,8|8,0:2|0:2,0:0:0:0:
134,22,157287,1,8,0:0:0:0:
134,22,157599,5,8,0:2:0:0:
56,66,157755,2,0,L|71:216,1,128,8|8,0:2|0:2,0:0:0:0:
147,236,158224,2,0,B|186:226|186:226|222:231,1,64,8|8,0:0|0:2,0:0:0:0:
287,258,158537,1,8,3:0:0:0:
363,225,158693,1,8,3:2:0:0:
442,248,158849,2,0,L|486:248,3,32,8|8|8|8,0:0|0:0|0:0|0:0,0:0:0:0:
503,249,159162,5,8,0:2:0:0:
458,324,159318,2,0,P|394:312|363:249,1,128,8|8,0:2|0:2,0:0:0:0:
384,180,159787,1,8,0:0:0:0:
384,180,160099,5,8,0:2:0:0:
313,136,160255,2,0,B|272:131|272:131|176:145,1,128,8|8,0:2|0:2,0:0:0:0:
161,223,160724,2,0,L|243:212,1,64,8|8,0:0|0:2,0:0:0:0:
305,235,161037,1,8,3:0:0:0:
285,315,161193,1,8,3:2:0:0:
358,353,161349,2,0,L|440:342,1,64,8|8,0:0|0:2,0:0:0:0:
466,273,161662,5,8,0:2:0:0:
419,204,161818,2,0,L|428:71,1,128,8|8,0:2|0:2,0:0:0:0:
501,37,162287,1,8,0:0:0:0:
501,37,162599,5,8,0:2:0:0:
498,120,162755,2,0,P|449:157|373:138,1,128,8|8,0:2|0:2,0:0:0:0:
303,136,163224,2,0,P|313:100|345:75,1,64,8|8,0:0|0:2,0:0:0:0:
414,67,163537,1,8,3:0:0:0:
469,129,163693,1,8,3:2:0:0:
431,202,163849,2,0,L|431:247,3,32,8|8|8|8,0:0|0:0|0:0|0:0,0:0:0:0:
431,264,164162,5,8,0:2:0:0:
477,339,164318,2,0,B|436:349|436:349|340:330,1,136.000002593994,8|8,0:2|0:2,0:0:0:0:
285,263,164787,1,8,0:0:0:0:
285,263,165099,5,8,0:2:0:0:
222,327,165255,2,0,P|194:303|85:302,1,136.000002593994,8|8,0:2|0:2,0:0:0:0:
10,284,165724,2,0,L|22:210,1,68.0000012969971,8|8,0:0|0:2,0:0:0:0:
83,153,166037,1,8,0:0:0:0:
150,210,166193,2,0,P|188:215|221:195,1,68.0000012969971,12|0,0:2|2:0,0:0:0:0:
264,130,166505,1,8,0:0:0:0:
264,130,166662,6,0,P|318:96|392:126,1,136.000002593994,12|8,0:2|0:2,0:0:0:0:
444,179,167130,2,0,B|414:197|414:197|368:206,1,68.0000012969971,8|8,0:0|0:2,0:0:0:0:
293,208,167443,1,8,0:2:0:0:
213,246,167599,2,0,P|179:252|142:243,1,68.0000012969971,8|8,0:0|0:2,0:0:0:0:
80,189,167912,6,0,L|93:108,1,68.0000012969971,8|8,0:0|0:2,0:0:0:0:
158,178,168224,2,0,L|147:245,1,68.0000012969971,8|8,0:0|0:2,0:0:0:0:
126,330,168537,6,0,B|157:344|199:314,2,58.6666684570313,8|8|0,0:0|0:0|0:0,0:0:0:0:
70,311,168849,2,0,B|43:330|47:361,2,58.6666684570313,8|8|0,0:0|0:0|0:0,0:0:0:0:
112,278,169162,5,12,0:2:0:0:
188,255,169318,2,0,P|209:181|182:103,1,160,8|8,0:2|0:2,0:0:0:0:
209,28,169787,2,0,P|245:40|296:21,1,80,8|8,0:0|0:2,0:0:0:0:
332,93,170099,2,0,P|303:118|294:171,1,80
349,214,170412,5,8,0:2:0:0:
294,271,170568,2,0,B|257:291|257:291|183:273|183:273|163:265|148:274|153:292,1,160,0|8,0:0|0:2,0:0:0:0:
162,366,171037,1,8,0:0:0:0:
89,332,171193,2,0,P|75:263|141:196,1,160,8|0,0:2|0:0,0:0:0:0:
201,162,171662,5,12,0:2:0:0:
280,163,171818,2,0,P|345:170|401:88,1,160,8|8,0:2|0:2,0:0:0:0:
362,29,172287,2,0,P|331:53|320:91,1,80,8|8,0:0|0:2,0:0:0:0:
356,166,172599,2,0,L|348:264,1,80,0|0,0:0|0:0,0:0:0:0:
286,296,172912,5,8,0:2:0:0:
211,268,173068,2,0,B|212:235|212:235|198:198|198:198|208:87,1,160,0|8,0:0|0:2,0:0:0:0:
286,106,173537,2,0,B|279:200,1,80,8|8,0:0|0:2,0:0:0:0:
121,173,173849,2,0,B|130:78,1,80,0|0,0:0|0:0,0:0:0:0:
200,56,174162,5,12,0:2:0:0:
278,69,174318,2,0,B|316:95|364:95|402:70|402:70|423:111,1,160,8|8,0:2|0:2,0:0:0:0:
410,175,174787,1,8,0:0:0:0:
451,243,174943,2,0,P|451:281|433:325,2,80,8|0|0,0:2|0:0|0:0,0:0:0:0:
410,175,175412,5,8,0:2:0:0:
361,119,175568,2,0,P|410:131|485:42,1,160,0|8,0:0|0:2,0:0:0:0:
405,48,176037,2,0,L|317:28,1,80,8|8,0:0|0:2,0:0:0:0:
258,71,176349,2,0,L|170:91,1,80,0|0,0:0|0:0,0:0:0:0:
113,43,176662,5,12,0:2:0:0:
95,120,176818,2,0,P|153:177|237:161,1,160,8|8,0:2|0:2,0:0:0:0:
300,137,177287,1,8,0:0:0:0:
298,54,177443,2,0,P|231:92|226:169,1,160,8|0,0:2|0:0,0:0:0:0:
295,212,177912,6,0,B|313:175|313:175|300:138,1,80,8|8,0:0|0:2,0:0:0:0:
226,168,178224,2,0,B|208:205|208:205|221:242,1,80,8|8,3:0|3:2,0:0:0:0:
381,212,178537,2,0,B|395:176|395:176|377:126,1,80,8|8,0:2|0:2,0:0:0:0:
296,57,178849,2,0,L|300:140,1,80,0|0,0:0|0:0,0:0:0:0:
303,217,179162,5,12,0:2:0:0:
347,283,179318,2,0,B|325:298|292:300|267:288|267:288|248:280|234:267|218:268|203:281|207:299,1,160,8|8,0:2|0:2,0:0:0:0:
252,360,179787,2,0,P|291:373|339:363,1,80,8|8,0:0|0:2,0:0:0:0:
404,342,180099,2,0,P|429:303|424:262,1,80,0|0,0:0|0:0,0:0:0:0:
388,200,180412,5,8,0:2:0:0:
420,127,180568,2,0,B|440:103|440:103|393:117|352:115|309:93,1,160,0|8,0:0|0:2,0:0:0:0:
245,54,181037,1,8,0:0:0:0:
182,104,181193,2,0,P|133:108|71:25,1,160,8|0,0:2|0:0,0:0:0:0:
151,31,181662,5,12,0:2:0:0:
182,104,181818,2,0,L|191:286,1,160,8|8,0:2|0:2,0:0:0:0:
272,361,182287,2,0,P|277:314|262:274,1,80,8|8,0:0|0:2,0:0:0:0:
119,300,182599,2,0,P|114:347|129:387,1,80,0|0,0:0|0:0,0:0:0:0:
190,265,182912,5,8,0:2:0:0:
186,185,183068,2,0,L|182:99,2,80,8|8|8,0:2|0:0|0:2,0:0:0:0:
190,265,183537,2,0,B|220:274|220:274|273:262,1,80,8|8,3:0|0:2,0:0:0:0:
186,185,183849,2,0,B|156:176|156:176|103:188,1,80,8|0,0:0|0:0,0:0:0:0:
51,243,184162,5,12,0:2:0:0:
32,165,184318,2,0,B|56:119|56:119|163:96,1,160,8|8,0:2|0:2,0:0:0:0:
240,113,184787,1,8,0:0:0:0:
315,87,184943,2,0,P|355:81|402:92,2,80,8|0|0,0:2|0:0|0:0,0:0:0:0:
240,113,185412,5,8,0:2:0:0:
217,189,185568,2,0,P|226:238|339:268,1,160,0|8,0:0|0:2,0:0:0:0:
387,238,186037,2,0,P|400:275|391:314,1,80,8|8,0:0|0:2,0:0:0:0:
323,353,186349,2,0,P|310:315|319:277,1,80,0|0,0:0|0:0,0:0:0:0:
387,238,186662,5,12,0:2:0:0:
426,168,186818,2,0,B|406:146|371:149|351:160|351:160|327:174|311:173|291:155|297:140|316:131,1,160,8|8,0:2|0:2,0:0:0:0:
368,79,187287,1,8,0:0:0:0:
289,58,187443,2,0,P|229:109|231:194,1,160,8|8,0:2|0:2,0:0:0:0:
283,243,187912,5,8,0:0:0:0:
240,310,188068,2,0,L|66:324,1,160,8|8,0:2|0:2,0:0:0:0:
105,238,188537,1,8,0:0:0:0:
105,238,188693,1,8,0:0:0:0:
61,161,188849,1,8,0:0:0:0:
61,161,189005,1,8,0:0:0:0:
100,82,189162,5,12,0:2:0:0:
174,128,189318,2,0,P|240:132|304:64,1,160,8|8,0:2|0:2,0:0:0:0:
359,11,189787,1,8,0:0:0:0:
435,35,189943,2,0,L|424:204,1,160,8|0,0:2|0:0,0:0:0:0:
389,266,190412,5,8,0:2:0:0:
436,329,190568,2,0,P|467:258|425:195,1,160,8|8,0:2|0:2,0:0:0:0:
344,200,191037,2,0,P|303:209|265:200,1,80,8|8,0:0|0:2,0:0:0:0:
195,163,191349,2,0,P|156:154|117:163,1,80,0|0,0:0|0:0,0:0:0:0:
48,204,191662,5,12,0:2:0:0:
54,124,191818,2,0,P|82:91|117:163,1,160,8|8,0:2|0:2,0:0:0:0:
48,204,192287,1,8,0:0:0:0:
64,282,192443,2,0,B|106:296|106:296|224:283,1,160,8|0,0:2|0:0,0:0:0:0:
291,245,192912,5,8,0:2:0:0:
354,292,193068,2,0,P|285:325|221:284,1,160,8|8,0:2|0:2,0:0:0:0:
290,169,193537,2,0,P|302:210|290:246,1,80,8|8,0:0|0:2,0:0:0:0:
222,206,193849,2,0,P|210:165|221:128,1,80,8|8,3:0|3:0,0:0:0:0:
288,88,194162,5,12,0:2:0:0:
356,129,194318,2,0,P|403:169|506:123,1,160,8|8,0:2|0:2,0:0:0:0:
507,63,194787,1,8,0:0:0:0:
430,86,194943,2,0,L|419:251,1,160,8|0,0:2|0:0,0:0:0:0:
490,282,195412,5,8,0:2:0:0:
493,202,195568,2,0,P|446:162|343:208,1,160,8|8,0:2|0:2,0:0:0:0:
311,250,196037,2,0,L|325:332,1,80,8|8,0:0|0:2,0:0:0:0:
252,363,196349,2,0,L|238:281,1,80,0|0,0:0|0:0,0:0:0:0:
245,204,196662,5,12,0:2:0:0:
226,126,196818,2,0,B|216:96|216:96|266:131|308:79|341:107|346:131,1,160,8|8,0:2|0:2,0:0:0:0:
404,161,197287,2,0,P|422:121|405:74,2,80,8|8|0,0:0|0:2|0:0,0:0:0:0:
331,194,197755,1,0,0:0:0:0:
253,216,197912,6,0,P|235:256|252:303,1,80,8|8,0:0|0:2,0:0:0:0:
307,336,198224,2,0,P|325:296|308:249,1,80,8|8,3:0|0:2,0:0:0:0:
169,279,198537,2,0,P|209:297|256:280,1,80,8|8,0:0|0:2,0:0:0:0:
104,231,198849,2,0,P|86:271|103:318,1,80,8|0,0:0|2:0,0:0:0:0:
175,201,199162,5,12,0:2:0:0:
113,149,199318,2,0,P|166:121|254:195,1,160,8|8,0:2|0:2,0:0:0:0:
298,227,199787,2,0,L|395:237,1,80,8|8,0:0|0:2,0:0:0:0:
485,301,200099,2,0,P|446:316|406:308,1,80,0|0,0:0|0:0,0:0:0:0:
378,235,200412,5,8,0:2:0:0:
401,158,200568,2,0,P|421:92|512:73,1,160,8|8,0:2|0:2,0:0:0:0:
480,146,201037,2,0,L|485:227,1,80,8|8,0:0|0:2,0:0:0:0:
447,296,201349,2,0,P|409:305|363:296,1,80,0|0,0:0|0:0,0:0:0:0:
305,249,201662,5,12,0:2:0:0:
237,292,201818,2,0,P|160:292|120:224,1,160,8|8,0:2|0:2,0:0:0:0:
150,152,202287,1,8,0:0:0:0:
193,80,202443,2,0,P|233:146|202:216,1,160,8|0,0:2|0:0,0:0:0:0:
97,205,202912,6,0,P|119:167|169:152,1,80,8|8,0:2|0:2,0:0:0:0:
132,276,203224,2,0,P|89:286|44:262,1,80,8|8,0:0|0:2,0:0:0:0:
14,195,203537,2,0,L|9:109,1,80,8|8,3:0|3:0,0:0:0:0:
129,53,203849,2,0,P|89:35|43:47,1,80,8|0,0:0|2:0,0:0:0:0:
82,115,204162,5,12,0:2:0:0:
160,129,204318,2,0,P|230:142|317:130,1,160,8|8,0:2|0:2,0:0:0:0:
354,58,204787,1,8,0:0:0:0:
274,66,204943,2,0,P|238:134|305:205,1,160,8|0,0:2|0:0,0:0:0:0:
359,190,205412,5,8,0:2:0:0:
428,150,205568,2,0,B|448:181|440:220|420:242|420:242|432:317,1,160,8|8,0:2|0:2,0:0:0:0:
355,333,206037,2,0,P|318:317|267:326,1,80,8|8,0:0|0:2,0:0:0:0:
203,347,206349,2,0,P|198:306|217:269,1,80,0|0,0:0|0:0,0:0:0:0:
287,238,206662,5,12,0:2:0:0:
328,169,206818,2,0,P|289:112|261:185,1,160,8|8,0:2|0:2,0:0:0:0:
287,238,207287,2,0,P|288:278|274:323,2,80,8|8|0,0:0|0:2|0:0,0:0:0:0:
250,167,207755,1,8,0:2:0:0:
250,167,207912,5,8,0:0:0:0:
196,107,208068,2,0,B|229:80|229:80|360:103,1,160,8|8,0:2|0:2,0:0:0:0:
480,167,208537,2,0,L|396:153,1,80,8|8,0:0|0:2,0:0:0:0:
250,167,208849,2,0,L|334:181,1,80
411,256,209162,5,12,0:2:0:0:
256,192,209318,12,0,213146,2:0:0:0:
