osu file format v14

[General]
AudioFilename: ONE OK ROCK - Clock Strikes.mp3
AudioLeadIn: 0
PreviewTime: 51349
Countdown: 0
SampleSet: Normal
StackLeniency: 0.7
Mode: 0
LetterboxInBreaks: 0
WidescreenStoryboard: 0

[Editor]
DistanceSpacing: 1.3
BeatDivisor: 8
GridSize: 4
TimelineZoom: 3.100004

[Metadata]
Title:Clock Strikes
TitleUnicode:Clock Strikes
Artist:ONE OK ROCK
ArtistUnicode:ONE OK ROCK
Creator:Saut
Version:Advanced
Source:
Tags:人生×僕= Jinsei x Boku taka toru ryota tomoya pishifat moway pkhg
BeatmapID:633377
BeatmapSetID:249624

[Difficulty]
HPDrainRate:4
CircleSize:3.5
OverallDifficulty:4
ApproachRate:6.5
SliderMultiplier:1.3
SliderTickRate:2

[Events]
//Background and Video events
0,0,"bg.jpg",0,0
//Break Periods
2,46974,49593
2,71974,80687
2,119474,125687
//Storyboard Layer 0 (Background)
//Storyboard Layer 1 (Fail)
//Storyboard Layer 2 (Pass)
//Storyboard Layer 3 (Foreground)
//Storyboard Sound Samples

[TimingPoints]
6662,312.5,4,1,1,100,1,0
6662,-133.333333333333,4,2,1,50,0,0
26193,-100,4,1,1,65,0,0
26662,-100,4,1,1,60,0,0
36662,-100,4,1,1,65,0,0
46505,-100,4,1,1,50,0,0
50568,-100,4,3,1,60,0,0
51662,-100,4,1,1,75,0,1
71662,-100,4,1,1,85,0,0
81662,-100,4,1,1,60,0,0
91662,-100,4,1,1,55,0,0
96037,-100,4,1,1,70,0,0
96662,-100,4,1,1,85,0,1
97130,-100,4,1,1,75,0,1
116662,-100,4,1,1,75,0,0
119162,-100,4,1,1,15,0,0
126662,-133.333333333333,4,2,3,50,0,0
136662,-117.647058823529,4,1,1,50,0,0
146662,-100,4,1,1,55,0,0
156662,-100,4,1,1,60,0,0
164162,-100,4,1,1,65,0,0
167912,-100,4,3,1,65,0,0
168537,-100,4,1,1,70,0,0
169162,-100,4,1,1,85,0,1
169474,-100,4,1,1,75,0,1
187912,-100,4,1,1,75,0,0
189162,-100,4,1,1,85,0,1
189318,-100,4,1,1,75,0,0
194162,-100,4,1,1,85,0,1
194318,-100,4,1,1,75,0,0
199162,-100,4,1,1,85,0,1
199318,-100,4,1,1,75,0,0
204162,-100,4,1,1,85,0,1
204318,-100,4,1,1,75,0,0
209162,-100,4,1,1,85,0,1
209318,-100,4,1,1,50,0,0
212287,-100,4,1,1,45,0,0
212443,-100,4,1,1,40,0,0
212599,-100,4,1,1,35,0,0
212755,-100,4,1,1,30,0,0
212912,-100,4,1,1,20,0,0
213029,-100,4,1,1,10,0,0
213146,-100,4,1,1,40,0,0

[Colours]
Combo1 : 85,74,123
Combo2 : 201,185,185
Combo3 : 225,230,208
Combo4 : 204,85,77
Combo5 : 119,119,132

[HitObjects]
289,302,6662,5,8,0:2:0:0:
320,338,6818,2,0,L|432:342,1,97.50000371933,2|0,0:0|0:2,0:0:0:0:
463,323,7287,2,0,P|479:278|471:221,1,97.50000371933,2|0,0:0|0:0,0:0:0:0:
443,191,7755,2,0,P|440:146|463:97,1,97.50000371933,2|0,0:0|0:0,0:0:0:0:
482,55,8224,1,2,0:0:0:0:
386,72,8537,1,0,0:0:0:0:
297,38,8849,1,0,0:0:0:0:
317,133,9162,5,0,0:0:0:0:
317,133,9318,2,0,P|322:180|304:237,1,97.50000371933,2|0,0:0|0:0,0:0:0:0:
282,268,9787,2,0,L|171:279,1,97.50000371933,2|0,0:0|0:0,0:0:0:0:
136,276,10255,2,0,P|106:244|132:197,1,97.50000371933,2|0,0:0|0:0,0:0:0:0:
174,195,10724,1,2,0:0:0:0:
147,100,11037,1,0,0:0:0:0:
106,13,11349,1,0,0:0:0:0:
68,103,11662,5,0,0:0:0:0:
68,103,11818,2,0,L|89:200,1,97.50000371933,2|0,0:0|0:0,0:0:0:0:
118,237,12287,2,0,L|93:337,1,97.50000371933,2|0,0:0|0:0,0:0:0:0:
89,379,12755,2,0,P|133:361|192:379,1,97.50000371933,2|0,0:0|0:0,0:0:0:0:
229,377,13224,1,2,0:0:0:0:
234,279,13537,1,0,0:0:0:0:
277,192,13849,1,0,0:0:0:0:
340,267,14162,5,0,0:0:0:0:
339,267,14318,2,0,B|361:258|361:258|397:278|451:255,1,97.50000371933,2|0,0:0|0:0,0:0:0:0:
480,249,14787,2,0,P|494:208|473:149,1,97.50000371933,2|0,0:0|0:0,0:0:0:0:
435,136,15255,2,0,L|461:26,1,97.50000371933,2|0,0:0|0:0,0:0:0:0:
487,2,15724,2,0,P|448:35|258:38,1,243.750009298325,2|0,0:0|0:0,0:0:0:0:
215,35,16662,6,0,L|152:60,2,48.750001859665,8|8|8,0:2|0:2|0:0,0:0:0:0:
215,132,17287,2,0,P|170:148|114:119,1,97.50000371933,2|0,0:0|0:0,0:0:0:0:
84,104,17755,2,0,L|99:214,1,97.50000371933,2|0,0:0|0:0,0:0:0:0:
107,248,18224,1,2,0:0:0:0:
200,277,18537,2,0,L|200:349,2,48.750001859665,0|0|0,0:0|0:0|0:0,0:0:0:0:
244,189,19162,6,0,L|245:138,2,48.750001859665,8|8|8,0:2|0:2|0:0,0:0:0:0:
292,273,19787,1,2,0:0:0:0:
348,194,20099,1,0,0:0:0:0:
348,194,20255,2,0,P|365:149|356:102,1,97.50000371933,2|0,0:0|0:0,0:0:0:0:
331,60,20724,2,0,L|374:23,1,48.750001859665,2|0,0:0|0:0,0:0:0:0:
413,48,21037,2,0,P|442:104|435:194,1,146.250005578995,0|0,0:0|0:0,0:0:0:0:
409,225,21662,6,0,L|422:284,2,48.750001859665,8|8|8,0:2|0:2|0:0,0:0:0:0:
326,276,22287,2,0,P|345:334|389:361,1,97.50000371933,2|0,0:0|0:0,0:0:0:0:
419,368,22755,2,0,P|468:354|505:308,1,97.50000371933,2|0,0:0|0:0,0:0:0:0:
478,276,23224,1,2,0:0:0:0:
480,227,23380,2,0,B|495:97|495:97|469:126|418:114,1,195.00000743866,0|0,0:0|0:0,0:0:0:0:
387,109,24162,6,0,L|317:120,2,48.750001859665,8|8|8,0:2|0:2|0:0,0:0:0:0:
333,27,24787,2,0,P|295:31|256:90,1,97.50000371933,2|0,0:0|0:0,0:0:0:0:
267,121,25255,2,0,P|277:174|260:237,1,97.50000371933,2|0,0:0|0:0,0:0:0:0:
228,242,25724,2,0,L|164:234,1,48.750001859665,2|0,0:0|0:0,0:0:0:0:
87,239,26193,2,0,L|83:189,5,32.5,0|0|8|0|8|0,2:0|2:0|0:0|0:0|0:0|0:0,0:0:0:0:
65,168,26662,6,0,P|83:136|89:106,1,65,12|0,0:2|0:0,0:0:0:0:
63,27,26974,2,0,L|141:22,1,65,8|0,0:0|0:0,0:0:0:0:
169,97,27287,2,0,P|230:70|290:81,1,130,8|0,0:2|0:0,0:0:0:0:
359,129,27755,2,0,P|386:190|375:250,1,130,8|8,0:0|0:2,0:0:0:0:
314,309,28224,2,0,L|248:301,1,65,8|0,0:0|0:0,0:0:0:0:
165,313,28537,1,8,0:2:0:0:
156,229,28693,2,0,P|125:235|101:257,2,65,8|0|0,0:2|2:0|2:0,0:0:0:0:
241,226,29162,5,8,0:2:0:0:
197,153,29318,2,0,P|168:144|112:162,2,65,8|8|0,0:2|0:0|0:0,0:0:0:0:
281,149,29787,2,0,B|325:156|369:126|369:126|355:159,1,130,8|0,0:2|0:0,0:0:0:0:
321,237,30255,2,0,B|368:252|406:224|406:224|461:212,1,130,8|8,0:2|0:2,0:0:0:0:
496,148,30724,2,0,L|482:73,1,65,8|0,0:0|0:0,0:0:0:0:
405,117,31037,2,0,L|391:42,1,65,8|8,0:2|0:2,0:0:0:0:
311,75,31349,2,0,L|300:32,3,32.5,8|0|8|0,0:0|0:0|0:0|0:0,0:0:0:0:
267,20,31662,6,0,P|234:35|205:38,1,65,12|8,0:2|0:2,0:0:0:0:
126,67,31974,1,8,0:0:0:0:
53,110,32130,2,0,P|40:81|41:49,2,65,0|8|8,0:0|0:2|0:2,0:0:0:0:
126,154,32599,1,0,0:0:0:0:
207,175,32755,2,0,P|222:236|189:290,1,130,8|8,0:0|0:2,0:0:0:0:
154,367,33224,2,0,B|218:383|218:350|283:367,1,130,8|8,0:0|0:2,0:0:0:0:
352,318,33693,1,8,0:2:0:0:
319,240,33849,2,0,P|321:205|333:178,1,65,0|0,2:0|2:0,0:0:0:0:
277,113,34162,6,0,P|288:78|285:38,2,65,8|8|8,0:2|0:2|0:0,0:0:0:0:
240,188,34630,1,0,0:0:0:0:
240,188,34787,2,0,L|165:194,1,65,8|8,0:2|0:2,0:0:0:0:
95,224,35099,1,0,0:0:0:0:
14,247,35255,2,0,P|19:185|70:143,1,130,8|8,0:2|0:2,0:0:0:0:
153,138,35724,2,0,L|218:132,1,65,8|0,0:0|0:0,0:0:0:0:
290,88,36037,2,0,P|317:123|363:138,1,65,8|8,0:2|0:2,0:0:0:0:
418,126,36349,2,0,L|417:178,3,32.5,8|0|8|0,0:0|2:0|0:0|2:0,0:0:0:0:
415,201,36662,6,0,P|389:217|334:221,1,65,12|8,0:2|0:2,0:0:0:0:
285,176,36974,1,8,0:0:0:0:
207,209,37130,2,0,P|193:276|204:343,1,130,0|8,0:0|0:2,0:0:0:0:
279,370,37599,2,0,P|288:335|279:305,1,65,8|8,0:0|0:2,0:0:0:0:
346,254,37912,2,0,P|338:222|347:191,2,65,0|8|8,0:0|0:2|0:0,0:0:0:0:
424,223,38380,2,0,P|432:287|418:350,1,130,0|8,0:0|0:2,0:0:0:0:
337,377,38849,2,0,L|271:347,1,65,8|0,0:0|0:0,0:0:0:0:
252,268,39162,6,0,B|206:286|206:286|123:264,1,130,8|8,0:2|0:0,0:0:0:0:
53,304,39630,1,0,2:0:0:0:
5,233,39787,2,0,L|-1:168,1,65,8|8,0:2|0:2,0:0:0:0:
59,109,40099,1,8,0:0:0:0:
136,143,40255,2,0,P|178:144|212:135,1,65,8|0,0:2|0:0,0:0:0:0:
222,57,40568,2,0,L|297:66,1,65,8|8,0:2|0:0,0:0:0:0:
356,111,40880,2,0,P|356:174|314:221,1,130,0|8,0:0|0:2,0:0:0:0:
253,280,41349,2,0,P|232:248|235:211,1,65,8|8,0:0|0:2,0:0:0:0:
243,138,41662,6,0,L|173:155,1,65,12|8,0:2|0:2,0:0:0:0:
99,179,41974,2,0,P|73:199|41:205,1,65,8|0,0:0|0:0,0:0:0:0:
14,285,42287,2,0,P|45:297|67:322,1,65,8|8,0:2|0:2,0:0:0:0:
149,308,42599,2,0,P|145:275|156:244,1,65,8|8,0:0|0:2,0:0:0:0:
194,170,42912,2,0,P|241:221|221:289,1,130,0|8,0:0|0:0,0:0:0:0:
269,351,43380,2,0,L|334:345,1,65,0|8,0:0|0:2,0:0:0:0:
344,260,43693,2,0,L|409:266,1,65,8|8,0:2|0:0,0:0:0:0:
464,329,44005,6,0,P|495:258|474:211,1,130,0|8,0:0|0:2,0:0:0:0:
417,152,44474,1,8,0:0:0:0:
417,152,44630,2,0,L|288:141,1,130,0|8,0:0|0:0,0:0:0:0:
203,150,45099,1,8,0:2:0:0:
130,193,45255,2,0,L|60:188,2,65,0|8|8,0:0|0:2|0:2,0:0:0:0:
173,265,45724,2,0,L|254:271,1,65,8|8,0:0|0:2,0:0:0:0:
304,216,46037,2,0,L|364:250,1,65,8|8,0:0|0:2,0:0:0:0:
443,263,46349,2,0,P|432:296|398:323,1,65,8|8,0:0|0:2,0:0:0:0:
108,311,50568,6,0,B|57:301|57:301|26:313,2,65,8|8|0,0:0|0:2|0:0,0:0:0:0:
191,327,51037,2,0,L|263:318,1,65,8|8,1:0|0:2,0:0:0:0:
256,319,51662,6,0,P|277:273|186:182,1,195,12|8,0:2|0:2,0:0:0:0:
118,227,52287,2,0,P|79:232|48:221,1,65,8|8,0:0|0:2,0:0:0:0:
83,145,52599,2,0,P|48:127|33:96,1,65
110,65,52912,2,0,B|133:53|145:35|145:35|205:80|251:79|298:53,1,195,8|8,0:2|0:2,0:0:0:0:
362,28,53537,2,0,P|417:14|431:129,1,195,8|0,0:0|0:0,0:0:0:0:
391,188,54162,6,0,P|352:257|445:346,1,195,12|8,0:2|0:2,0:0:0:0:
438,261,54787,1,8,0:0:0:0:
476,185,54943,2,0,L|478:110,1,65,8|0,0:2|0:0,0:0:0:0:
400,85,55255,1,0,0:0:0:0:
322,119,55412,2,0,P|205:126|116:102,1,195,8|8,0:2|0:2,0:0:0:0:
64,53,56037,2,0,P|89:30|121:23,1,65,8|8,0:0|0:2,0:0:0:0:
193,60,56349,2,0,P|208:90|205:129,1,65,8|0,0:2|0:0,0:0:0:0:
150,184,56662,6,0,B|132:213|125:246|131:280|158:304|183:308|183:308|193:288|225:275,1,195,12|8,0:2|0:2,0:0:0:0:
297,256,57287,1,8,0:0:0:0:
375,287,57443,2,0,P|401:297|426:330,2,65,8|0|0,0:2|0:0|0:0,0:0:0:0:
297,256,57912,2,0,B|289:186|289:186|302:123|302:123|296:47,1,195,8|8,0:2|0:2,0:0:0:0:
222,102,58537,2,0,P|292:147|379:79,1,195,8|0,0:0|0:0,0:0:0:0:
427,23,59162,6,0,B|462:39|478:75|478:115|458:164|395:205,1,195,12|8,0:2|0:2,0:0:0:0:
364,251,59787,1,8,0:0:0:0:
316,320,59943,2,0,P|344:335|393:326,2,65,8|0|0,0:2|0:0|0:0,0:0:0:0:
242,276,60412,2,0,L|170:286,1,65,8|8,0:0|0:2,0:0:0:0:
131,214,60724,2,0,L|203:205,1,65,8|8,3:0|3:2,0:0:0:0:
279,194,61037,2,0,P|268:158|244:137,1,65,8|8,0:0|0:2,0:0:0:0:
164,131,61349,2,0,L|94:140,1,65,8|0,0:0|0:0,0:0:0:0:
92,54,61662,6,0,B|161:45|161:45|225:65|225:65|301:57,1,195,12|8,0:2|0:2,0:0:0:0:
366,41,62287,2,0,L|436:65,1,65,8|8,0:0|0:2,0:0:0:0:
511,71,62599,2,0,P|503:105|479:130,1,65
400,136,62912,2,0,B|336:115|336:115|359:170|359:213|325:271,1,195,8|8,0:2|0:2,0:0:0:0:
292,308,63537,2,0,P|244:257|128:330,1,195,8|0,0:0|0:0,0:0:0:0:
212,335,64162,6,0,B|195:267|237:200|220:131,1,195,12|8,0:2|0:2,0:0:0:0:
177,69,64787,1,8,0:0:0:0:
248,23,64943,2,0,L|322:36,1,65,8|0,0:2|0:0,0:0:0:0:
396,29,65255,1,0,0:0:0:0:
396,29,65412,2,0,P|398:66|424:103,1,65,8|8,0:2|0:2,0:0:0:0:
485,129,65724,2,0,L|468:201,1,65,8|8,0:0|3:2,0:0:0:0:
483,276,66037,2,0,L|427:316,1,65,8|8,3:0|3:2,0:0:0:0:
345,307,66349,2,0,P|309:296|273:305,1,65,8|0,0:0|0:0,0:0:0:0:
203,331,66662,6,0,P|245:294|246:139,1,195,12|8,0:2|0:2,0:0:0:0:
235,80,67287,1,8,0:0:0:0:
315,104,67443,2,0,P|334:137|343:174,2,65,8|0|0,0:2|0:0|0:0,0:0:0:0:
363,34,67912,2,0,B|415:91|425:166|425:166|471:125,1,195,8|8,0:2|0:2,0:0:0:0:
499,59,68537,2,0,L|481:289,1,195,8|0,0:0|0:0,0:0:0:0:
475,337,69162,6,0,P|455:281|291:285,1,195,12|8,0:2|0:2,0:0:0:0:
271,306,69787,1,8,0:0:0:0:
188,288,69943,2,0,L|111:282,2,65,8|0|8,0:2|0:0|0:2,0:0:0:0:
246,226,70412,2,0,P|241:185|222:148,2,65,8|8|8,0:0|0:2|0:2,0:0:0:0:
271,306,70880,2,0,P|276:347|295:384,2,65,8|8|8,0:0|0:2|0:2,0:0:0:0:
326,241,71349,2,0,P|324:203|309:155,1,65,8|0,0:0|0:0,0:0:0:0:
279,101,71662,5,12,0:2:0:0:
104,208,81662,6,0,L|112:276,2,65,8|8|8,0:2|0:2|0:0,0:0:0:0:
160,144,82130,1,0,2:0:0:0:
240,172,82287,2,0,P|276:176|316:172,1,65,0|0,2:0|2:0,0:0:0:0:
372,124,82599,2,0,P|404:122|436:126,1,65,8|0,0:0|2:0,0:0:0:0:
408,208,82912,2,0,P|432:229|452:255,1,65,0|0,2:0|2:0,0:0:0:0:
376,288,83224,1,8,0:0:0:0:
304,332,83380,2,0,B|279:341|256:340|256:340|224:332|224:332|201:331|176:340,1,130,0|0,2:0|2:0,0:0:0:0:
96,312,83849,2,0,P|80:280|76:240,1,65,8|0,0:0|0:0,0:0:0:0:
80,168,84162,6,0,P|94:126|113:98,1,65,8|8,0:2|0:2,0:0:0:0:
180,64,84474,1,8,0:0:0:0:
252,108,84630,2,0,L|328:104,1,65,0|0,2:0|2:0,0:0:0:0:
356,180,84943,2,0,L|280:184,1,65,0|8,2:0|0:0,0:0:0:0:
208,180,85255,2,0,P|260:212|276:280,1,130,0|0,2:0|2:0,0:0:0:0:
192,264,85724,1,8,0:0:0:0:
128,212,85880,2,0,L|192:88,1,130,0|0,2:0|2:0,0:0:0:0:
260,52,86349,2,0,L|340:48,1,65,8|0,0:0|0:0,0:0:0:0:
400,92,86662,6,0,B|416:132|416:132|408:224,1,130,8|8,0:2|0:0,0:0:0:0:
360,288,87130,1,0,2:0:0:0:
324,212,87287,2,0,L|332:132,2,65,0|0|8,2:0|2:0|0:0,0:0:0:0:
276,280,87755,1,0,2:0:0:0:
196,252,87912,2,0,P|164:248|128:256,1,65,0|0,2:0|2:0,0:0:0:0:
44,228,88224,2,0,P|62:201|88:182,1,65,8|0,0:0|2:0,0:0:0:0:
172,164,88537,2,0,L|236:170,1,65,0|0,2:0|2:0,0:0:0:0:
320,184,88849,1,8,0:0:0:0:
376,252,89005,6,0,B|360:200|360:200|380:116,1,130,0|8,0:0|0:2,0:0:0:0:
436,64,89474,1,8,0:0:0:0:
436,64,89630,2,0,P|371:75|296:80,1,130,0|0,2:0|2:0,0:0:0:0:
224,96,90099,2,0,L|220:160,1,65,8|0,0:0|2:0,0:0:0:0:
164,224,90412,2,0,L|156:308,1,65,0|0,2:0|2:0,0:0:0:0:
240,268,90724,2,0,L|293:333,1,65,8|0,0:0|2:0,0:0:0:0:
324,244,91037,2,0,L|407:251,1,65,0|0,2:0|2:0,0:0:0:0:
364,168,91349,2,0,L|429:114,1,65,8|8,0:0|0:0,0:0:0:0:
468,60,91662,6,0,B|460:92|440:116|440:116|464:140|460:176|460:176|456:216|480:240,2,195,8|8|8,1:2|1:2|1:2,0:0:0:0:
352,184,92912,2,0,P|308:196|220:180,1,130,0|8,2:0|0:2,0:0:0:0:
72,116,93537,2,0,L|64:40,2,65,8|8|0,0:0|1:2|0:0,0:0:0:0:
188,240,94162,6,0,B|140:264|136:316|136:316|72:300|44:334,2,195,8|8|8,1:2|1:2|1:2,0:0:0:0:
332,332,95412,2,0,P|372:336|408:328,1,65,8|8,0:2|0:2,0:0:0:0:
456,272,95724,2,0,P|472:235|475:198,1,65,8|8,0:2|0:2,0:0:0:0:
444,132,96037,2,0,P|413:105|380:90,1,65,8|8,0:0|0:0,0:0:0:0:
308,96,96349,2,0,P|273:116|248:143,1,65,8|8,0:0|0:0,0:0:0:0:
232,216,96662,6,0,B|228:252|252:280|252:280|228:344|152:336,1,195,12|8,0:2|0:2,0:0:0:0:
88,280,97287,2,0,B|80:188|80:188|80:120|144:104,1,195,8|0,0:0|0:0,0:0:0:0:
216,120,97912,1,8,0:2:0:0:
292,80,98068,2,0,P|328:72|368:76,2,65,0|0|8,0:0|0:0|0:2,0:0:0:0:
288,164,98537,2,0,L|292:236,1,65,8|8,0:0|0:2,0:0:0:0:
356,284,98849,2,0,L|422:290,1,65
452,368,99162,6,0,B|312:356|312:356|276:304,1,195,12|8,0:2|0:2,0:0:0:0:
228,244,99787,2,0,P|192:236|152:244,1,65,8|8,0:0|0:2,0:0:0:0:
80,256,100099,2,0,P|52:248|20:224,1,65,0|0,0:0|0:0,0:0:0:0:
8,144,100412,2,0,B|32:96|12:48|12:48|60:64|112:40,1,195,8|8,0:2|0:2,0:0:0:0:
188,64,101037,2,0,L|260:72,1,65,8|8,0:0|0:2,0:0:0:0:
320,120,101349,2,0,L|388:116,1,65,8|8,0:0|0:2,0:0:0:0:
468,100,101662,6,0,P|392:132|396:236,1,195,12|8,0:2|0:2,0:0:0:0:
461,182,102287,1,8,0:0:0:0:
472,264,102443,2,0,P|448:300|416:316,1,65,8|0,0:2|0:0,0:0:0:0:
348,300,102755,1,0,0:0:0:0:
276,256,102912,2,0,P|192:216|120:280,1,195,8|8,0:2|0:2,0:0:0:0:
203,297,103537,2,0,B|200:199|200:199|179:97,1,195,8|0,0:0|0:0,0:0:0:0:
228,36,104162,6,0,P|258:29|296:32,1,65,12|8,0:2|0:2,0:0:0:0:
364,76,104474,2,0,P|366:108|372:148,1,65,0|8,2:0|0:2,0:0:0:0:
400,220,104787,2,0,B|432:260|420:312|420:312|376:344|324:328,1,195,8|0,0:0|0:0,0:0:0:0:
244,320,105412,2,0,P|211:317|180:316,1,65,8|8,0:0|0:2,0:0:0:0:
96,300,105724,2,0,P|88:268|84:224,1,65,8|8,3:0|3:2,0:0:0:0:
108,156,106037,2,0,P|111:123|112:84,1,65,8|8,0:0|0:2,0:0:0:0:
191,61,106349,2,0,P|222:57|271:57,1,65,8|0,0:0|0:0,0:0:0:0:
327,105,106662,6,0,B|307:153|335:197|335:197|279:189|247:233,1,195,12|8,0:2|0:2,0:0:0:0:
187,289,107287,2,0,P|151:293|99:289,1,65,8|8,0:0|0:2,0:0:0:0:
67,229,107599,2,0,L|63:153,1,65,0|0,0:0|0:0,0:0:0:0:
75,81,107912,2,0,B|116:85|136:120|136:120|183:77|255:113,1,195,8|8,0:2|0:2,0:0:0:0:
195,177,108537,2,0,P|175:69|254:25,1,195,8|0,0:0|0:0,0:0:0:0:
316,52,109162,6,0,B|396:100|396:100|436:204,1,195,12|8,0:2|0:2,0:0:0:0:
412,276,109787,1,8,0:0:0:0:
348,332,109943,2,0,L|272:336,1,65,8|0,0:2|0:0,0:0:0:0:
200,320,110255,1,0,0:0:0:0:
128,276,110412,2,0,P|96:272|64:276,2,65,8|8|8,0:2|0:2|0:0,0:0:0:0:
200,320,110880,1,8,0:2:0:0:
260,260,111037,2,0,P|272:220|272:180,1,65,8|8,3:0|3:2,0:0:0:0:
236,124,111349,2,0,P|232:84|236:44,1,65,8|0,0:0|0:0,0:0:0:0:
316,32,111662,6,0,B|368:20|400:68|400:68|366:116|401:178,1,195,12|8,0:2|0:2,0:0:0:0:
468,120,112287,1,8,0:0:0:0:
468,204,112443,2,0,L|464:308,1,65,8|0,0:2|0:0,0:0:0:0:
408,328,112755,1,0,0:0:0:0:
324,312,112912,2,0,B|284:292|240:308|240:308|220:324|220:324|176:336|128:316,1,195,8|8,0:2|0:2,0:0:0:0:
68,272,113537,2,0,L|64:192,1,65,8|8,0:0|0:2,0:0:0:0:
128,152,113849,2,0,P|160:144|192:148,1,65,0|0,0:0|0:0,0:0:0:0:
236,220,114162,6,0,B|212:156|212:156|240:28,1,195,12|8,0:2|0:2,0:0:0:0:
156,48,114787,2,0,P|216:112|315:68,1,195,8|8,0:0|0:2,0:0:0:0:
376,32,115412,2,0,P|408:28|448:32,1,65,8|8,0:0|0:2,0:0:0:0:
492,96,115724,2,0,L|496:168,1,65,0|8,0:0|0:0,0:0:0:0:
428,212,116037,2,0,L|400:288,1,65,8|8,0:2|0:2,0:0:0:0:
320,276,116349,2,0,L|252:304,1,65,8|0,0:0|0:0,0:0:0:0:
180,276,116662,5,12,0:2:0:0:
256,192,116818,12,0,119162,2:0:0:0:
184,314,126662,6,0,B|81:338|81:338|30:324,2,146.250005578995,10|0|8,0:1|0:0|0:1,0:0:0:0:
277,261,127912,5,10,0:1:0:0:
277,261,128068,2,0,P|339:289|412:266,1,146.250005578995,8|8,0:0|0:0,0:0:0:0:
449,166,128849,1,8,0:0:0:0:
394,71,129162,6,0,P|347:126|345:197,1,146.250005578995,10|8,0:1|0:1,0:0:0:0:
360,250,129787,1,8,0:2:0:0:
300,338,130099,1,8,0:1:0:0:
192,346,130412,6,0,P|154:292|168:216,1,146.250005578995,10|8,0:1|0:0,0:0:0:0:
196,171,131037,1,8,0:0:0:0:
190,64,131349,1,8,0:0:0:0:
296,49,131662,6,0,B|401:57|401:57|455:43,2,146.250005578995,10|8|8,0:1|0:1|0:1,0:0:0:0:
233,136,132912,5,2,0:0:0:0:
233,136,133068,2,0,P|178:147|106:85,1,146.250005578995,8|8,0:1|0:0,0:0:0:0:
22,33,133849,1,8,0:0:0:0:
42,138,134162,6,0,B|50:246|50:246|36:289,1,146.250005578995,10|8,0:1|0:1,0:0:0:0:
11,329,134787,1,8,0:0:0:0:
117,336,135099,1,8,0:1:0:0:
224,342,135412,6,0,L|370:332,1,146.250005578995,10|8,0:1|0:0,0:0:0:0:
421,315,136037,1,8,0:0:0:0:
392,211,136349,1,8,0:0:0:0:
324,127,136662,5,10,0:0:0:0:
225,231,136974,2,0,P|148:233|114:153,1,165.75000316143,8|8,0:0|0:0,0:0:0:0:
115,89,137599,1,0,2:0:0:0:
244,26,137912,2,0,B|243:87|243:87|191:117|191:117|191:165,1,165.75000316143,8|8,0:0|0:0,0:0:0:0:
193,233,138537,1,0,2:0:0:0:
306,320,138849,2,0,L|381:311,1,55.2500010538101,8|0,0:0|2:0,0:0:0:0:
432,301,139162,5,10,0:0:0:0:
488,169,139474,2,0,L|314:198,1,165.75000316143,8|8,0:0|0:0,0:0:0:0:
255,216,140099,1,0,2:0:0:0:
123,275,140412,2,0,P|85:227|122:120,1,165.75000316143,8|8,0:0|0:0,0:0:0:0:
161,83,141037,1,0,2:0:0:0:
303,66,141349,2,0,L|283:128,1,55.2500010538101,8|0,0:0|2:0,0:0:0:0:
294,190,141662,5,10,0:0:0:0:
331,328,141974,2,0,P|392:342|439:246,1,165.75000316143,8|8,0:0|0:0,0:0:0:0:
433,194,142599,1,0,2:0:0:0:
403,53,142912,2,0,P|356:103|248:88,1,165.75000316143,8|8,0:0|0:0,0:0:0:0:
201,63,143537,1,0,2:0:0:0:
61,30,143849,2,0,L|74:97,1,55.2500010538101,8|0,0:0|2:0,0:0:0:0:
105,147,144162,5,10,0:0:0:0:
26,267,144474,2,0,P|52:328|152:326,1,165.75000316143,8|8,0:0|0:0,0:0:0:0:
211,311,145099,1,0,2:0:0:0:
350,347,145412,2,0,P|368:266|305:206,1,165.75000316143,8|8,0:0|0:0,0:0:0:0:
244,201,146037,1,0,2:0:0:0:
102,225,146349,2,0,L|127:160,1,55.2500010538101,8|0,0:0|2:0,0:0:0:0:
156,103,146662,5,10,0:2:0:0:
33,199,146974,2,0,P|45:272|108:299,1,130,8|0,0:0|2:0,0:0:0:0:
166,285,147443,2,0,P|237:279|306:326,1,130,8|0,0:0|2:0,0:0:0:0:
346,356,147912,1,8,0:0:0:0:
433,226,148224,1,0,2:0:0:0:
371,177,148380,2,0,P|349:118|399:44,1,130,8|0,0:0|2:0,0:0:0:0:
448,31,148849,2,0,B|453:64|453:64|439:118,1,65,8|0,0:0|2:0,0:0:0:0:
490,158,149162,5,10,0:2:0:0:
473,312,149474,2,0,P|407:315|336:274,1,130,8|0,0:0|2:0,0:0:0:0:
294,233,149943,2,0,L|159:243,1,130,8|0,0:0|2:0,0:0:0:0:
109,298,150412,1,8,0:0:0:0:
179,159,150724,1,0,2:0:0:0:
219,92,150880,2,0,L|364:82,1,130,8|0,0:0|2:0,0:0:0:0:
422,56,151349,2,0,P|428:93|402:137,1,65,8|0,0:0|2:0,0:0:0:0:
353,161,151662,5,10,0:2:0:0:
454,279,151974,2,0,P|416:322|332:325,1,130,8|0,0:0|2:0,0:0:0:0:
276,296,152443,2,0,P|214:282|139:334,1,130,8|0,0:0|2:0,0:0:0:0:
104,368,152912,1,8,0:0:0:0:
1,250,153224,1,0,2:0:0:0:
34,179,153380,2,0,L|43:49,1,130,8|0,0:0|2:0,0:0:0:0:
121,52,153849,2,0,L|116:124,1,65,8|0,0:0|2:0,0:0:0:0:
146,189,154162,5,10,0:2:0:0:
234,60,154474,2,0,P|272:103|356:106,1,130,8|0,0:0|2:0,0:0:0:0:
418,96,154943,2,0,P|432:148|385:223,1,130,8|0,0:0|2:0,0:0:0:0:
332,254,155412,1,8,0:0:0:0:
443,362,155724,1,0,2:0:0:0:
365,358,155880,2,0,L|235:348,1,130,8|0,0:0|2:0,0:0:0:0:
165,313,156349,2,0,L|81:326,1,65,8|0,0:0|2:0,0:0:0:0:
24,304,156662,5,12,0:2:0:0:
20,228,156818,2,0,L|36:92,1,130,8|8,0:2|0:2,0:0:0:0:
96,48,157287,2,0,B|132:40|160:52|160:52|192:68|228:60,1,130,8|12,0:0|0:2,0:0:0:0:
292,24,157755,2,0,P|348:8|428:28,1,130,8|8,0:2|0:2,0:0:0:0:
472,80,158224,2,0,L|468:152,1,65,8|8,0:0|0:2,0:0:0:0:
412,200,158537,2,0,L|336:204,1,65,8|8,3:0|3:2,0:0:0:0:
272,184,158849,2,0,L|232:172,3,32.5,8|0|8|0,0:0|2:0|0:0|2:0,0:0:0:0:
208,156,159162,6,0,P|144:144|88:180,1,130,12|0,0:2|0:0,0:0:0:0:
64,248,159630,1,8,0:2:0:0:
112,312,159787,2,0,P|152:320|192:316,1,65,8|0,0:0|2:0,0:0:0:0:
248,292,160099,1,12,0:2:0:0:
268,216,160255,2,0,L|256:80,1,130,8|8,0:2|0:2,0:0:0:0:
296,20,160724,2,0,P|328:16|360:20,1,65,8|8,0:0|0:2,0:0:0:0:
408,80,161037,2,0,L|412:156,1,65,8|8,3:0|3:2,0:0:0:0:
472,196,161349,2,0,L|468:272,1,65,8|8,0:0|0:2,0:0:0:0:
416,320,161662,5,12,0:2:0:0:
340,344,161818,2,0,L|200:348,1,130,8|8,0:2|0:2,0:0:0:0:
140,308,162287,1,8,0:0:0:0:
92,160,162599,1,12,0:2:0:0:
152,112,162755,2,0,B|232:96|232:96|280:116,1,130,8|8,0:2|0:2,0:0:0:0:
228,176,163224,2,0,L|144:192,2,65,8|8|8,0:0|0:2|3:0,0:0:0:0:
304,188,163693,1,0,0:0:0:0:
356,132,163849,2,0,L|352:72,3,32.5,8|0|8|0,0:0|2:0|0:0|2:0,0:0:0:0:
348,60,164162,6,0,P|296:32|224:48,1,130,12|0,0:2|0:0,0:0:0:0:
164,88,164630,1,8,0:2:0:0:
140,164,164787,2,0,L|148:248,1,65,8|0,0:0|2:0,0:0:0:0:
188,296,165099,1,12,0:2:0:0:
252,340,165255,2,0,B|280:352|316:340|316:340|352:328|380:340,1,130,8|8,0:2|0:2,0:0:0:0:
456,328,165724,1,8,0:0:0:0:
504,264,165880,2,0,L|500:192,1,65,8|8,0:2|0:0,0:0:0:0:
476,124,166193,2,0,P|428:84|360:88,1,130,12|8,0:2|0:0,0:0:0:0:
296,124,166662,6,0,L|224:128,1,65,12|0,0:2|2:0,0:0:0:0:
155,145,166974,2,0,L|90:141,2,65,8|8|8,0:2|0:0|0:2,0:0:0:0:
208,204,167443,1,8,0:2:0:0:
168,272,167599,2,0,P|164:312|168:352,1,65,8|8,0:0|0:2,0:0:0:0:
244,340,167912,2,0,P|248:300|244:260,1,65,8|8,0:0|0:2,0:0:0:0:
264,200,168224,2,0,P|300:192|340:196,1,65,8|8,0:0|0:2,0:0:0:0:
396,243,168537,2,0,L|464:251,5,43.3333333333333,8|8|0|8|8|0,0:0|0:0|0:0|0:0|0:0|0:0,0:0:0:0:
484,232,169162,6,0,L|492:92,1,130,12|0,0:2|0:0,0:0:0:0:
428,56,169630,1,8,0:2:0:0:
352,76,169787,2,0,P|320:80|280:76,1,65,8|8,0:0|0:2,0:0:0:0:
214,50,170099,2,0,P|181:47|149:51,1,65,0|0,0:0|0:0,0:0:0:0:
96,108,170412,2,0,B|88:204|88:204|116:312,1,195,8|8,0:2|0:2,0:0:0:0:
184,332,171037,2,0,L|260:336,1,65,8|8,0:0|0:2,0:0:0:0:
324,352,171349,2,0,L|388:348,1,65,0|0,0:0|0:0,0:0:0:0:
452,300,171662,6,0,L|440:100,1,195,12|8,0:2|0:2,0:0:0:0:
376,60,172287,2,0,L|308:56,1,65,8|8,0:0|0:2,0:0:0:0:
260,116,172599,2,0,L|256:208,1,65,0|0,0:0|0:0,0:0:0:0:
207,242,172912,2,0,B|122:207|122:207|96:108,1,195,8|8,0:2|0:2,0:0:0:0:
28,144,173537,2,0,L|80:336,1,195,8|0,0:0|0:0,0:0:0:0:
152,360,174162,6,0,B|200:376|244:348|244:348|284:320|340:336,1,195,12|8,0:2|0:2,0:0:0:0:
416,316,174787,2,0,L|424:236,1,65,8|8,0:0|0:2,0:0:0:0:
444,176,175099,2,0,L|436:96,1,65,0|0,0:0|0:0,0:0:0:0:
388,52,175412,2,0,P|304:28|252:116,1,195,8|8,0:2|0:2,0:0:0:0:
280,180,176037,2,0,B|236:196|200:168|200:168|196:232|136:248,1,195,8|0,0:0|0:0,0:0:0:0:
96,316,176662,6,0,P|132:324|176:320,1,65,12|8,0:2|0:2,0:0:0:0:
236,300,176974,2,0,P|276:296|312:300,1,65,0|8,2:0|0:2,0:0:0:0:
380,304,177287,2,0,B|456:288|456:288|484:224|432:180,1,195,8|0,0:0|0:0,0:0:0:0:
364,144,177912,2,0,P|324:136|292:140,1,65,8|8,0:0|0:2,0:0:0:0:
276,64,178224,2,0,P|242:86|222:112,1,65,8|8,3:0|3:2,0:0:0:0:
156,68,178537,2,0,P|148:107|152:139,1,65,8|8,0:2|0:2,0:0:0:0:
76,156,178849,2,0,P|98:189|124:209,1,65,0|0,0:0|0:0,0:0:0:0:
196,204,179162,6,0,B|197:245|161:275|161:275|211:321|267:289,1,195,12|8,0:2|0:2,0:0:0:0:
328,244,179787,2,0,P|360:236|400:240,1,65,8|8,0:0|0:2,0:0:0:0:
452,192,180099,2,0,P|456:136|452:100,1,65,0|0,0:0|0:0,0:0:0:0:
396,76,180412,2,0,B|360:64|344:28|344:28|300:84|224:56,1,195,8|8,0:2|0:2,0:0:0:0:
156,48,181037,2,0,P|72:68|80:160,1,195,8|0,0:0|0:0,0:0:0:0:
132,220,181662,6,0,B|175:248|175:302|175:302|229:297|262:337,1,195,12|8,0:2|0:2,0:0:0:0:
340,352,182287,1,8,0:0:0:0:
408,316,182443,2,0,P|412:272|404:224,1,65,8|0,0:2|0:0,0:0:0:0:
376,180,182755,1,0,0:0:0:0:
376,180,182912,2,0,L|372:100,1,65,8|8,0:2|0:2,0:0:0:0:
308,68,183224,2,0,L|232:56,1,65,8|8,0:0|0:2,0:0:0:0:
220,132,183537,2,0,L|296:144,1,65,8|8,3:0|0:2,0:0:0:0:
295,219,183849,2,0,L|219:207,1,65,8|0,0:0|0:0,0:0:0:0:
159,179,184162,6,0,P|157:88|244:58,1,195,12|8,0:2|0:2,0:0:0:0:
320,72,184787,2,0,L|388:84,1,65,8|8,0:0|0:2,0:0:0:0:
432,144,185099,2,0,P|436:184|432:228,1,65,0|0,0:0|0:0,0:0:0:0:
400,280,185412,2,0,B|388:328|340:348|340:348|244:320,1,195,8|8,0:2|0:2,0:0:0:0:
200,252,186037,2,0,L|188:52,1,195,8|0,0:0|0:0,0:0:0:0:
116,88,186662,6,0,P|189:136|265:71,1,195,12|8,0:2|0:2,0:0:0:0:
324,28,187287,2,0,P|368:24|400:32,1,65,8|8,0:0|0:2,0:0:0:0:
360,100,187599,2,0,P|393:128|410:156,1,65,0|8,0:0|0:2,0:0:0:0:
332,176,187912,2,0,P|336:220|328:252,2,65,8|8|0,0:0|0:2|0:0,0:0:0:0:
261,208,188380,1,8,0:2:0:0:
261,208,188537,2,0,P|232:241|204:258,2,65,8|8|8,0:0|0:0|0:0,0:0:0:0:
264,132,189005,1,8,0:0:0:0:
332,96,189162,6,0,P|376:108|384:240,1,195,12|8,0:2|0:2,0:0:0:0:
320,276,189787,1,8,0:0:0:0:
244,276,189943,2,0,B|172:248|172:248|56:276,1,195,8|8,0:2|0:2,0:0:0:0:
10,338,190568,2,0,L|18:190,1,130,8|8,0:2|0:2,0:0:0:0:
60,144,191037,1,8,0:0:0:0:
128,108,191193,2,0,B|180:104|204:56|204:56|236:96|296:84,1,195,8|12,0:2|0:2,0:0:0:0:
368,68,191818,6,0,P|312:104|304:168,1,130,8|8,0:2|0:2,0:0:0:0:
356,219,192287,1,8,0:0:0:0:
379,144,192443,2,0,P|299:166|303:275,1,195,8|8,0:2|0:2,0:0:0:0:
360,300,193068,2,0,L|224:320,1,130,8|8,0:2|0:2,0:0:0:0:
152,308,193537,2,0,P|116:300|92:276,1,65,8|8,0:0|0:2,0:0:0:0:
152,228,193849,2,0,P|132:196|132:162,1,65,8|8,3:0|3:0,0:0:0:0:
208,172,194162,5,12,0:2:0:0:
176,100,194318,2,0,P|124:88|56:136,1,130,8|8,0:2|0:2,0:0:0:0:
52,204,194787,1,8,0:0:0:0:
116,248,194943,2,0,B|160:268|208:236|208:236|260:200|304:220,1,195,8|8,0:2|0:2,0:0:0:0:
332,288,195568,2,0,L|356:152,1,130,8|8,0:2|0:2,0:0:0:0:
344,84,196037,1,8,0:0:0:0:
272,56,196193,2,0,P|184:40|120:120,1,195,8|12,0:2|0:2,0:0:0:0:
144,188,196818,6,0,B|156:220|148:252|148:252|140:288|152:316,1,130,8|8,0:2|0:2,0:0:0:0:
220,356,197287,1,8,0:0:0:0:
296,340,197443,2,0,B|336:312|380:324|380:324|404:300|388:272,1,130,8|0,0:2|0:0,0:0:0:0:
332,240,197912,2,0,P|324:200|328:168,1,65,8|8,0:0|0:2,0:0:0:0:
292,104,198224,2,0,P|267:125|251:153,1,65,8|8,3:0|0:2,0:0:0:0:
178,128,198537,2,0,P|176:160|184:192,1,65,8|8,0:0|0:2,0:0:0:0:
114,227,198849,2,0,P|135:251|163:267,1,65,8|0,0:0|0:0,0:0:0:0:
233,302,199162,6,0,B|278:381|363:364|391:313|418:242|335:176|264:214|264:214|335:176|336:117|316:67,1,520,12|8,0:2|0:2,0:0:0:0:
248,40,200568,6,0,P|191:68|116:48,1,130,8|8,0:2|0:2,0:0:0:0:
68,104,201037,2,0,L|60:184,1,65,8|8,0:0|0:2,0:0:0:0:
98,237,201349,2,0,L|106:317,1,65,0|0,0:0|0:0,0:0:0:0:
168,344,201662,1,12,0:2:0:0:
232,300,201818,2,0,P|288:240|387:273,1,195,8|8,0:2|0:0,0:0:0:0:
424,340,202443,2,0,L|436:204,1,130,8|0,0:2|0:0,0:0:0:0:
416,136,202912,5,8,0:2:0:0:
360,84,203068,2,0,P|312:68|240:100,1,130,8|8,0:2|0:2,0:0:0:0:
244,176,203537,2,0,L|240:248,1,65,8|8,3:0|3:0,0:0:0:0:
182,292,203849,2,0,L|128:340,1,65,8|0,0:0|0:0,0:0:0:0:
56,320,204162,6,0,B|108:284|100:200|32:176|32:176|40:116|116:92|156:152|156:152|204:204|300:168|272:84,1,520,12|8,0:2|0:2,0:0:0:0:
208,68,205568,6,0,L|340:56,1,130,8|8,0:2|0:2,0:0:0:0:
412,84,206037,1,8,0:0:0:0:
460,144,206193,2,0,B|468:212|468:212|448:344,1,195,8|12,0:2|0:2,0:0:0:0:
376,360,206818,2,0,P|324:348|236:352,1,130,8|8,0:2|0:2,0:0:0:0:
168,356,207287,1,8,0:0:0:0:
132,288,207443,2,0,L|124:148,1,130,8|8,0:2|0:2,0:0:0:0:
148,84,207912,5,8,0:0:0:0:
224,108,208068,2,0,B|280:120|280:120|356:80,1,130,8|8,0:2|0:2,0:0:0:0:
404,140,208537,2,0,L|336:176,1,65,8|8,0:0|0:2,0:0:0:0:
272,196,208849,2,0,L|208:182,1,65,0|0,0:0|0:0,0:0:0:0:
148,132,209162,5,12,0:2:0:0:
256,192,209318,12,0,213146,2:0:0:0:
