osu file format v14

[General]
AudioFilename: ONE OK ROCK - Clock Strikes.mp3
AudioLeadIn: 0
PreviewTime: 51349
Countdown: 0
SampleSet: Normal
StackLeniency: 0.7
Mode: 0
LetterboxInBreaks: 0
WidescreenStoryboard: 0

[Editor]
DistanceSpacing: 1.1
BeatDivisor: 4
GridSize: 4
TimelineZoom: 3.800003

[Metadata]
Title:Clock Strikes
TitleUnicode:Clock Strikes
Artist:ONE OK ROCK
ArtistUnicode:ONE OK ROCK
Creator:Saut
Version:Normal
Source:
Tags:人生×僕= Jinsei x Boku taka toru ryota tomoya pishifat moway pkhg
BeatmapID:633779
BeatmapSetID:249624

[Difficulty]
HPDrainRate:3
CircleSize:3
OverallDifficulty:3
ApproachRate:5
SliderMultiplier:0.9
SliderTickRate:2

[Events]
//Background and Video events
0,0,"bg.jpg",0,0
//Break Periods
2,46974,49368
2,71974,80462
2,119474,125462
2,146974,155462
//Storyboard Layer 0 (Background)
//Storyboard Layer 1 (Fail)
//Storyboard Layer 2 (Pass)
//Storyboard Layer 3 (Foreground)
//Storyboard Sound Samples

[TimingPoints]
6662,312.5,4,1,1,100,1,0
6662,-100,4,2,1,50,0,0
26193,-100,4,1,1,65,0,0
26662,-100,4,1,1,60,0,0
36662,-100,4,1,1,65,0,0
46505,-100,4,1,1,50,0,0
50568,-100,4,3,1,60,0,0
51662,-100,4,1,1,75,0,1
71662,-100,4,1,1,75,0,0
81662,-100,4,1,1,60,0,0
91662,-100,4,1,1,55,0,0
96037,-100,4,1,1,70,0,0
96662,-100,4,1,1,75,0,1
116662,-100,4,1,1,75,0,0
119162,-100,4,1,1,15,0,0
126662,-100,4,2,3,50,0,0
136662,-100,4,1,1,50,0,0
146662,-100,4,1,1,55,0,0
156662,-100,4,1,1,60,0,0
164162,-100,4,1,1,65,0,0
167912,-100,4,3,1,65,0,0
168537,-100,4,1,1,70,0,0
169162,-100,4,1,1,75,0,1
187912,-100,4,1,1,75,0,0
189162,-100,4,1,1,80,0,1
189318,-100,4,1,1,70,0,0
194162,-100,4,1,1,80,0,1
194318,-100,4,1,1,70,0,0
199162,-100,4,1,1,80,0,1
199318,-100,4,1,1,70,0,0
204162,-100,4,1,1,80,0,1
204318,-100,4,1,1,70,0,0
209162,-100,4,1,1,80,0,1
209318,-100,4,1,1,50,0,0
212287,-100,4,1,1,45,0,0
212443,-100,4,1,1,40,0,0
212599,-100,4,1,1,35,0,0
212755,-100,4,1,1,30,0,0
212912,-100,4,1,1,20,0,0
213029,-100,4,1,1,10,0,0
213146,-100,4,1,1,30,0,0

[Colours]
Combo1 : 85,74,123
Combo2 : 201,185,185
Combo3 : 225,230,208
Combo4 : 204,85,77
Combo5 : 119,119,132

[HitObjects]
260,280,6662,5,8,0:2:0:0:
267,231,6818,2,0,P|282:163|263:79,2,135,2|2|2,0:0|0:0|0:0,0:0:0:0:
224,256,7912,2,0,P|181:245|126:266,1,90,0|2,0:0|0:0,0:0:0:0:
83,339,8537,1,0,0:0:0:0:
100,141,9162,5,0,0:0:0:0:
74,98,9318,2,0,P|133:71|199:97,2,135,2|2|2,0:0|0:0|0:0,0:0:0:0:
47,140,10412,2,0,L|59:238,1,90,0|2,0:0|0:0,0:0:0:0:
116,309,11037,1,0,0:0:0:0:
237,152,11662,5,0,0:0:0:0:
286,158,11818,2,0,B|311:182|311:182|342:168|384:168|431:190,2,135,2|2|2,0:0|0:0|0:0,0:0:0:0:
251,122,12912,2,0,L|152:131,1,90,0|2,0:0|0:0,0:0:0:0:
66,160,13537,1,0,0:0:0:0:
202,16,14162,5,0,0:0:0:0:
243,42,14318,2,0,B|401:53,2,135,2|2|2,0:0|0:0|0:0,0:0:0:0:
195,56,15412,1,0,0:0:0:0:
119,119,15724,2,0,B|182:204|274:102|350:192,1,225,2|0,0:0|0:0,0:0:0:0:
365,203,16662,6,0,L|416:190,2,45,8|8|8,0:2|0:2|0:0,0:0:0:0:
285,262,17287,2,0,P|343:301|415:288,2,135,2|2|2,0:0|0:0|0:0,0:0:0:0:
244,234,18380,2,0,P|259:191|248:123,1,90
223,109,18849,1,0,0:0:0:0:
141,52,19162,6,0,L|90:62,2,45,8|8|8,0:2|0:2|0:0,0:0:0:0:
237,27,19787,2,0,P|294:64|298:143,2,135,2|2|2,0:0|0:0|0:0,0:0:0:0:
141,52,21037,2,0,P|139:132|126:206,1,135
112,232,21662,6,0,L|78:260,2,45,8|8|8,0:2|0:2|0:0,0:0:0:0:
210,217,22287,2,0,P|222:159|226:79,2,135,2|2|2,0:0|0:0|0:0,0:0:0:0:
192,263,23380,2,0,P|198:343|278:332,1,180
310,293,24162,6,0,L|362:288,2,45,8|8|8,0:2|0:2|0:0,0:0:0:0:
255,210,24787,2,0,B|290:190|290:190|395:181,2,135,2|2|2,0:0|0:0|0:0,0:0:0:0:
220,245,25880,1,0,0:0:0:0:
123,266,26193,2,0,L|123:329,2,45,0|8|8,2:0|0:0|0:0,0:0:0:0:
100,222,26662,6,0,P|145:203|200:227,1,90,12|8,0:2|0:0,0:0:0:0:
220,245,27130,2,0,P|263:254|303:235,1,90,0|8,0:0|0:2,0:0:0:0:
347,212,27599,2,0,L|402:225,1,45,0|8,0:0|0:0,0:0:0:0:
431,312,28068,2,0,L|474:301,1,45,8|8,0:2|0:0,0:0:0:0:
509,265,28380,2,0,P|512:215|485:169,1,90,0|8,0:0|0:2,0:0:0:0:
459,145,28849,1,0,2:0:0:0:
465,46,29162,6,0,B|353:62,1,90,8|8,0:2|0:0,0:0:0:0:
331,80,29630,2,0,P|322:128|361:173,1,90,0|8,0:0|0:2,0:0:0:0:
377,197,30099,1,0,0:0:0:0:
414,229,30255,2,0,L|391:331,1,90,8|8,0:2|0:2,0:0:0:0:
363,355,30724,1,8,0:0:0:0:
295,282,31037,1,8,0:2:0:0:
200,316,31349,2,0,L|156:322,1,45,8|8,0:0|0:0,0:0:0:0:
106,313,31662,6,0,P|128:272|126:224,1,90,12|8,0:2|0:0,0:0:0:0:
117,181,32130,2,0,P|117:136|138:97,1,90,0|8,0:0|0:2,0:0:0:0:
179,70,32599,2,0,L|236:82,1,45,0|8,0:0|0:0,0:0:0:0:
292,149,33068,2,0,L|349:137,1,45,8|8,0:2|0:0,0:0:0:0:
382,121,33380,2,0,P|402:170|393:233,1,90,0|8,0:0|0:2,0:0:0:0:
377,250,33849,1,0,2:0:0:0:
434,330,34162,6,0,P|395:348|343:343,1,90,8|8,0:2|0:0,0:0:0:0:
308,317,34630,2,0,L|219:326,1,90,0|8,0:0|0:2,0:0:0:0:
168,327,35099,1,0,0:0:0:0:
120,315,35255,2,0,P|126:261|108:216,1,90,8|8,0:2|0:2,0:0:0:0:
82,189,35724,1,8,0:0:0:0:
23,109,36037,1,8,0:2:0:0:
58,16,36349,2,0,L|102:24,1,45,8|8,0:0|0:0,0:0:0:0:
143,51,36662,6,0,P|181:67|232:57,1,90,12|8,0:2|0:0,0:0:0:0:
272,38,37130,2,0,L|251:147,1,90,0|8,0:0|0:2,0:0:0:0:
246,175,37599,2,0,L|254:244,1,45,8|8,0:0|0:2,0:0:0:0:
347,241,38068,2,0,L|339:172,1,45,8|8,0:2|0:0,0:0:0:0:
343,146,38380,2,0,L|360:57,1,90,0|8,0:0|0:2,0:0:0:0:
401,30,38849,1,8,0:0:0:0:
473,97,39162,6,0,P|479:147|466:198,1,90,8|8,0:2|0:0,0:0:0:0:
458,233,39630,1,0,0:0:0:0:
440,279,39787,2,0,L|491:303,2,45,8|8|8,0:2|0:2|0:0,0:0:0:0:
390,276,40255,2,0,P|343:263|295:282,1,90,8|8,0:2|0:2,0:0:0:0:
255,272,40724,2,0,L|192:260,1,45,8|0,0:0|0:0,0:0:0:0:
207,164,41193,2,0,L|251:172,2,45,8|8|8,0:2|0:0|0:2,0:0:0:0:
157,169,41662,6,0,P|132:207|143:274,1,90,12|8,0:2|0:0,0:0:0:0:
124,299,42130,2,0,P|100:266|43:250,1,90,0|8,0:0|0:2,0:0:0:0:
5,244,42599,2,0,L|11:181,2,45,8|8|0,0:0|0:2|0:0,0:0:0:0:
47,333,43224,1,8,0:0:0:0:
80,369,43380,2,0,B|118:381|118:381|188:368,1,90,0|8,0:0|0:2,0:0:0:0:
211,348,43849,1,8,0:0:0:0:
281,277,44162,6,0,P|293:230|283:186,1,90,8|8,0:2|0:0,0:0:0:0:
250,154,44630,2,0,P|241:110|253:67,1,90,0|8,0:0|0:0,0:0:0:0:
294,40,45099,1,8,0:2:0:0:
340,57,45255,2,0,P|384:66|439:45,1,90,0|8,0:0|0:2,0:0:0:0:
470,31,45724,1,8,0:0:0:0:
506,123,46037,1,8,0:0:0:0:
478,218,46349,2,0,L|489:283,1,45,8|8,0:0|0:2,0:0:0:0:
482,205,50568,6,0,L|494:263,2,45,8|8|0,0:0|0:2|0:0,0:0:0:0:
470,156,51037,2,0,L|474:104,1,45,8|8,1:0|0:2,0:0:0:0:
341,43,51662,5,12,0:2:0:0:
322,88,51818,2,0,P|261:132|201:124,1,135,8|8,0:2|0:0,0:0:0:0:
128,62,52599,1,0,0:0:0:0:
41,110,52912,2,0,P|15:196|77:281,1,180,8|8,0:2|0:0,0:0:0:0:
155,253,53849,2,0,B|193:228|258:228|298:250|298:250|329:209,1,180,0|0,0:0|2:0,0:0:0:0:
375,145,54787,6,0,L|430:69,1,90,8|0,0:0|0:0,0:0:0:0:
487,151,55412,2,0,L|432:227,1,90,8|0,0:2|0:0,0:0:0:0:
359,288,56037,1,8,0:0:0:0:
262,268,56349,2,0,B|205:229|149:278|115:274|94:253|98:220,1,180,8|0,0:2|2:0,0:0:0:0:
53,146,57287,6,0,P|94:134|152:160,1,90,8|0,0:0|0:0,0:0:0:0:
221,201,57912,2,0,P|262:227|324:114,1,180,8|8,0:2|0:0,0:0:0:0:
265,86,58849,2,0,P|302:57|428:100,1,180,0|0,0:0|2:0,0:0:0:0:
464,177,59787,6,0,L|442:281,1,90,8|0,0:0|0:0,0:0:0:0:
372,328,60412,1,8,0:0:0:0:
276,351,60724,1,8,3:0:0:0:
257,253,61037,1,8,0:0:0:0:
353,231,61349,1,8,0:0:0:0:
372,328,61662,5,12,0:2:0:0:
414,302,61818,2,0,P|446:244|429:179,1,135,8|8,0:2|0:0,0:0:0:0:
341,134,62599,1,0,0:0:0:0:
250,173,62912,2,0,P|166:166|120:85,1,180,8|8,0:2|0:0,0:0:0:0:
218,80,63849,1,0,0:0:0:0:
315,97,64162,6,0,P|349:179|294:264,1,180,12|8,0:2|0:0,0:0:0:0:
251,173,65099,1,0,0:0:0:0:
153,192,65412,2,0,P|168:231|223:268,1,90,8|8,0:2|0:0,0:0:0:0:
275,330,66037,1,8,3:0:0:0:
345,260,66349,2,0,B|369:236|369:236|423:262|462:238|462:238|486:223|515:233|529:259,1,180,8|0,0:0|2:0,0:0:0:0:
487,334,67287,6,0,P|447:348|389:342,1,90,8|0,0:0|0:0,0:0:0:0:
301,357,67912,2,0,B|245:325|245:325|127:341,1,180,8|8,0:2|0:0,0:0:0:0:
34,364,68849,2,0,P|48:282|140:238,1,180,0|0,0:0|2:0,0:0:0:0:
226,245,69787,5,8,0:0:0:0:
316,205,70099,1,0,0:0:0:0:
387,136,70412,2,0,L|376:75,2,45,8|8|8,0:0|0:2|0:2,0:0:0:0:
414,176,70880,2,0,L|404:235,2,45,8|8|8,0:0|0:2|0:2,0:0:0:0:
462,163,71349,2,0,P|493:190|489:244,1,90,8|12,0:0|0:2,0:0:0:0:
497,190,81662,5,8,0:2:0:0:
405,228,81974,1,8,0:0:0:0:
311,195,82287,1,0,2:0:0:0:
233,133,82599,2,0,L|180:141,1,45,8|0,0:0|2:0,0:0:0:0:
153,174,82912,2,0,P|108:176|61:130,1,90,0|8,2:0|0:0,0:0:0:0:
53,105,83380,1,0,2:0:0:0:
142,62,83693,2,0,L|202:53,1,45,0|8,2:0|0:0,0:0:0:0:
284,68,84162,5,8,0:2:0:0:
379,43,84474,1,8,0:0:0:0:
466,89,84787,2,0,L|477:35,2,45,0|0|8,2:0|2:0|0:0,0:0:0:0:
435,128,85255,2,0,L|452:220,1,90,0|0,2:0|2:0,0:0:0:0:
462,265,85724,2,0,L|453:309,1,45,8|0,0:0|2:0,0:0:0:0:
354,315,86193,2,0,L|345:359,2,45,0|8|0,2:0|0:0|0:0,0:0:0:0:
364,266,86662,5,8,0:2:0:0:
278,216,86974,1,8,0:0:0:0:
199,275,87287,2,0,L|134:262,1,45,0|0,2:0|2:0,0:0:0:0:
112,240,87599,2,0,L|66:192,1,45,8|0,0:0|2:0,0:0:0:0:
51,167,87912,2,0,P|69:122|57:65,1,90,0|8,2:0|0:0,0:0:0:0:
40,38,88380,1,0,0:0:0:0:
181,86,88849,5,8,0:0:0:0:
181,86,89005,2,0,P|250:98|315:55,1,135,0|8,0:0|0:0,0:0:0:0:
348,44,89630,2,0,P|324:109|355:181,1,135,0|8,2:0|0:0,0:0:0:0:
368,212,90255,2,0,P|309:242|244:230,1,135,0|8,2:0|0:0,0:0:0:0:
199,207,90880,2,0,L|139:216,1,45,0|0,2:0|2:0,0:0:0:0:
67,261,91349,1,8,0:0:0:0:
154,308,91662,6,0,B|193:302|193:302|237:331|294:330,2,135,8|8|8,1:2|1:2|1:2,0:0:0:0:
57,332,92912,2,0,P|21:299|27:163,1,180,0|8,2:0|0:0,0:0:0:0:
84,102,93849,1,0,0:0:0:0:
182,93,94162,2,0,P|243:109|335:74,2,135,8|8|8,1:2|1:2|1:2,0:0:0:0:
118,16,95412,1,8,0:2:0:0:
23,43,95724,1,8,0:2:0:0:
29,141,96037,6,0,L|39:199,1,45,8|8,0:0|0:0,0:0:0:0:
70,220,96349,2,0,L|60:278,1,45,8|8,0:0|0:0,0:0:0:0:
36,307,96662,5,12,0:2:0:0:
36,307,96818,2,0,P|97:351|157:343,1,135,8|8,0:2|0:0,0:0:0:0:
234,288,97599,1,0,0:0:0:0:
326,324,97912,2,0,P|409:349|487:287,1,180,8|8,0:2|0:0,0:0:0:0:
395,250,98849,2,0,P|337:197|366:92,1,180,0|0,0:0|2:0,0:0:0:0:
434,48,99787,6,0,P|405:16|352:6,1,90,8|0,0:0|0:0,0:0:0:0:
263,21,100412,2,0,L|176:62,1,90,8|0,0:2|0:0,0:0:0:0:
163,156,101037,1,8,0:0:0:0:
122,245,101349,2,0,P|135:301|190:231,1,180,8|0,0:0|0:0,0:0:0:0:
163,156,102287,6,0,P|204:144|262:170,1,90,8|0,0:0|0:0,0:0:0:0:
324,220,102912,2,0,P|373:252|455:167,1,180,8|8,0:2|0:0,0:0:0:0:
481,90,103849,2,0,B|455:84|436:68|436:68|404:86|341:94|295:83,1,180,0|0,0:0|2:0,0:0:0:0:
221,39,104787,6,0,L|107:59,1,90,8|0,0:0|0:0,0:0:0:0:
62,124,105412,1,8,0:0:0:0:
131,193,105724,1,8,3:0:0:0:
81,279,106037,1,8,0:0:0:0:
150,348,106349,1,8,0:0:0:0:
249,346,106662,5,12,0:2:0:0:
249,346,106818,2,0,P|308:318|373:348,1,135,8|8,0:2|0:0,0:0:0:0:
466,359,107599,1,0,0:0:0:0:
418,271,107912,2,0,P|360:237|244:247,1,180,8|8,0:2|0:0,0:0:0:0:
166,297,108849,1,0,0:0:0:0:
72,329,109162,6,0,B|58:296|65:272|76:248|76:248|65:144,1,180,12|8,0:2|0:0,0:0:0:0:
92,57,110099,1,0,0:0:0:0:
164,124,110412,2,0,P|189:155|249:166,1,90,8|8,0:2|0:0,0:0:0:0:
332,145,111037,1,8,3:0:0:0:
429,131,111349,2,0,P|406:214|320:244,1,180,8|0,0:0|2:0,0:0:0:0:
231,209,112287,6,0,L|132:219,1,90,8|0,0:0|0:0,0:0:0:0:
76,143,112912,2,0,L|258:124,1,180,8|8,0:2|0:0,0:0:0:0:
353,109,113849,2,0,P|414:165|389:261,1,180,0|0,0:0|2:0,0:0:0:0:
312,305,114787,5,8,0:0:0:0:
221,264,115099,1,0,0:0:0:0:
136,315,115412,2,0,L|118:263,1,45,8|8,0:0|0:2,0:0:0:0:
22,266,115880,2,0,L|36:308,2,45,8|8|8,0:0|0:2|0:2,0:0:0:0:
31,217,116349,2,0,L|45:174,1,45,8|0,0:0|0:0,0:0:0:0:
68,130,116662,5,12,0:2:0:0:
256,192,116974,12,0,119162,2:0:0:0:
65,150,126662,6,0,P|115:200|314:152,1,270,10|8,0:1|0:1,0:0:0:0:
229,101,127912,2,0,P|196:171|328:270,1,270,10|8,0:1|0:0,0:0:0:0:
418,237,129162,2,0,P|467:234|400:353,1,270,10|8,0:1|0:1,0:0:0:0:
335,326,130412,2,0,P|277:298|78:342,1,270,10|8,0:1|0:0,0:0:0:0:
22,258,131662,6,0,B|101:180|-8:137|6:62|36:33|64:18|88:33|97:57,1,270,10|8,0:1|0:1,0:0:0:0:
136,123,132912,2,0,B|176:99|185:61|184:38|184:38|227:80|289:96|347:61,1,270,2|8,0:0|0:0,0:0:0:0:
416,6,134162,2,0,B|458:61|443:115|406:160|354:178|270:176,1,270,10|8,0:1|0:1,0:0:0:0:
194,149,135412,2,0,P|124:148|209:253,1,270,10|8,0:1|0:0,0:0:0:0:
266,232,136662,5,10,0:0:0:0:
361,256,136974,2,0,P|430:252|482:205,1,135,8|8,0:0|0:0,0:0:0:0:
492,163,137599,1,0,2:0:0:0:
476,62,137912,2,0,P|418:93|392:155,1,135,8|8,0:0|0:0,0:0:0:0:
392,204,138537,1,0,2:0:0:0:
437,291,138849,2,0,L|428:346,1,45,8|0,0:0|2:0,0:0:0:0:
391,367,139162,5,10,0:0:0:0:
302,322,139474,2,0,L|153:332,1,135,8|8,0:0|0:0,0:0:0:0:
121,312,140099,1,0,2:0:0:0:
25,339,140412,2,0,P|3:295|26:212,1,135,8|8,0:0|0:0,0:0:0:0:
63,185,141037,1,0,2:0:0:0:
140,124,141349,2,0,L|127:66,1,45,8|0,0:0|2:0,0:0:0:0:
127,30,141662,5,10,0:0:0:0:
216,72,141974,2,0,P|277:86|346:23,1,135,8|8,0:0|0:0,0:0:0:0:
369,12,142599,1,0,2:0:0:0:
467,24,142912,2,0,B|463:103|390:88|399:159,1,135,8|8,0:0|0:0,0:0:0:0:
396,185,143537,1,0,2:0:0:0:
393,283,143849,2,0,L|338:274,1,45,8|0,0:0|2:0,0:0:0:0:
312,241,144162,5,10,0:0:0:0:
217,213,144474,2,0,P|220:282|269:333,1,135,8|8,0:0|0:0,0:0:0:0:
307,348,145099,1,0,2:0:0:0:
402,376,145412,2,0,P|399:307|349:255,1,135,8|8,0:0|0:0,0:0:0:0:
312,241,146037,1,0,2:0:0:0:
239,173,146349,2,0,L|248:118,1,45,8|0,0:0|2:0,0:0:0:0:
253,79,146662,5,10,0:2:0:0:
240,93,156662,5,8,0:0:0:0:
240,93,156818,2,0,B|330:77|330:77|376:96,1,135,8|8,0:2|0:0,0:0:0:0:
446,156,157599,2,0,P|390:189|317:176,1,135,8|8,0:2|0:2,0:0:0:0:
273,175,158224,2,0,L|178:191,2,90,8|8|8,0:0|3:0|0:0,0:0:0:0:
330,93,159162,5,8,0:2:0:0:
330,93,159318,2,0,P|307:56|215:46,1,135,8|8,0:2|0:0,0:0:0:0:
176,130,160099,2,0,P|114:140|50:87,1,135,8|8,0:2|0:2,0:0:0:0:
20,67,160724,2,0,L|22:169,2,90,8|8|8,0:0|3:0|0:0,0:0:0:0:
109,22,161662,5,8,0:2:0:0:
109,22,161818,2,0,B|150:45|150:45|249:32,1,135,8|8,0:2|0:0,0:0:0:0:
335,49,162599,1,8,0:2:0:0:
335,49,162755,2,0,P|359:97|336:159,1,90,8|8,0:2|0:2,0:0:0:0:
327,173,163224,2,0,P|323:217|346:255,2,90,8|8|8,0:0|3:0|0:0,0:0:0:0:
418,135,164162,5,8,0:2:0:0:
418,135,164318,2,0,P|475:148|512:214,1,135,8|8,0:2|0:0,0:0:0:0:
458,294,165099,1,8,0:2:0:0:
458,294,165255,2,0,B|427:302|404:282|404:282|378:305|345:313|310:300,1,135,8|8,0:2|0:0,0:0:0:0:
261,235,166037,1,8,0:0:0:0:
261,235,166193,2,0,L|146:244,1,90,12|8,0:2|0:0,0:0:0:0:
124,258,166662,5,12,0:2:0:0:
57,184,166974,2,0,L|-1:193,2,45,8|8|8,0:2|0:0|0:2,0:0:0:0:
72,136,167443,2,0,L|14:145,2,45,8|8|8,0:2|0:0|0:2,0:0:0:0:
106,100,167912,2,0,L|204:82,1,90,8|8,0:0|0:0,0:0:0:0:
275,141,168537,2,0,P|339:133|375:25,1,180,8|12,0:0|0:2,0:0:0:0:
330,25,169318,6,0,B|290:23|290:23|244:36|244:36|188:33,1,135,8|8,0:2|0:0,0:0:0:0:
99,54,170099,1,0,0:0:0:0:
5,88,170412,2,0,P|70:151|163:130,1,180,8|8,0:2|0:0,0:0:0:0:
189,46,171349,2,0,B|227:61|246:103|246:103|272:122|306:122|338:100,1,180,0|0,0:0|2:0,0:0:0:0:
420,47,172287,6,0,P|436:88|421:149,1,90,8|0,0:0|0:0,0:0:0:0:
354,197,172912,2,0,P|349:240|365:288,1,90,8|0,0:2|0:0,0:0:0:0:
447,232,173537,1,8,0:0:0:0:
428,134,173849,2,0,B|397:92|336:99|336:99|300:112|247:102,1,180
171,60,174787,6,0,L|58:73,1,90,8|0,0:0|0:0,0:0:0:0:
55,166,175412,2,0,B|149:157|149:157|131:180|121:203|129:243,1,180,8|8,0:2|0:0,0:0:0:0:
226,227,176349,2,0,B|236:210|251:190|250:159|250:159|294:188|342:190|364:161,1,180,0|0,0:0|2:0,0:0:0:0:
444,142,177287,6,0,L|433:262,1,90,8|0,0:0|0:0,0:0:0:0:
404,325,177912,2,0,P|356:326|320:300,1,90,8|8,0:0|3:0,0:0:0:0:
240,248,178537,1,8,0:2:0:0:
177,171,178849,1,0,0:0:0:0:
94,226,179162,5,12,0:2:0:0:
94,226,179318,2,0,P|77:177|111:97,1,135,8|8,0:2|0:0,0:0:0:0:
203,84,180099,1,0,0:0:0:0:
271,155,180412,2,0,P|330:188|425:137,1,180,8|8,0:2|0:0,0:0:0:0:
427,42,181349,1,0,0:0:0:0:
344,97,181662,6,0,B|355:277,1,180,12|8,0:2|0:0,0:0:0:0:
312,366,182599,1,0,0:0:0:0:
225,317,182912,2,0,L|129:328,1,90,8|8,0:2|0:0,0:0:0:0:
37,315,183537,1,8,3:0:0:0:
26,216,183849,2,0,B|72:211|106:244|106:244|216:231,1,180,8|0,0:0|2:0,0:0:0:0:
289,269,184787,6,0,P|321:226|318:166,1,90,8|0,0:0|0:0,0:0:0:0:
282,101,185412,2,0,P|287:56|386:89,1,180,8|8,0:2|0:0,0:0:0:0:
401,176,186349,2,0,B|429:235|379:276|393:324|417:339|451:333|451:305,1,180,0|0,0:0|2:0,0:0:0:0:
505,245,187287,5,8,0:0:0:0:
510,146,187599,1,0,0:0:0:0:
469,55,187912,2,0,L|456:3,1,45,8|8,0:0|0:2,0:0:0:0:
383,75,188380,2,0,L|369:33,2,45,8|8|8,0:2|0:0|0:0,0:0:0:0:
400,121,188849,2,0,L|386:164,1,45,8|8,0:0|0:0,0:0:0:0:
353,201,189162,6,0,P|279:184|182:238,2,180,12|8|8,0:2|0:0|0:2,0:0:0:0:
398,221,190568,1,8,0:2:0:0:
460,297,190880,1,8,0:2:0:0:
459,297,191037,2,0,P|487:262|495:215,1,90,8|0,0:0|0:0,0:0:0:0:
441,134,191662,5,12,0:2:0:0:
441,134,191818,2,0,P|389:125|329:100,1,90,8|8,0:2|0:2,0:0:0:0:
309,90,192287,2,0,L|270:34,2,45,8|8|0,0:0|0:2|0:0,0:0:0:0:
265,178,192912,2,0,B|182:68,1,135,8|8,0:2|0:2,0:0:0:0:
152,31,193537,1,8,0:0:0:0:
83,102,193849,1,8,3:0:0:0:
3,161,194162,6,0,P|79:202|160:164,2,180,12|8|8,0:2|0:0|0:2,0:0:0:0:
6,111,195568,1,8,0:2:0:0:
65,32,195880,1,8,0:2:0:0:
65,32,196037,2,0,P|107:36|174:19,1,90,8|0,0:0|0:0,0:0:0:0:
252,26,196662,5,12,0:2:0:0:
252,26,196818,2,0,P|252:70|241:114,1,90,8|8,0:2|0:2,0:0:0:0:
219,159,197287,2,0,L|230:212,2,45,8|8|0,0:0|0:2|0:0,0:0:0:0:
144,93,197912,1,8,0:0:0:0:
47,116,198224,1,8,3:0:0:0:
7,207,198537,1,8,0:0:0:0:
30,302,198849,1,8,0:0:0:0:
128,289,199162,6,0,B|162:259|198:242|251:244|304:276|358:310|405:316|442:311|483:284|498:246|482:187|450:167|403:156|337:162|287:199|277:250|293:317|312:366|352:390|402:391|443:365,1,720,12|12,0:2|0:2,0:0:0:0:
462,353,201818,5,8,0:2:0:0:
504,263,202130,1,8,0:2:0:0:
504,263,202287,2,0,P|505:215|477:171,1,90,8|0,0:0|0:0,0:0:0:0:
453,85,202912,2,0,L|466:30,2,45,8|8|8,0:2|0:2|0:0,0:0:0:0:
387,159,203537,1,8,3:0:0:0:
288,168,203849,1,8,0:0:0:0:
188,163,204162,6,0,B|182:192|200:217|200:217|138:195|96:195|30:212|9:266|13:324|37:358|85:385|140:380|178:357|196:327|196:290|177:268|127:257|85:198|70:177|89:122|121:75|192:76,1,720,12|12,0:2|0:2,0:0:0:0:
235,86,206818,5,8,0:2:0:0:
290,168,207130,1,8,0:2:0:0:
290,168,207287,2,0,P|336:178|391:161,1,90,8|0,0:0|0:0,0:0:0:0:
472,139,207912,2,0,L|488:188,1,45,8|8,0:0|0:2,0:0:0:0:
485,280,208380,1,8,0:2:0:0:
485,280,208537,2,0,P|447:286|389:275,1,90,8|0,0:0|0:0,0:0:0:0:
300,252,209162,5,12,0:2:0:0:
256,192,209474,12,0,213146,2:0:0:0:
