osu file format v13

[General]
AudioFilename: driedupfishyo.mp3
AudioLeadIn: 0
PreviewTime: 48256
Countdown: 0
SampleSet: Normal
StackLeniency: 0.7
Mode: 0
LetterboxInBreaks: 1
WidescreenStoryboard: 1

[Editor]
DistanceSpacing: 0.9
BeatDivisor: 4
GridSize: 4
TimelineZoom: 1.3

[Metadata]
Title:Dried Up Youthful Fame
TitleUnicode:Dried Up Youthful Fame
Artist:OLDCODEX
ArtistUnicode:OLDCODEX
Creator:Tsuchimikado
Version:Fame
Source:Free! Eternal Summer
Tags:Free eternal summer dried up youthful fame oldcodex
BeatmapID:496766
BeatmapSetID:191396

[Difficulty]
HPDrainRate:6
CircleSize:4
OverallDifficulty:5
ApproachRate:9
SliderMultiplier:1.2
SliderTickRate:1

[Events]
//Background and Video events
0,0,"Free_-Eternal-Summer.jpg",0,0
Video,0,"Newer.avi.avi"
//Break Periods
//Storyboard Layer 0 (Background)
//Storyboard Layer 1 (Fail)
//Storyboard Layer 2 (Pass)
//Storyboard Layer 3 (Foreground)
//Storyboard Sound Samples
//Background Colour Transformations
3,100,163,162,255

[TimingPoints]
798,272.727272727273,4,1,0,100,1,0
798,-100,4,2,0,60,0,0
3798,-80,4,2,0,60,0,0
4888,-66.6666666666667,4,2,0,60,0,0
5161,-80,4,1,0,80,0,0
9798,-80,4,1,0,70,0,0
14435,-80,4,3,0,70,0,0
17025,-100,4,3,0,70,0,0
18252,-83.3333333333333,4,3,0,70,0,0
22343,-66.6666666666667,4,3,0,70,0,0
22618,-80,4,1,0,70,0,0
31618,-100,4,1,0,70,0,0
31888,-133.333333333333,4,1,0,70,0,0
37888,-80,4,1,0,70,0,0
48252,-66.6666666666667,4,1,0,80,0,0
48661,-66.6666666666667,4,1,0,80,0,1
66252,-133.333333333333,4,1,0,80,0,1
66661,-133.333333333333,4,1,0,5,0,0
66798,-80,4,1,0,80,0,0
67343,-133.333333333333,4,1,0,80,0,0
71161,-100,4,1,0,80,0,0
71434,-80,4,1,0,80,0,0
71707,-100,4,1,0,80,0,0
85623,-80,4,1,0,5,0,0
85888,-80,4,1,0,80,0,0

[Colours]
Combo1 : 255,102,213
Combo2 : 0,158,253
Combo3 : 0,204,102
Combo4 : 169,10,57

[HitObjects]
152,128,798,5,0,0:0:0:0:
280,104,934,2,0,L|276:184,1,60
132,112,1207,1,0,0:0:0:0:
308,92,1343,2,0,L|300:232,1,120
116,100,1752,1,0,0:0:0:0:
336,84,1888,6,0,B|334:114|334:114|380:156|404:176,1,120,2|0,0:0|0:0,0:0:0:0:
472,260,2298,2,0,P|416:260|368:312,1,120
448,340,2707,1,0,0:0:0:0:
240,288,2979,5,0,0:0:0:0:
240,288,3116,2,0,P|288:276|312:256,1,60,2|0,0:0|0:0,0:0:0:0:
440,136,3388,1,0,0:0:0:0:
440,136,3525,2,0,P|420:176|400:196,1,60,2|0,0:0|0:0,0:0:0:0:
336,204,3798,6,0,B|284:148|284:148|220:104|212:84,1,150,4|0,0:0|0:0,0:0:0:0:
204,80,4138,1,0,0:0:0:0:
204,80,4207,1,0,0:0:0:0:
336,52,4343,1,0,0:0:0:0:
216,188,4479,1,0,0:0:0:0:
380,120,4616,1,0,0:0:0:0:
184,56,4752,1,0,0:0:0:0:
416,48,4888,6,0,B|448:72|448:72|432:76|432:76|464:88|464:88|448:92|448:92|480:136|476:192,1,180.000006866455,0|4,0:0|0:0,0:0:0:0:
256,152,5298,1,0,0:0:0:0:
388,152,5570,5,0,0:0:0:0:
240,136,5707,1,0,0:0:0:0:
424,288,5979,1,0,0:0:0:0:
224,120,6252,5,0,0:0:0:0:
160,276,6388,1,0,0:0:0:0:
408,152,6661,1,0,0:0:0:0:
408,304,6798,1,0,0:0:0:0:
224,120,7070,1,0,0:0:0:0:
428,152,7343,5,0,0:0:0:0:
392,320,7479,1,0,0:0:0:0:
208,104,7752,1,0,0:0:0:0:
184,280,7889,1,0,0:0:0:0:
36,140,8161,5,0,0:0:0:0:
60,244,8298,2,0,B|80:288|80:288|80:320|104:348|104:348|144:376,2,150,0|0|0,0:0|0:0|0:0,0:0:0:0:
164,288,8979,1,0,0:0:0:0:
184,300,9048,1,0,0:0:0:0:
204,308,9116,1,0,0:0:0:0:
224,312,9184,1,0,0:0:0:0:
248,312,9252,1,0,0:0:0:0:
272,308,9320,1,0,0:0:0:0:
292,300,9388,1,0,0:0:0:0:
312,288,9457,1,0,0:0:0:0:
328,272,9525,1,0,0:0:0:0:
356,64,9798,5,0,0:0:0:0:
352,292,10207,2,0,L|432:288,1,75
332,80,10616,2,0,L|248:76,2,75,0|0|0,0:0|0:0|0:0,0:0:0:0:
152,264,11298,2,0,L|240:264,1,75
392,232,11707,5,0,0:0:0:0:
148,76,11979,1,0,0:0:0:0:
112,48,12388,1,0,0:0:0:0:
12,120,12525,2,0,L|44:208,1,75
100,292,12798,5,0,0:0:0:0:
108,312,12866,1,0,0:0:0:0:
116,332,12934,1,0,0:0:0:0:
192,296,13070,1,0,0:0:0:0:
200,316,13138,1,0,0:0:0:0:
208,336,13206,1,0,0:0:0:0:
280,300,13343,5,0,0:0:0:0:
364,256,13479,1,0,0:0:0:0:
336,160,13616,1,0,0:0:0:0:
244,156,13752,1,0,0:0:0:0:
208,236,13888,5,0,0:0:0:0:
436,84,14434,2,0,L|348:144,2,75,0|0|0,0:0|0:0|0:0,0:0:0:0:
492,84,14843,2,0,L|360:176,1,150
300,216,15252,1,0,0:0:0:0:
372,256,15388,1,0,0:0:0:0:
372,256,15457,1,0,0:0:0:0:
372,256,15525,2,0,P|416:276|460:268,1,75
452,268,15729,1,0,0:0:0:0:
300,216,15934,5,0,0:0:0:0:
248,156,16070,1,0,0:0:0:0:
180,120,16207,1,0,0:0:0:0:
92,284,16479,2,0,L|188:292,1,75
184,96,16752,2,0,L|100:88,1,75
88,324,17025,6,0,B|115:322|115:322|140:328|140:328|164:326|164:326|189:336|189:336|233:337,1,120
280,336,17434,1,0,0:0:0:0:
356,348,17570,1,0,0:0:0:0:
356,348,17638,1,0,0:0:0:0:
356,348,17707,1,0,0:0:0:0:
436,336,17843,2,0,L|500:324,2,60,0|0|0,0:0|0:0|0:0,0:0:0:0:
260,336,18252,6,0,P|208:328|184:320,1,71.9999978027344
224,172,18525,1,0,0:0:0:0:
292,368,18661,2,0,P|222:365|143:344,2,143.999995605469,0|0|0,0:0|0:0|0:0,0:0:0:0:
244,160,19479,5,0,0:0:0:0:
152,360,19616,2,0,L|88:326,1,71.9999978027344
71,198,19888,2,0,P|104:184|140:188,1,71.9999978027344
240,240,20161,2,0,L|209:305,1,71.9999978027344
344,168,20434,6,0,B|344:216|296:216|324:252|308:268|308:268|260:372,2,215.999993408203,0|0|0,0:0|0:0|0:0,0:0:0:0:
352,88,21388,1,0,0:0:0:0:
420,208,21525,2,0,L|401:277,2,71.9999978027344,0|0|0,0:0|0:0|0:0,0:0:0:0:
316,76,21934,1,0,0:0:0:0:
308,96,22002,1,0,0:0:0:0:
300,116,22070,2,0,L|276:184,1,71.9999978027344
156,76,22343,2,0,B|184:128|156:180|156:180|144:196|144:196|164:204|164:204|148:244,1,180.000006866455
88,284,23161,6,0,P|124:316|176:316,2,75,0|0|0,0:0|0:0|0:0,0:0:0:0:
228,320,23570,2,0,L|400:284,1,150
228,220,23979,2,0,L|152:236,1,75
288,272,24252,2,0,L|392:248,1,75
284,88,24525,2,0,L|176:112,1,75
368,184,24798,2,0,B|444:164|444:164|480:144|484:72,1,150
368,24,25207,2,0,L|408:104,1,75
472,248,25479,2,0,P|440:212|384:184,1,75
280,164,25752,1,0,0:0:0:0:
492,216,26025,5,0,0:0:0:0:
341,247,26161,2,0,P|316:218|287:195,1,75
472,100,26434,2,0,P|440:68|420:36,1,75
370,264,26707,2,0,P|357:228|335:199,1,75
472,60,26979,6,0,B|440:28|440:28|420:-12,2,75,0|0|0,0:0|0:0|0:0,0:0:0:0:
368,156,27388,2,0,P|332:196|312:232,1,75
168,316,27661,2,0,L|256:272,1,75
456,276,27934,2,0,L|372:268,1,75
152,228,28207,1,0,0:0:0:0:
476,256,28343,2,0,L|392:248,1,75
152,312,28616,2,0,L|232:264,1,75
376,128,28888,2,0,P|340:168|320:204,1,75
288,348,29161,6,0,P|328:364|380:364,2,75,0|0|0,0:0|0:0|0:0,0:0:0:0:
164,268,29570,2,0,P|128:236|104:184,2,75,0|0|0,0:0|0:0|0:0,0:0:0:0:
256,192,30116,12,0,31343,0:0:0:0:
424,128,31888,6,0,L|404:224,1,90.0000034332277
288,192,32298,1,0,0:0:0:0:
384,48,32434,2,0,L|392:96,1,45.0000017166138
272,184,32707,2,0,L|264:232,1,45.0000017166138
452,220,32979,2,0,L|504:224,1,45.0000017166138
240,112,33252,2,0,L|192:104,1,45.0000017166138
316,276,33525,6,0,P|360:304|412:308,2,90.0000034332277,0|0|0,0:0|0:0|0:0,0:0:0:0:
328,92,34343,1,0,0:0:0:0:
244,300,34616,2,0,P|212:296|192:284,1,45.0000017166138
88,196,34888,2,0,P|112:204|140:204,1,45.0000017166138
256,108,35161,2,0,P|232:120|204:120,1,45.0000017166138
92,44,35434,1,0,0:0:0:0:
160,212,35570,1,0,0:0:0:0:
336,248,35707,6,0,L|348:156,1,90.0000034332277
264,280,36116,2,0,P|288:312|348:324,2,90.0000034332277,0|0|0,0:0|0:0|0:0,0:0:0:0:
408,184,36798,2,0,L|452:176,1,45.0000017166138
252,144,37070,2,0,L|268:200,1,45.0000017166138
400,216,37343,2,0,L|444:208,1,45.0000017166138
220,120,37615,2,0,L|236:176,1,45.0000017166138
376,320,37888,6,0,P|432:296|440:192,1,150
368,68,38298,2,0,B|288:80|328:144|240:160,1,150
152,208,38707,1,0,0:0:0:0:
136,32,38843,5,0,0:0:0:0:
148,48,38911,1,0,0:0:0:0:
160,64,38979,2,0,P|196:80|300:28,1,150
168,176,39388,2,0,B|152:232|152:232|164:264|192:288|236:288,1,150
248,292,39729,1,0,0:0:0:0:
280,288,39798,1,0,0:0:0:0:
308,276,39866,1,0,0:0:0:0:
332,260,39934,1,0,0:0:0:0:
360,256,40002,1,0,0:0:0:0:
388,264,40070,1,0,0:0:0:0:
420,20,40343,5,0,0:0:0:0:
364,76,40616,1,0,0:0:0:0:
364,76,40752,2,0,B|288:88|324:148|240:160,1,150
96,216,41161,2,0,B|83:143|83:143|75:67,2,150,0|0|0,0:0|0:0|0:0,0:0:0:0:
160,332,41979,1,0,0:0:0:0:
292,336,42252,1,0,0:0:0:0:
416,184,42525,6,0,P|396:152|288:144,1,150
336,216,42934,2,0,P|352:296|404:352,1,150,0|0,0:0|0:0,0:0:0:0:
384,204,43343,2,0,P|368:164|340:128,1,75
252,224,43616,2,0,L|276:320,1,75
472,156,43888,2,0,L|452:64,1,75
156,192,44161,2,0,P|140:228|136:276,1,75
468,244,44434,1,0,0:0:0:0:
296,80,45388,5,0,0:0:0:0:
288,96,45457,1,0,0:0:0:0:
280,112,45525,2,0,L|276:192,1,75
408,120,45798,1,0,0:0:0:0:
228,48,45934,2,0,L|192:124,2,75,0|0|0,0:0|0:0|0:0,0:0:0:0:
460,64,46343,1,0,0:0:0:0:
400,284,46616,6,0,P|360:308|236:280,1,150
164,176,47025,2,0,B|204:108|250:179|304:91,1,150
420,16,47434,2,0,L|404:104,1,75
384,208,47707,1,0,0:0:0:0:
240,204,47843,1,0,0:0:0:0:
384,284,47979,1,0,0:0:0:0:
56,92,48252,5,0,0:0:0:0:
80,124,48320,1,0,0:0:0:0:
116,140,48388,1,0,0:0:0:0:
156,140,48457,1,0,0:0:0:0:
196,128,48525,1,0,0:0:0:0:
236,132,48593,1,0,0:0:0:0:
272,152,48661,6,0,P|316:192|276:312,1,180.000006866455
200,200,49070,1,0,0:0:0:0:
348,152,49207,1,0,0:0:0:0:
492,216,49343,2,0,L|480:312,2,90.0000034332277,0|0|0,0:0|0:0|0:0,0:0:0:0:
412,72,49752,6,0,B|352:44|312:60|312:60|308:112|244:144,1,180.000006866455
180,152,50161,1,0,0:0:0:0:
368,148,50298,1,0,0:0:0:0:
240,248,50434,2,0,P|258:292|308:330,2,90.0000034332277,0|0|0,0:0|0:0|0:0,0:0:0:0:
192,132,50843,6,0,B|160:208|200:232|168:316,1,180.000006866455
96,160,51252,1,0,0:0:0:0:
268,272,51388,1,0,0:0:0:0:
280,100,51525,2,0,P|300:60|292:0,2,90.0000034332277,0|0|0,0:0|0:0|0:0,0:0:0:0:
72,80,51934,6,0,B|84:56|108:32|108:32|160:76|232:40,1,180.000006866455
296,191,52343,2,0,P|324:107|308:20,1,180.000006866455
240,256,52752,1,0,0:0:0:0:
368,292,52888,2,0,L|460:316,1,90.0000034332277
332,140,53161,6,0,P|272:152|228:264,1,180.000006866455
464,260,53570,2,0,B|472:168|472:168|472:72,2,180.000006866455,0|0|0,0:0|0:0|0:0,0:0:0:0:
280,144,54388,1,0,0:0:0:0:
432,72,54525,2,0,L|420:176,1,90.0000034332277
280,248,54798,2,0,L|288:152,1,90.0000034332277
420,184,55070,1,0,0:0:0:0:
412,284,55207,1,0,0:0:0:0:
268,308,55343,6,0,P|260:216|308:136,1,180.000006866455
364,244,55752,2,0,L|344:332,2,90.0000034332277,0|0|0,0:0|0:0|0:0,0:0:0:0:
336,80,56298,5,0,0:0:0:0:
248,96,56434,1,0,0:0:0:0:
120,216,56707,6,0,L|232:208,1,90.0000034332277
392,192,56979,5,0,0:0:0:0:
172,288,57116,1,0,0:0:0:0:
228,80,57252,1,0,0:0:0:0:
344,280,57388,6,0,P|308:324|188:312,1,180.000006866455
160,144,57798,1,0,0:0:0:0:
256,248,57934,1,0,0:0:0:0:
120,344,58070,2,0,P|76:352|32:344,1,90.0000034332277
32,204,58343,2,0,P|76:195|120:203,1,90.0000034332277
288,336,58616,6,0,B|320:304|320:304|392:296|432:212,1,180.000006866455
212,48,59161,2,0,B|200:92|200:92|200:144,1,90.0000034332277
200,164,59366,1,0,0:0:0:0:
200,192,59434,1,0,0:0:0:0:
200,312,59570,5,0,0:0:0:0:
200,312,59707,2,0,P|272:300|316:188,2,180.000006866455,0|0|0,0:0|0:0|0:0,0:0:0:0:
60,320,60388,1,0,0:0:0:0:
60,320,60525,6,0,L|32:220,1,90.0000034332277
96,56,60798,2,0,L|128:168,1,90.0000034332277
324,226,61070,1,0,0:0:0:0:
161,210,61207,1,0,0:0:0:0:
331,149,61343,1,0,0:0:0:0:
201,278,61479,1,0,0:0:0:0:
276,90,61616,2,0,L|204:32,1,90.0000034332277
256,192,61888,12,0,63525,0:0:0:0:
224,76,63798,5,0,0:0:0:0:
240,244,63934,1,0,0:0:0:0:
416,128,64070,2,0,L|308:120,2,90.0000034332277,0|0|0,0:0|0:0|0:0,0:0:0:0:
144,156,64479,2,0,L|272:164,2,90.0000034332277,0|0|0,0:0|0:0|0:0,0:0:0:0:
308,196,64888,1,0,0:0:0:0:
80,104,65161,5,0,0:0:0:0:
76,144,65229,1,0,0:0:0:0:
72,184,65298,1,0,0:0:0:0:
68,224,65366,1,0,0:0:0:0:
64,264,65434,1,0,0:0:0:0:
216,160,65570,1,0,0:0:0:0:
280,328,65707,2,0,P|320:352|372:348,1,90.0000034332277
488,204,65979,2,0,P|480:160|432:116,1,90.0000034332277
228,56,66252,6,0,B|216:120|216:120|232:156|232:156|220:228,1,157.500006008148
208,224,66798,1,0,0:0:0:0:
408,228,66934,1,0,0:0:0:0:
348,296,67070,1,0,0:0:0:0:
300,108,67206,1,0,0:0:0:0:
432,56,67343,6,0,L|452:160,1,90.0000034332277
440,276,67752,2,0,L|446:231,1,45.0000017166138
472,364,68025,1,0,0:0:0:0:
196,264,68298,2,0,L|204:200,1,45.0000017166138
240,140,68570,1,0,0:0:0:0:
248,132,68843,1,0,0:0:0:0:
344,196,68979,2,0,P|336:236|328:256,1,45.0000017166138
264,352,69252,2,0,P|268:328|284:296,1,45.0000017166138
464,248,69525,6,0,B|432:244|432:244|408:260|408:260|360:264,1,90.0000034332277
251,281,69934,2,0,L|296:284,1,45.0000017166138
172,248,70207,1,0,0:0:0:0:
152,80,70479,6,0,L|156:136,1,45.0000017166138
296,168,70752,2,0,L|292:120,1,45.0000017166138
88,176,71025,1,0,0:0:0:0:
220,312,71161,6,0,L|280:304,1,60
436,68,71434,2,0,L|344:76,1,75
168,92,71707,6,0,B|173:137|173:137|188:162|188:162|193:212,1,120
200,296,72116,2,0,L|268:300,1,60
352,288,72388,1,0,0:0:0:0:
164,168,72661,6,0,P|132:176|80:176,1,60
240,188,72934,2,0,P|272:192|312:192,1,60
188,244,73207,1,0,0:0:0:0:
188,244,73343,2,0,P|184:276|192:312,2,60,0|0|0,0:0|0:0|0:0,0:0:0:0:
360,72,73888,6,0,L|348:208,1,120
360,280,74298,2,0,L|296:288,1,60
220,320,74570,1,0,0:0:0:0:
368,184,74843,5,0,0:0:0:0:
236,244,74979,2,0,P|208:220|184:184,1,60
368,108,75252,1,0,0:0:0:0:
440,244,75388,2,0,L|440:308,1,60
316,244,75661,1,0,0:0:0:0:
288,80,75798,2,0,L|332:8,2,60,0|0|0,0:0|0:0|0:0,0:0:0:0:
240,236,76207,6,0,P|188:256|124:224,1,120
60,96,76616,1,0,0:0:0:0:
188,176,76752,1,0,0:0:0:0:
56,112,76888,2,0,L|60:188,1,60
176,316,77161,6,0,L|180:256,2,60,0|0|0,0:0|0:0|0:0,0:0:0:0:
256,56,77570,2,0,L|260:136,2,60,0|0|0,0:0|0:0|0:0,0:0:0:0:
224,188,77979,1,0,0:0:0:0:
224,188,78116,1,0,0:0:0:0:
312,292,78252,6,0,L|388:292,2,60,0|0|0,0:0|0:0|0:0,0:0:0:0:
140,216,78661,2,0,L|76:212,2,60,0|0|0,0:0|0:0|0:0,0:0:0:0:
156,208,79002,1,0,0:0:0:0:
172,200,79070,1,0,0:0:0:0:
288,132,79207,1,0,0:0:0:0:
432,92,79343,6,0,P|448:136|412:204,1,120
268,76,79752,2,0,P|298:40|374:37,1,120
340,224,80161,2,0,P|293:215|253:150,1,120
480,128,80707,6,0,B|488:216,1,60
364,144,80979,1,0,0:0:0:0:
368,228,81116,1,0,0:0:0:0:
248,140,81252,2,0,L|244:208,1,60
132,312,81525,6,0,P|104:296|72:252,2,60,0|0|0,0:0|0:0|0:0,0:0:0:0:
164,144,81934,2,0,P|106:152|72:200,1,120
208,324,82343,2,0,L|280:328,1,60
352,324,82616,6,0,L|344:252,1,60
196,208,82888,2,0,L|200:280,2,60,0|0|0,0:0|0:0|0:0,0:0:0:0:
188,124,83298,1,0,0:0:0:0:
264,160,83434,1,0,0:0:0:0:
124,240,83570,5,0,0:0:0:0:
124,240,83638,1,0,0:0:0:0:
124,240,83707,1,0,0:0:0:0:
284,188,83843,1,0,0:0:0:0:
116,92,83979,1,0,0:0:0:0:
296,116,84116,1,0,0:0:0:0:
72,176,84252,1,0,0:0:0:0:
360,164,84388,1,0,0:0:0:0:
44,248,84525,6,0,L|64:332,1,60
344,244,84798,1,0,0:0:0:0:
256,192,84866,12,0,85888,0:0:0:0:
