osu file format v13

[General]
AudioFilename: 720PFree! 2 ~Eternal Summer~ OP tvsize.MP3
AudioLeadIn: 1500
PreviewTime: 48185
Countdown: 0
SampleSet: Soft
StackLeniency: 0.7
Mode: 0
LetterboxInBreaks: 0
WidescreenStoryboard: 0

[Editor]
DistanceSpacing: 1.4
BeatDivisor: 4
GridSize: 4
TimelineZoom: 1.9

[Metadata]
Title:Dried Up Youthful Fame (TV size)
TitleUnicode:Dried Up Youthful Fame (TV size)
Artist:OLDCODEX
ArtistUnicode:OLDCODEX
Creator:F D Flourite
Version:Fame
Source:Free!-Eternal Summer-
Tags:iwatobi swim club f_d_flourite swimming op opening theme ZZHBOY Regraz No_Gu Awaken free
BeatmapID:509258
BeatmapSetID:190383

[Difficulty]
HPDrainRate:7
CircleSize:4
OverallDifficulty:8.5
ApproachRate:9.2
SliderMultiplier:2
SliderTickRate:1

[Events]
//Background and Video events
0,0,"c21284adtw1e6p3dbymvzj20rs0n6jy1.jpg",0,0
Video,220,"FreeOP.avi"
//Break Periods
//Storyboard Layer 0 (Background)
//Storyboard Layer 1 (Fail)
//Storyboard Layer 2 (Pass)
//Storyboard Layer 3 (Foreground)
//Storyboard Sound Samples
//Background Colour Transformations
3,100,163,162,255

[TimingPoints]
799,272.727272727273,4,2,2,60,1,0
799,-133.333333333333,4,2,2,60,0,0
4071,-83.3333333333333,4,2,2,60,0,0
4480,-100,4,2,2,60,0,0
12799,-100,4,1,2,60,0,0
13889,-100,4,2,2,60,0,0
21253,-133.333333333333,4,2,2,60,0,0
21526,-100,4,1,2,60,0,0
21662,-100,4,1,2,40,0,0
21799,-100,4,1,2,60,0,0
21935,-100,4,1,2,40,0,0
22071,-100,4,1,2,35,0,0
22617,-83.3333333333333,4,1,2,70,0,0
22889,-100,4,2,2,60,0,0
30799,-100,4,1,2,50,0,0
31344,-100,4,1,2,65,0,0
34617,-100,4,2,2,65,0,0
44435,-200,4,2,2,50,0,0
45458,-100,4,2,2,65,0,0
46617,-83.3333333333333,4,2,2,65,0,0
48117,-83.3333333333333,4,1,2,55,0,0
48662,-95.2380952380952,4,2,2,90,0,1
56980,-95.2380952380952,4,2,2,90,0,0
57389,-95.2380952380952,4,2,2,90,0,1
66253,-100,4,2,2,80,0,0
68299,-100,4,2,2,60,0,0
68367,-100,4,2,2,80,0,0
68571,-100,4,2,2,60,0,0
68639,-100,4,2,2,80,0,0
68844,-100,4,2,2,60,0,0
68912,-100,4,2,2,80,0,0
69253,-66.6666666666667,4,2,1,80,0,0
69526,-100,4,2,2,80,0,0
70480,-100,4,2,2,60,0,0
70549,-100,4,2,2,80,0,0
70753,-100,4,2,2,60,0,0
70821,-100,4,2,2,80,0,0
72662,-100,4,2,2,60,0,0
72730,-100,4,2,2,80,0,0
72935,-100,4,2,2,60,0,0
73003,-100,4,2,2,80,0,0
73208,-100,4,2,2,60,0,0
73276,-100,4,2,2,80,0,0
76071,-95.2380952380952,4,2,2,80,0,0
84799,-200,4,2,2,80,0,0
84867,-200,4,2,2,20,0,0
85617,-200,4,2,2,80,0,0
85958,-200,4,2,2,5,0,0

[Colours]
Combo1 : 78,213,216
Combo2 : 54,99,216
Combo3 : 170,170,255

[HitObjects]
109,95,799,6,0,P|141:167|133:183,1,75.0000028610231,2|0,0:0|0:0,0:0:0:0:
261,111,1071,2,0,P|214:174|196:175,1,75.0000028610231
323,249,1344,2,0,P|245:240|236:225,1,75.0000028610231
234,373,1617,2,0,P|202:300|211:284,1,75.0000028610231
312,72,1890,6,0,L|320:168,1,75.0000028610231,2|0,0:0|0:0,0:0:0:0:
200,312,2162,2,0,L|193:237,1,75.0000028610231
328,64,2435,2,0,L|336:160,1,75.0000028610231
184,320,2708,2,0,L|176:224,1,75.0000028610231
144,80,2981,6,0,P|200:88|216:104,1,75.0000028610231,2|0,0:0|0:0,0:0:0:0:
368,304,3253,2,0,P|312:296|296:280,1,75.0000028610231
320,144,3526,2,0,L|400:120,1,75.0000028610231
192,240,3799,2,0,L|112:264,1,75.0000028610231,2|0,0:0|1:0,0:0:0:0:
48,288,4003,1,0,1:0:0:0:
48,288,4071,6,0,P|96:240|88:160,1,119.999996337891,0|4,0:0|1:0,0:0:0:0:
379,42,4481,1,0,0:0:0:0:
390,53,4549,1,0,0:0:0:0:
400,64,4617,2,0,L|384:184,1,100,4|0,1:0|0:0,0:0:0:0:
112,320,4890,2,0,L|128:200,1,100,4|0,1:0|0:0,0:0:0:0:
408,224,5162,5,4,1:0:0:0:
328,272,5299,2,0,P|256:272|224:240,1,100,0|0,1:0|0:0,0:0:0:0:
184,176,5571,1,0,0:0:0:0:
312,88,5708,2,0,L|296:192,1,100,0|0,1:0|0:0,0:0:0:0:
64,216,5981,2,0,L|80:112,1,100,0|0,1:0|0:0,0:0:0:0:
232,48,6253,5,4,1:0:0:0:
312,88,6390,2,0,P|376:96|408:80,1,100,0|0,1:0|0:0,0:0:0:0:
504,172,6662,1,0,0:0:0:0:
424,280,6799,2,0,B|352:288|352:288|304:272,1,100,0|0,1:0|0:0,0:0:0:0:
149,242,7071,2,0,B|221:234|221:234|269:250,1,100,0|0,1:0|0:0,0:0:0:0:
368,128,7344,6,0,P|380:80|352:32,2,100,4|0|0,1:0|1:0|0:0,0:0:0:0:
312,208,7753,1,0,0:0:0:0:
158,108,7890,2,0,P|221:115|246:149,1,100,0|0,1:0|0:0,0:0:0:0:
150,242,8162,2,0,P|87:235|62:201,1,100,0|0,1:0|0:0,0:0:0:0:
72,64,8435,6,0,L|88:12,3,50,0|0|0|0,1:0|0:0|0:0|0:0,0:0:0:0:
143,155,8708,2,0,L|158:108,3,50,0|0|0|0,1:0|0:0|0:0|0:0,0:0:0:0:
254,180,8980,2,0,L|314:200,1,50,0|0,1:0|0:0,0:0:0:0:
380,280,9117,2,0,L|396:233,1,50,0|0,1:0|0:0,0:0:0:0:
475,157,9253,2,0,L|427:141,1,50,0|0,1:0|0:0,0:0:0:0:
354,56,9389,2,0,L|338:104,1,50,0|0,1:0|0:0,0:0:0:0:
187,33,9526,6,0,P|231:11|280:19,1,100,4|0,1:0|0:0,0:0:0:0:
156,220,9799,2,0,L|49:231,1,100,0|0,1:0|0:0,0:0:0:0:
136,352,10071,2,0,L|260:340,1,100,0|0,0:0|0:0,0:0:0:0:
334,226,10344,2,0,L|458:214,1,100,0|0,1:0|0:0,0:0:0:0:
412,60,10617,6,0,P|372:116|376:152,1,100,0|0,0:0|0:0,0:0:0:0:
480,248,10890,1,0,1:0:0:0:
368,372,11026,1,0,0:0:0:0:
244,280,11162,2,0,P|196:280|152:248,1,100
72,144,11435,1,0,1:0:0:0:
140,24,11571,1,0,0:0:0:0:
310,60,11708,6,0,P|301:157|220:208,1,200,4|0,1:0|1:0,0:0:0:0:
200,96,12117,1,0,0:0:0:0:
416,120,12253,2,0,B|456:120|488:92|488:92|476:160,1,100
468,276,12526,1,0,1:0:0:0:
344,168,12662,1,0,0:0:0:0:
316,324,12799,5,6,1:0:0:0:
160,260,12935,1,0,0:0:0:0:
200,96,13071,1,0,0:0:0:0:
344,168,13208,1,2,0:0:0:0:
168,216,13344,1,0,0:0:0:0:
92,56,13480,1,0,0:0:0:0:
204,244,13617,1,2,0:0:0:0:
24,364,13753,1,0,0:0:0:0:
204,244,13890,6,0,L|422:208,1,200,4|0,1:0|1:0,0:0:0:0:
512,120,14299,1,0,0:0:0:0:
432,40,14435,2,0,L|440:152,1,100,0|0,0:0|0:0,0:0:0:0:
336,224,14708,2,0,L|343:323,1,100,0|0,1:0|0:0,0:0:0:0:
232,288,14981,5,0,0:0:0:0:
88,184,15117,2,0,L|80:248,2,50,0|0|0,0:0|0:0|1:0,0:0:0:0:
128,320,15390,1,0,0:0:0:0:
272,144,15526,2,0,P|288:88|272:48,1,100,0|0,0:0|0:0,0:0:0:0:
128,48,15799,2,0,L|30:68,1,100,0|0,1:0|0:0,0:0:0:0:
272,144,16071,6,0,L|384:120,2,100,4|0|0,1:0|0:0|1:0,0:0:0:0:
328,240,16481,2,0,P|400:264|416:296,1,100,0|0,1:0|0:0,0:0:0:0:
176,216,16753,2,0,P|104:192|88:160,1,100,0|0,1:0|0:0,0:0:0:0:
116,32,17026,1,0,1:0:0:0:
256,48,17162,6,0,B|280:96|280:96|272:144,1,100,0|0,0:0|0:0,0:0:0:0:
232,250,17435,2,0,P|253:312|281:324,2,66.6666666666667,0|0|0,1:0|0:0|0:0,0:0:0:0:
144,232,17708,2,0,L|40:224,1,100,0|0,1:0|0:0,0:0:0:0:
299,261,17981,2,0,P|355:277|387:333,1,100,0|0,1:0|0:0,0:0:0:0:
474,203,18253,6,0,L|490:83,1,100,4|0,1:0|0:0,0:0:0:0:
316,152,18526,1,0,1:0:0:0:
168,24,18662,1,0,1:0:0:0:
120,112,18799,2,0,P|108:172|128:212,1,100,0|0,0:0|0:0,0:0:0:0:
316,152,19071,2,0,P|256:140|216:160,1,100,0|0,1:0|0:0,0:0:0:0:
276,328,19344,2,0,P|288:268|268:228,1,100
80,288,19616,2,0,P|140:300|180:280,1,100,0|0,1:0|0:0,0:0:0:0:
400,168,19889,2,0,L|416:276,1,100,0|0,1:0|0:0,0:0:0:0:
280,144,20162,2,0,L|297:32,1,100,0|0,1:0|0:0,0:0:0:0:
456,224,20435,6,0,P|392:248|352:232,1,100,4|0,1:0|0:0,0:0:0:0:
188,240,20708,1,0,1:0:0:0:
280,144,20844,1,0,0:0:0:0:
364,239,20980,1,0,1:0:0:0:
277,333,21117,1,0,1:0:0:0:
120,320,21253,6,0,P|80:272|80:236,1,75.0000028610231,0|0,1:0|0:0,0:0:0:0:
151,149,21526,6,0,L|161:258,1,100,0|0,1:0|0:0,0:0:0:0:
361,149,21799,2,0,L|353:231,2,66.6666666666667,0|0|0,1:0|0:0|0:0,0:0:0:0:
367,72,22071,1,0,0:0:0:0:
512,167,22208,1,0,0:0:0:0:
464,336,22344,2,0,P|432:260|444:228,1,100
308,316,22617,6,0,B|143:364|143:364|68:352,1,239.999992675781,4|0,0:0|1:0,0:0:0:0:
81,184,23026,1,0,0:0:0:0:
81,184,23094,1,0,0:0:0:0:
81,184,23162,2,0,P|97:244|68:289,1,100,0|0,0:0|1:0,0:0:0:0:
143,362,23435,1,0,1:0:0:0:
20,230,23571,1,0,0:0:0:0:
203,195,23708,6,0,L|300:171,1,100
398,17,23981,2,0,L|370:113,1,100,0|0,1:0|0:0,0:0:0:0:
454,271,24253,2,0,L|384:198,1,100,0|0,0:0|1:0,0:0:0:0:
59,155,24526,2,0,P|112:168|192:104,1,150,0|0,1:0|0:0,0:0:0:0:
186,117,24799,6,0,L|191:226,1,100,0|0,1:0|0:0,0:0:0:0:
152,384,25071,1,0,1:0:0:0:
324,332,25208,2,0,L|428:314,1,100
366,36,25481,2,0,P|344:112|377:148,1,100,0|0,0:0|1:0,0:0:0:0:
408,246,25753,1,0,0:0:0:0:
408,246,25821,1,0,0:0:0:0:
408,246,25890,6,0,L|301:232,1,100,0|0,1:0|0:0,0:0:0:0:
146,133,26162,2,0,B|225:143|225:143|202:113,1,100,0|0,1:0|0:0,0:0:0:0:
64,76,26435,2,0,P|43:137|61:191,1,100,0|0,1:0|0:0,0:0:0:0:
224,376,26708,2,0,P|245:315|227:261,1,100,0|0,1:0|0:0,0:0:0:0:
210,173,26980,6,0,B|262:157|305:193|305:193|291:143,1,150,4|0,1:0|0:0,0:0:0:0:
283,109,27253,1,0,1:0:0:0:
369,32,27389,2,0,B|401:150|401:150|464:194,1,200,0|0,1:0|0:0,0:0:0:0:
441,347,27799,2,0,B|371:297|371:297|340:311,1,100,0|0,1:0|0:0,0:0:0:0:
186,323,28071,6,0,P|206:269|186:201,1,100,0|0,0:0|0:0,0:0:0:0:
144,64,28344,2,0,L|141:179,1,100,0|0,1:0|0:0,0:0:0:0:
304,76,28617,2,0,L|281:188,1,100,0|0,1:0|0:0,0:0:0:0:
459,115,28890,2,0,L|416:221,1,100,0|0,1:0|0:0,0:0:0:0:
363,371,29162,6,0,B|255:333|255:333|210:351,1,150,0|0,1:0|0:0,0:0:0:0:
183,364,29435,1,0,1:0:0:0:
73,221,29571,2,0,P|55:159|66:117,1,100,0|0,1:0|0:0,0:0:0:0:
198,28,29844,2,0,P|260:43|291:73,1,100,0|0,1:0|0:0,0:0:0:0:
264,274,30117,1,0,1:0:0:0:
264,274,30185,1,0,0:0:0:0:
264,274,30253,5,4,1:0:0:0:
438,236,30390,1,0,1:0:0:0:
276,163,30526,1,0,1:0:0:0:
365,318,30663,1,0,1:0:0:0:
383,140,30799,1,0,1:0:0:0:
240,300,30935,1,0,0:0:0:0:
449,255,31071,1,0,0:0:0:0:
254,167,31208,1,4,0:0:0:0:
361,353,31344,5,2,3:0:0:0:
72,192,31617,1,0,0:0:0:0:
361,353,31889,1,2,3:0:0:0:
72,192,32162,1,0,0:0:0:0:
368,96,32435,6,0,P|376:168|360:208,1,100,0|0,0:0|2:0,0:0:0:0:
272,280,32708,2,0,P|264:208|280:168,1,100,0|0,0:0|2:0,0:0:0:0:
368,96,32980,1,0,0:0:0:0:
496,304,33253,1,0,0:0:0:0:
200,336,33526,5,2,3:0:0:0:
96,136,33799,1,0,0:0:0:0:
312,8,34071,1,2,3:0:0:0:
408,208,34344,2,0,P|352:216|304:192,1,100
264,24,34617,6,0,L|248:144,2,100,0|0|0,1:0|0:0|1:0,0:0:0:0:
376,88,35026,1,0,0:0:0:0:
168,128,35162,2,0,L|69:143,1,100,0|0,1:0|0:0,0:0:0:0:
40,24,35435,2,0,L|144:8,1,100,0|0,1:0|0:0,0:0:0:0:
168,128,35708,5,4,1:0:0:0:
368,136,35980,1,0,1:0:0:0:
256,304,36253,1,0,1:0:0:0:
212,206,36389,2,0,P|204:142|220:94,1,100,0|0,1:0|0:0,0:0:0:0:
248,8,36662,1,0,0:0:0:0:
120,256,36799,6,0,P|128:320|112:368,1,100,0|0,1:0|0:0,0:0:0:0:
208,56,37071,2,0,L|224:184,1,100,0|0,1:0|0:0,0:0:0:0:
320,336,37344,2,0,P|312:272|336:224,1,100,0|0,1:0|0:0,0:0:0:0:
456,24,37617,2,0,L|440:128,1,100,0|0,1:0|0:0,0:0:0:0:
408,304,37889,6,0,L|416:360,2,50,4|0|0,1:0|0:0|0:0,0:0:0:0:
392,200,38162,1,0,1:0:0:0:
288,176,38299,2,0,P|256:104|303:41,1,150,0|0,1:0|0:0,0:0:0:0:
390,41,38571,2,0,P|370:94|298:110,1,100,0|0,1:0|1:0,0:0:0:0:
183,123,38844,1,0,0:0:0:0:
64,32,38980,6,0,L|80:200,1,150,4|0,1:0|0:0,0:0:0:0:
83,221,39253,1,0,1:0:0:0:
179,310,39389,2,0,L|170:361,2,50,0|0|0,1:0|0:0|0:0,0:0:0:0:
183,288,39594,1,0,0:0:0:0:
188,267,39662,1,0,1:0:0:0:
301,330,39799,1,0,1:0:0:0:
412,267,39935,1,0,1:0:0:0:
414,252,40003,1,0,0:0:0:0:
416,236,40071,6,0,L|390:85,1,150,4|0,1:0|0:0,0:0:0:0:
312,56,40344,2,0,P|251:88|215:83,1,100,0|0,1:0|0:0,0:0:0:0:
120,16,40617,1,0,0:0:0:0:
201,247,40753,5,0,1:0:0:0:
190,267,41026,1,0,1:0:0:0:
190,268,41162,6,0,L|181:373,1,100,0|0,1:0|0:0,0:0:0:0:
52,179,41435,2,0,L|74:290,1,100,0|0,1:0|0:0,0:0:0:0:
300,281,41708,2,0,P|329:217|316:177,1,100
212,218,41980,1,0,1:0:0:0:
388,339,42117,1,0,0:0:0:0:
431,68,42253,5,4,1:0:0:0:
431,68,42526,2,0,P|368:66|316:138,1,150,0|0,1:0|0:0,0:0:0:0:
314,166,42799,2,0,P|381:172|413:149,1,100,0|0,1:0|1:0,0:0:0:0:
268,30,43071,1,0,1:0:0:0:
215,224,43208,1,0,0:0:0:0:
214,224,43344,6,0,L|321:265,1,100,4|0,1:0|0:0,0:0:0:0:
314,165,43617,2,0,L|421:206,1,100,0|0,1:0|0:0,0:0:0:0:
409,106,43889,2,0,L|516:147,1,100,0|0,1:0|0:0,0:0:0:0:
307,260,44162,1,0,1:0:0:0:
214,224,44299,1,0,0:0:0:0:
126,166,44435,6,0,P|50:133|131:217,1,350,4|0,1:0|0:0,0:0:0:0:
124,232,45458,1,0,1:0:0:0:
124,232,45526,5,4,1:0:0:0:
388,360,45799,1,0,1:0:0:0:
430,211,45935,1,0,0:0:0:0:
283,68,46071,2,0,P|269:133|290:186,1,100,0|0,1:0|0:0,0:0:0:0:
380,57,46344,1,0,1:0:0:0:
181,85,46480,1,0,1:0:0:0:
17,56,46617,6,0,L|37:196,1,119.999996337891,4|0,1:0|0:0,0:0:0:0:
147,321,46889,1,0,1:0:0:0:
256,178,47026,1,0,1:0:0:0:
256,178,47094,1,0,0:0:0:0:
256,178,47162,1,0,0:0:0:0:
365,321,47299,1,0,1:0:0:0:
365,321,47367,1,0,0:0:0:0:
365,321,47435,1,0,1:0:0:0:
478,174,47571,2,0,L|495:56,1,119.999996337891,0|0,1:0|0:0,0:0:0:0:
319,31,47844,1,0,1:0:0:0:
256,178,47980,1,4,1:0:0:0:
95,59,48253,5,0,0:0:0:0:
91,106,48321,1,0,0:0:0:0:
87,153,48389,1,0,0:0:0:0:
82,201,48458,1,0,0:0:0:0:
78,248,48526,1,0,0:0:0:0:
74,295,48594,1,0,0:0:0:0:
71,342,48662,6,0,P|137:315|210:334,1,104.999996795654,4|0,1:0|0:0,0:0:0:0:
340,340,48935,1,0,0:0:0:0:
472,272,49071,2,0,P|490:205|463:155,1,104.999996795654,0|0,1:0|0:0,0:0:0:0:
303,34,49344,2,0,P|285:101|312:151,1,104.999996795654,0|0,0:0|0:0,0:0:0:0:
478,175,49617,1,0,1:0:0:0:
303,34,49753,6,0,P|207:6|94:71,1,209.999993591309,4|0,1:0|0:0,0:0:0:0:
68,224,50162,1,0,1:0:0:0:
218,321,50299,1,0,0:0:0:0:
360,192,50435,2,0,P|384:136|364:80,1,104.999996795654,0|0,1:0|0:0,0:0:0:0:
303,34,50708,1,0,1:0:0:0:
280,248,50844,6,0,P|344:288|448:224,1,209.999993591309,4|0,1:0|0:0,0:0:0:0:
410,55,51253,1,0,1:0:0:0:
240,26,51389,1,0,0:0:0:0:
87,110,51526,2,0,B|81:153|81:153|73:157|73:157|65:209,1,104.999996795654,0|0,1:0|0:0,0:0:0:0:
104,384,51799,1,0,1:0:0:0:
248,360,51935,6,0,B|264:256|264:256|280:248|280:248|296:128,1,209.999993591309,4|0,1:0|0:0,0:0:0:0:
422,50,52344,2,0,L|446:162,1,104.999996795654,0|0,1:0|0:0,0:0:0:0:
325,62,52617,2,0,L|289:170,1,104.999996795654,0|0,0:0|0:0,0:0:0:0:
246,0,52889,2,0,L|161:76,1,104.999996795654,0|0,1:0|0:0,0:0:0:0:
94,131,53094,5,0,0:0:0:0:
94,131,53162,2,0,B|70:147|70:147|29:120|29:120|56:269,1,209.999993591309,4|0,1:0|1:0,0:0:0:0:
201,370,53571,2,0,L|222:233,1,104.999996795654,0|0,0:0|0:0,0:0:0:0:
243,114,53844,2,0,P|299:158|366:148,1,104.999996795654,0|0,0:0|1:0,0:0:0:0:
502,209,54117,1,0,0:0:0:0:
424,36,54253,6,0,L|312:42,1,104.999996795654,4|0,1:0|0:0,0:0:0:0:
84,123,54526,2,0,L|188:117,1,104.999996795654,0|0,1:0|0:0,0:0:0:0:
434,23,54799,2,0,L|322:29,1,104.999996795654,0|0,1:0|0:0,0:0:0:0:
75,135,55071,2,0,L|179:129,1,104.999996795654,0|0,1:0|0:0,0:0:0:0:
375,331,55344,6,0,P|321:351|263:311,1,104.999996795654,4|0,1:0|0:0,0:0:0:0:
180,296,55617,1,0,1:0:0:0:
61,247,55753,2,0,L|74:366,1,104.999996795654,0|0,0:0|0:0,0:0:0:0:
148,143,56026,2,0,L|161:262,1,104.999996795654,0|0,0:0|1:0,0:0:0:0:
241,42,56299,2,0,L|254:161,1,104.999996795654,0|0,0:0|0:0,0:0:0:0:
360,226,56571,5,0,0:0:0:0:
373,233,56639,1,0,0:0:0:0:
386,239,56708,2,0,P|461:233|483:206,1,104.999996795654,0|0,1:0|0:0,0:0:0:0:
422,61,56980,2,0,L|416:171,1,104.999996795654,0|0,1:0|0:0,0:0:0:0:
464,363,57253,1,0,1:0:0:0:
266,283,57389,6,0,B|184:256|120:304|120:304|136:240,1,209.999993591309,4|0,1:0|0:0,0:0:0:0:
185,96,57799,2,0,L|201:215,1,104.999996795654,0|0,1:0|0:0,0:0:0:0:
332,359,58071,1,0,1:0:0:0:
405,163,58208,1,0,0:0:0:0:
414,113,58276,1,0,0:0:0:0:
422,62,58344,1,0,1:0:0:0:
223,19,58480,6,0,P|156:14|115:142,1,209.999993591309,4|0,1:0|0:0,0:0:0:0:
153,259,58889,2,0,P|168:327|146:369,1,104.999996795654,0|0,1:0|0:0,0:0:0:0:
74,312,59162,1,0,1:0:0:0:
255,243,59299,1,0,1:0:0:0:
408,350,59435,1,0,1:0:0:0:
497,195,59571,6,0,B|512:28|512:28|463:55,1,209.999993591309,4|0,1:0|0:0,0:0:0:0:
319,133,59980,2,0,P|369:129|334:210,1,157.499995193482,0|0,1:0|0:0,0:0:0:0:
280,226,60253,2,0,P|209:226|173:204,1,104.999996795654,0|0,1:0|0:0,0:0:0:0:
38,197,60526,1,0,1:0:0:0:
24,43,60662,6,0,P|90:122|30:201,1,209.999993591309,4|0,1:0|0:0,0:0:0:0:
222,202,61071,2,0,L|333:193,1,104.999996795654,0|0,1:0|0:0,0:0:0:0:
416,256,61344,1,0,0:0:0:0:
288,288,61480,1,0,0:0:0:0:
320,32,61617,1,0,1:0:0:0:
434,102,61753,1,0,0:0:0:0:
228,103,61889,6,0,P|159:123|124:209,1,157.499995193482,4|0,1:0|0:0,0:0:0:0:
123,195,62162,2,0,L|133:74,1,104.999996795654,0|0,1:0|0:0,0:0:0:0:
328,172,62435,2,0,L|319:276,1,104.999996795654,0|0,0:0|0:0,0:0:0:0:
194,304,62708,1,0,1:0:0:0:
124,196,62844,1,0,0:0:0:0:
320,32,62980,6,0,L|312:144,1,104.999996795654,4|0,1:0|0:0,0:0:0:0:
194,304,63253,1,0,1:0:0:0:
380,340,63389,2,0,P|450:289|446:245,1,104.999996795654,0|0,1:0|0:0,0:0:0:0:
464,152,63662,2,0,P|452:87|468:38,1,104.999996795654,0|0,1:0|1:0,0:0:0:0:
312,148,63935,1,0,1:0:0:0:
149,41,64071,6,0,L|135:162,1,104.999996795654,4|0,1:0|0:0,0:0:0:0:
68,328,64344,1,0,1:0:0:0:
260,298,64480,2,0,B|354:283|354:283|365:265|365:265|472:249,1,209.999993591309,0|0,1:0|1:0,0:0:0:0:
505,129,64889,1,0,1:0:0:0:
416,28,65026,1,0,1:0:0:0:
312,148,65162,6,0,L|207:152,1,104.999996795654,4|0,1:0|1:0,0:0:0:0:
43,44,65435,2,0,L|148:40,1,104.999996795654,0|0,0:0|1:0,0:0:0:0:
323,33,65708,1,0,1:0:0:0:
450,199,65844,5,0,0:0:0:0:
283,328,65981,1,0,1:0:0:0:
160,158,66117,1,0,0:0:0:0:
323,32,66253,1,4,1:0:0:0:
156,153,66799,6,0,B|141:206|141:206|159:264,1,100
386,204,67071,2,0,B|401:151|401:151|383:93,1,100,0|0,1:0|0:0,0:0:0:0:
264,16,67344,6,0,L|246:220,1,200,4|0,1:0|0:0,0:0:0:0:
384,284,67753,1,0,0:0:0:0:
481,140,67889,2,0,P|492:91|474:35,1,100,0|0,1:0|0:0,0:0:0:0:
348,23,68162,1,0,0:0:0:0:
165,63,68299,6,0,P|122:104|104:147,1,100,2|0,3:0|0:0,0:0:0:0:
189,335,68571,2,0,P|246:352|293:346,1,100,2|0,3:0|0:0,0:0:0:0:
413,177,68844,2,0,P|399:119|370:82,1,100,2|0,3:0|1:0,0:0:0:0:
256,192,69117,1,0,0:0:0:0:
240,208,69185,1,0,0:0:0:0:
224,224,69253,1,0,0:0:0:0:
208,240,69321,1,0,0:0:0:0:
192,256,69389,1,0,0:0:0:0:
176,272,69458,1,0,0:0:0:0:
124,312,69526,6,0,L|152:108,1,200,4|0,1:0|0:0,0:0:0:0:
253,44,69935,1,0,0:0:0:0:
311,201,70071,1,0,1:0:0:0:
143,173,70208,1,0,0:0:0:0:
253,44,70344,1,0,0:0:0:0:
420,216,70480,6,0,P|424:283|409:320,1,100,2|0,3:0|0:0,0:0:0:0:
288,236,70753,2,0,P|239:282|201:294,1,100,2|0,3:0|0:0,0:0:0:0:
187,147,71026,2,0,P|120:139|86:118,1,100,2|0,3:0|1:0,0:0:0:0:
166,16,71299,1,0,0:0:0:0:
280,67,71435,1,0,0:0:0:0:
269,94,71503,1,0,0:0:0:0:
256,120,71571,1,0,0:0:0:0:
120,170,71708,6,0,B|255:121|255:121|232:178,1,200,4|0,1:0|0:0,0:0:0:0:
176,344,72117,1,0,0:0:0:0:
352,316,72253,2,0,B|442:282|442:282|483:187,1,200,0|0,1:0|0:0,0:0:0:0:
434,30,72662,6,0,P|418:82|440:136,1,100,2|0,3:0|0:0,0:0:0:0:
260,324,72935,2,0,P|276:272|254:218,1,100,2|0,3:0|0:0,0:0:0:0:
4,171,73208,2,0,P|62:192|123:171,1,100,2|0,3:0|1:0,0:0:0:0:
132,18,73480,1,0,0:0:0:0:
234,87,73617,1,0,0:0:0:0:
288,93,73685,1,0,0:0:0:0:
342,88,73753,1,0,0:0:0:0:
392,66,73821,1,0,0:0:0:0:
434,30,73889,6,0,L|418:145,1,100,4|0,1:0|0:0,0:0:0:0:
500,296,74162,1,0,1:0:0:0:
315,282,74299,1,0,0:0:0:0:
306,251,74367,1,0,0:0:0:0:
298,222,74435,1,0,1:0:0:0:
257,84,74571,1,0,1:0:0:0:
58,271,74844,1,0,1:0:0:0:
101,137,74980,6,0,L|169:122,3,66.6666666666667,0|0|0|0,1:0|0:0|0:0|0:0,0:0:0:0:
258,15,75390,1,0,1:0:0:0:
265,37,75458,1,0,0:0:0:0:
272,62,75526,2,0,L|297:161,1,100,0|0,1:0|0:0,0:0:0:0:
316,240,75730,1,0,1:0:0:0:
350,278,75799,1,0,1:0:0:0:
397,294,75867,1,0,1:0:0:0:
445,283,75935,1,0,1:0:0:0:
480,249,76003,1,0,1:0:0:0:
501,201,76071,6,0,L|468:88,1,104.999996795654,4|0,1:0|0:0,0:0:0:0:
324,35,76344,2,0,L|298:151,1,104.999996795654,0|0,1:0|0:0,0:0:0:0:
161,184,76617,1,0,1:0:0:0:
44,92,76753,1,0,0:0:0:0:
148,80,76889,1,0,1:0:0:0:
57,196,77026,1,0,0:0:0:0:
49,321,77162,6,0,L|225:306,1,157.499995193482,0|0,1:0|0:0,0:0:0:0:
281,299,77435,1,0,1:0:0:0:
161,184,77571,2,0,L|337:169,1,157.499995193482,0|0,1:0|0:0,0:0:0:0:
392,164,77844,1,0,1:0:0:0:
433,30,77980,2,0,L|308:41,1,104.999996795654,0|0,1:0|0:0,0:0:0:0:
172,105,78253,6,0,B|161:186|161:186|196:211|181:274,1,157.499995193482,0|0,1:0|0:0,0:0:0:0:
110,240,78526,1,0,1:0:0:0:
289,189,78662,2,0,L|391:164,1,104.999996795654,0|0,1:0|0:0,0:0:0:0:
492,252,78935,1,0,0:0:0:0:
343,293,79071,2,0,L|241:318,1,104.999996795654,0|0,1:0|0:0,0:0:0:0:
110,240,79344,5,4,1:0:0:0:
198,109,79481,1,0,0:0:0:0:
267,250,79617,1,0,0:0:0:0:
102,217,79753,5,0,1:0:0:0:
221,114,79890,1,0,0:0:0:0:
251,268,80026,1,0,0:0:0:0:
101,193,80162,1,0,1:0:0:0:
321,86,80299,1,0,0:0:0:0:
334,79,80367,1,0,0:0:0:0:
347,73,80435,6,0,L|451:62,1,104.999996795654,4|0,1:0|0:0,0:0:0:0:
239,43,80708,2,0,P|230:111|266:158,1,104.999996795654,0|0,1:0|0:0,0:0:0:0:
273,341,80980,2,0,P|282:273|246:226,2,104.999996795654,0|0|0,1:0|1:0|1:0,0:0:0:0:
147,366,81389,1,0,0:0:0:0:
90,253,81526,6,0,P|70:199|131:116,1,157.499995193482,0|0,1:0|0:0,0:0:0:0:
197,95,81799,1,0,1:0:0:0:
365,190,81935,2,0,P|273:238|201:216,1,157.499995193482,0|0,1:0|0:0,0:0:0:0:
154,199,82208,1,0,1:0:0:0:
393,110,82344,2,0,P|442:158|448:194,1,104.999996795654,0|0,1:0|0:0,0:0:0:0:
348,332,82617,6,0,B|195:300|195:300|134:322,1,209.999993591309,4|0,1:0|1:0,0:0:0:0:
54,240,83026,2,0,B|160:200|160:200|192:105,1,209.999993591309,0|0,1:0|0:0,0:0:0:0:
205,64,83367,1,0,0:0:0:0:
205,64,83435,1,0,1:0:0:0:
348,43,83571,1,0,0:0:0:0:
440,155,83707,5,0,1:0:0:0:
440,155,83799,1,0,0:0:0:0:
440,155,83889,2,0,L|429:224,1,69.9999978637696,0|0,0:0|0:0,0:0:0:0:
452,82,84117,2,0,L|416:304,1,209.999993591309,0|0,1:0|0:0,0:0:0:0:
220,352,84526,2,0,P|191:287|214:231,1,104.999996795654,0|0,1:0|0:0,0:0:0:0:
256,38,84799,6,0,P|372:96|248:164,1,325,4|0,1:0|0:0,0:0:0:0:
246,164,85753,1,0,0:0:0:0:
237,159,85821,1,0,0:0:0:0:
227,154,85890,1,4,1:0:0:0:
256,192,85958,12,0,86571,0:0:0:0:
