osu file format v9

[General]
AudioFilename: Kuroko's Basketball ED.mp3
AudioLeadIn: 2000
PreviewTime: 16558
Countdown: 0
SampleSet: Soft
StackLeniency: 0.4
Mode: 0
LetterboxInBreaks: 0

[Editor]
DistanceSpacing: 1
BeatDivisor: 4
GridSize: 4

[Metadata]
Title:Catal Rhythm (TV Size)
Artist:OLDCODEX
Creator:tutuhaha
Version:Normal
Source:Kuroko no Basuke
Tags:The Basketball which Kuroko Plays ending KanaRin

[Difficulty]
HPDrainRate:4
CircleSize:3
OverallDifficulty:4
ApproachRate:5
SliderMultiplier:1.1
SliderTickRate:2

[Events]
//Background and Video events
0,0,"BG2.jpg"
Video,0,"Kuroko's Basketball ED 2.avi"
//Break Periods
//Storyboard Layer 0 (Background)
//Storyboard Layer 1 (Fail)
//Storyboard Layer 2 (Pass)
//Storyboard Layer 3 (Foreground)
//Storyboard Sound Samples
//Background Colour Transformations
3,100,163,162,255

[TimingPoints]
198,340.909090909091,4,2,1,60,1,0
4268,346.820809248555,4,2,1,60,1,0
5649,340.909090909091,4,1,1,70,1,0
16558,-100,4,1,1,60,0,0
38368,-100,4,2,2,90,0,0
38880,-100,4,1,1,60,0,0
39391,-100,4,2,2,90,0,0
39561,-100,4,1,1,60,0,0
39902,-100,4,1,1,60,0,0
40243,-100,4,1,1,70,0,0
41096,-100,4,1,1,80,0,0
41181,-100,4,1,1,70,0,0
42033,-100,4,1,2,70,0,0
42203,-100,4,1,1,70,0,0
43823,-100,4,1,1,90,0,0
43908,-100,4,1,1,80,0,0
44760,-100,4,1,2,80,0,0
44931,-100,4,1,1,80,0,0
46550,-100,4,1,1,90,0,0
46635,-100,4,1,1,80,0,0
49285,-100,4,1,1,90,0,1
49370,-100,4,1,1,80,0,1
50908,-100,4,1,2,80,0,1
51078,-100,4,1,1,80,0,1
53635,-100,4,1,2,80,0,1
53806,-100,4,1,1,80,0,1
56362,-100,4,1,2,80,0,1
56533,-100,4,1,1,80,0,1
59853,-100,4,1,1,80,0,0
60194,-100,4,1,1,90,0,1
60279,-100,4,1,1,80,0,1
61813,-100,4,1,2,80,0,1
61983,-100,4,1,1,80,0,1
64540,-100,4,1,2,80,0,1
64711,-100,4,1,1,80,0,1
73830,-100,4,1,1,90,0,0
73915,-100,4,1,1,70,0,0
74086,-100,4,1,2,70,0,0
74256,-100,4,1,1,70,0,0
76813,-100,4,1,2,70,0,0
76983,-100,4,1,1,70,0,0
79540,-100,4,1,2,70,0,0
79711,-100,4,1,1,70,0,0
84739,-100,4,2,1,90,0,0
84825,-100,4,2,1,10,0,0

[Colours]
Combo1 : 96,191,0
Combo2 : 85,170,255
Combo3 : 221,0,0
Combo4 : 128,0,255

[HitObjects]
256,96,198,2,0,B|384:96,1,110,0|8
408,200,879,2,0,B|280:200,1,110,0|8
256,304,1561,2,0,B|232:332|192:344,1,55
156,344,1902,2,0,B|156:288|104:232,2,110,8|8|8
48,332,2925,5,0
48,332,3266,1,8
20,228,3607,1,8
20,228,3948,1,8
52,124,4268,1,0
136,52,4614,1,0
304,348,5649,6,0,B|304:232,1,110,4|8
364,144,6330,2,0,B|432:132|468:64,2,110,0|8|0
376,252,7353,1,8
328,352,7694,2,0,B|248:352,2,55,0|0|8
272,260,8376,6,0,B|144:260,1,110,0|8
100,168,9058,2,0,B|220:168,1,110,0|8
300,104,9739,2,0,B|372:108|416:52,1,110,0|8
456,84,10251,1,0
496,124,10421,2,0,B|496:236,1,110,0|8
384,236,11103,6,0,B|328:212|264:244,2,110,4|8|0
336,336,12126,1,8
228,324,12467,2,0,B|177:350|121:326,2,110,0|8|0
172,228,13489,2,0,B|152:168,1,55,8|0
140,124,13830,6,0,B|204:112|244:52,1,110,0|8
292,160,14512,2,0,B|328:116|412:104,1,110,0|8
432,76,15023,2,0,B|472:192,1,110
436,224,15535,1,8
352,292,15876,1,0
256,348,16217,1,8
164,284,16558,5,4
164,284,16898,1,0
104,192,17239,1,0
104,192,17580,1,0
148,92,17921,2,0,B|276:92,1,110
272,200,18603,2,0,B|340:180|368:120,1,110
400,100,19114,1,0
452,80,19285,6,0,B|496:124|500:188,1,110
420,256,19967,2,0,B|376:300|372:364,1,110
272,312,20648,2,0,B|144:312,1,110
112,284,21160,1,0
88,232,21330,2,0,B|48:188|56:120,1,110
152,80,22012,6,0,B|252:140|368:76,1,220,4|0
428,168,23035,1,0
336,228,23376,2,0,B|240:292,1,110
184,196,24058,2,0,B|88:260,1,110
44,232,24569,1,0
56,176,24739,6,0,B|76:88|176:60,2,165
164,188,26103,2,0,B|216:152|280:176,1,110
288,224,26614,2,0,B|368:136,1,110
412,120,27126,1,0
504,168,27467,6,0,B|512:260|428:320,2,165,4|0|0
484,60,28830,2,0,B|300:60,2,165
416,148,30194,6,0,B|304:148,1,110
252,164,30705,2,0,B|232:236|172:268,1,110
144,280,31217,1,0
36,276,31558,2,0,B|16:188|72:116,1,165
132,32,32410,2,0,B|148:104,1,55,4|0
252,60,32921,6,0,B|296:228,2,165,4|0|0
364,64,34285,2,0,B|408:232,2,165
472,76,35648,6,0,B|504:192,1,110
448,280,36330,2,0,B|416:328|356:340,1,110
304,348,36842,2,0,B|248:240,1,110,0|4
152,208,37523,2,0,B|112:128|152:36,1,165
256,60,38376,5,4
256,60,38717,1,8
232,168,39058,2,0,B|300:168|340:124,1,110,0|8
384,108,39569,2,0,B|360:240,2,110,0|0|8
460,188,40592,2,0,B|472:124,2,55,0|8|0
456,244,41103,6,0,B|432:300|372:320,1,110,4|8
268,304,41785,2,0,B|96:304,2,165,0|0|8
220,204,43148,2,0,B|156:168|144:100,1,110,0|8
216,36,43830,6,0,B|336:36,1,110,4|8
408,108,44512,2,0,B|480:160|484:264,2,165,0|0|8
348,200,45876,2,0,B|232:200,1,110,0|8
188,220,46387,1,0
136,236,46558,6,0,B|92:276|20:260,1,110,4|8
64,156,47239,2,0,B|60:96|136:52,1,110,0|8
168,84,47751,2,0,B|288:84,1,110
308,132,48262,1,8
364,232,48603,2,0,B|380:288|352:348,1,110,0|8
256,292,49285,5,4
256,292,49626,1,8
156,248,49967,1,0
156,248,50308,1,8
68,184,50648,2,0,B|72:92|176:44,2,165,0|0|8
176,164,52012,6,0,B|304:164,1,110,0|8
392,196,52694,2,0,B|416:176|456:176,2,55,0|0|8
300,260,53376,2,0,B|128:260,2,165,0|0|8
364,352,54739,6,0,B|408:320|420:252,1,110,4|8
396,208,55251,1,0
356,168,55421,2,0,B|300:136|288:56,1,110,0|8
184,56,56103,2,0,B|68:196,2,165,0|0|8
220,160,57467,6,0,B|144:248,1,110,0|8
204,336,58148,2,0,B|280:328|312:264,1,110,0|8
324,236,58660,2,0,B|412:312,1,110
432,200,59342,6,0,B|376:148,1,55,8|0
336,68,59853,2,0,B|260:68,1,55,8|0
228,56,60194,6,0,B|204:116|136:132,1,110,4|8
84,216,60876,1,0
84,216,61217,1,8
120,320,61558,2,0,B|200:296|248:192,2,165,0|0|8
224,360,62921,6,0,B|336:360,1,110,4|8
364,252,63603,2,0,B|480:252,1,110,0|8
488,200,64114,1,0
448,164,64285,2,0,B|424:80|312:60,2,165,0|0|8
336,184,65648,6,0,B|224:184,1,110,4|8
128,136,66330,2,0,B|76:152|44:216,2,110,0|8|0
144,244,67353,2,0,B|144:324,1,55,8|0
248,328,67864,2,0,B|248:252,1,55,0|8
284,232,68205,6,0,B|352:204|372:140,1,110,4|0
360,104,68717,2,0,B|488:104,2,110,8|0|8
260,56,69739,2,0,B|192:36|136:88,1,110,0|8
48,104,70421,2,0,B|104:208,1,110,0|8
128,248,70933,1,0
164,292,71103,6,0,B|224:300|284:240,1,110,4|8
292,148,71785,2,0,B|320:100|384:76,1,110,0|8
416,44,72296,2,0,B|448:168,1,110
364,224,72978,2,0,B|391:330,1,110,8|0
280,332,73660,5,0
228,316,73830,2,0,B|148:288|108:184,2,165,4|0|8
284,220,75194,2,0,B|284:88,1,110,0|8
372,44,75876,1,0
372,44,76217,1,8
388,152,76558,6,0,B|392:240|472:292,2,165,4|0|8
284,192,77921,2,0,B|156:192,1,110,0|8
80,136,78603,1,0
80,136,78944,1,8
68,244,79285,6,0,B|100:328|208:336,2,165,4|0|8
176,220,80649,2,0,B|240:104,1,110,0|8
340,136,81330,2,0,B|356:104|392:92,1,55
424,132,81671,2,0,B|436:200|504:232,1,110,8|4
392,284,82353,5,8
300,344,82694,2,0,B|300:216,1,110,0|8
244,228,83205,2,0,B|192:208|172:124,1,110
184,88,83717,2,0,B|308:88,2,110,8|0|8
84,44,84739,1,4
256,192,84825,12,0,87467
