osu file format v9

[General]
AudioFilename: Kuroko's Basketball ED.mp3
AudioLeadIn: 2000
PreviewTime: 16558
Countdown: 0
SampleSet: Soft
StackLeniency: 0.4
Mode: 0
LetterboxInBreaks: 0

[Editor]
DistanceSpacing: 0.8
BeatDivisor: 4
GridSize: 4

[Metadata]
Title:Catal Rhythm (TV Size)
Artist:OLDCODEX
Creator:tutuhaha
Version:Hard
Source:Kuroko no Basuke
Tags:The Basketball which Kuroko Plays ending KanaRin

[Difficulty]
HPDrainRate:5
CircleSize:3
OverallDifficulty:5
ApproachRate:6
SliderMultiplier:1.4
SliderTickRate:2

[Events]
//Background and Video events
0,0,"BG3.jpg"
Video,0,"Kuroko's Basketball ED 2.avi"
//Break Periods
//Storyboard Layer 0 (Background)
//Storyboard Layer 1 (Fail)
//Storyboard Layer 2 (Pass)
//Storyboard Layer 3 (Foreground)
//Storyboard Sound Samples
//Background Colour Transformations
3,100,163,162,255

[TimingPoints]
198,340.909090909091,4,2,1,60,1,0
4268,346.820809248555,4,2,1,60,1,0
5649,340.909090909091,4,1,1,70,1,0
16558,-100,4,1,1,60,0,0
27460,-100,4,1,1,70,0,0
38376,-100,4,2,1,90,0,0
38717,-100,4,2,2,80,0,0
38887,-100,4,1,1,60,0,0
39228,-100,4,2,2,90,0,0
39910,-100,4,1,1,60,0,0
40251,-100,4,1,2,60,0,0
40762,-100,4,1,1,70,0,0
41103,-100,4,1,1,80,0,0
41188,-100,4,1,1,70,0,0
43830,-100,4,1,1,90,0,0
43916,-100,4,1,1,80,0,0
46558,-100,4,1,1,90,0,0
46643,-100,4,1,1,80,0,0
49285,-100,4,1,1,90,0,1
49370,-100,4,1,1,80,0,1
53640,-100,4,1,2,80,0,1
53811,-100,4,1,1,80,0,1
59853,-100,4,1,1,80,0,0
60194,-100,4,1,1,90,0,1
60279,-100,4,1,1,80,0,1
73830,-100,4,1,1,90,0,0
73916,-100,4,1,1,70,0,0
84739,-100,4,2,1,90,0,0
84825,-100,4,2,1,10,0,0

[Colours]
Combo1 : 96,191,0
Combo2 : 85,170,255
Combo3 : 221,0,0
Combo4 : 128,0,255

[HitObjects]
72,88,198,2,0,B|236:88,1,140,0|8
220,200,879,2,0,B|268:196|300:160,1,70,8|0
328,136,1220,2,0,B|344:96|408:80,1,70,8|0
436,92,1561,2,0,B|436:248,1,140,0|8
356,312,2243,1,8
356,312,2584,1,12
256,260,2925,6,0,B|104:260,1,140,0|8
60,164,3607,2,0,B|64:84|160:48,1,140,8|0
256,64,4268,1,0
256,64,4614,1,8
340,136,4961,2,0,B|340:296,1,140
256,368,5649,6,0,B|252:292|168:248,1,140,4|8
128,264,6160,2,0,B|200:112,1,140
176,84,6671,2,0,B|256:100|332:44,2,140,8|0|8
84,148,7694,1,0
84,148,8035,1,8
168,220,8376,6,0,B|328:220,1,140,0|8
328,272,8887,2,0,B|372:196|456:180,1,140
488,196,9398,2,0,B|432:60,2,140,8|0|8
448,300,10421,1,0
448,300,10762,1,8
336,312,11103,6,0,B|264:288|244:180,1,140,4|8
220,160,11614,2,0,B|116:288,1,140
116,324,12126,2,0,B|92:244|4:220,2,140,8|0|8
228,340,13148,1,0
228,340,13489,1,8
260,232,13830,6,0,B|272:140,1,70
324,144,14171,2,0,B|336:52,1,70,8|0
388,76,14512,2,0,B|456:108|468:188,1,140,0|8
456,240,15023,2,0,B|336:344,1,140,4|0
304,364,15535,2,0,B|288:288|184:252,2,140,8|0|8
192,376,16558,5,4
192,376,16898,1,0
96,316,17239,1,0
96,316,17580,1,0
44,216,17921,2,0,B|36:132,1,70
92,136,18262,2,0,B|172:128|224:40,1,140
276,152,18944,2,0,B|282:221,1,70
328,252,19285,6,0,B|408:268|468:204,1,140
472,160,19796,1,0
420,136,19967,2,0,B|340:128|288:40,1,140
200,104,20648,2,0,B|152:184,1,70
108,156,20989,2,0,B|60:236,1,70
112,256,21330,2,0,B|136:340|228:360,2,140,0|0|4
224,244,22353,6,0,B|304:244,1,70
344,272,22694,2,0,B|420:256|464:172,1,140
428,140,23205,1,0
408,88,23376,2,0,B|256:88,1,140
224,192,24058,2,0,B|76:192,1,140
52,240,24569,1,0
68,296,24739,6,0,B|112:360|208:344,1,140
248,344,25251,2,0,B|336:220,1,140
432,184,25933,1,0
360,104,26273,1,0
288,192,26614,1,0
288,192,26785,2,0,B|136:192,1,140
104,156,27296,1,0
68,116,27467,6,0,B|16:176|24:272,1,140,4|0
24,300,27978,2,0,B|168:268,1,140
212,296,28489,1,0
256,192,28830,2,0,B|336:188|380:116,1,140
352,76,29342,1,0
244,56,29683,1,0
148,112,30023,6,0,B|-8:112,1,140
4,168,30535,1,0
24,220,30705,2,0,B|56:292|160:304,1,140
156,348,31217,2,0,B|256:212,1,140
216,184,31728,2,0,B|296:184|364:120,1,140
388,100,32239,1,0
456,188,32580,1,0
452,300,32921,6,0,B|236:300,2,210,4|0|0
384,212,34285,2,0,B|304:192|272:108,1,140
256,76,34796,2,0,B|148:196,1,140
196,288,35478,2,0,B|144:340|36:336,1,140
52,284,35989,5,0
52,172,36330,1,0
128,88,36671,1,0
128,88,36842,2,0,B|180:148|256:148,1,140,0|4
216,256,37523,2,0,B|376:256,1,140
400,292,38035,2,0,B|464:232,1,70
476,192,38376,6,0,B|460:120|372:88,1,140,4|8
328,100,38887,1,0
272,108,39058,2,0,B|180:108,1,70,0|8
116,180,39569,5,4
112,292,39910,1,0
220,328,40251,2,0,B|232:256|312:216,1,140,4|0
352,192,40762,1,8
400,164,40933,1,0
372,116,41103,6,0,B|336:48|240:40,1,140,4|8
200,140,41785,2,0,B|72:236,1,140,0|8
36,240,42296,2,0,B|40:320|128:368,1,140,0|8
216,332,42978,2,0,B|328:248,1,140,0|0
384,256,43489,2,0,B|404:220|400:184,1,70,8|0
384,136,43830,6,0,B|292:136,1,70,4|0
288,88,44171,2,0,B|208:88,1,70,8|0
184,44,44512,2,0,B|88:44,1,70,0|8
12,140,45023,6,0,B|116:252,1,140,0|8
168,336,45705,2,0,B|244:308|272:220,1,140
284,188,46217,2,0,B|292:148|328:120,1,70,8|0
336,76,46558,6,0,B|252:76,1,70,4|0
216,48,46898,2,0,B|132:48,1,70,8|0
124,100,47239,2,0,B|36:100,1,70,0|8
40,240,47751,6,0,B|120:240|176:168,1,140
200,224,48262,1,8
232,268,48433,1,0
268,312,48603,2,0,B|348:304|392:216,1,140,0|8
460,120,49285,6,0,B|440:40|344:32,2,140,4|8|0
352,144,50308,2,0,B|280:144,1,70,8|0
236,108,50648,2,0,B|196:168|104:184,1,140,0|8
68,160,51160,2,0,B|132:316,1,140
128,344,51671,2,0,B|176:280|268:272,1,140,8|0
336,340,52353,5,8
404,252,52694,2,0,B|452:180,1,70
428,140,53035,2,0,B|440:64,1,70,8|0
384,56,53376,2,0,B|264:44|180:124,2,210,0|0|8
328,152,54739,6,0,B|248:176|228:264,1,140,4|8
192,284,55251,1,0
156,324,55421,2,0,B|16:324,1,140,0|8
52,216,56103,2,0,B|24:144,2,70,0|0|8
108,216,56614,2,0,B|180:172|192:92,1,140,0|8
280,40,57296,6,0,B|428:40,1,140
456,84,57808,1,8
464,140,57978,1,0
448,196,58148,2,0,B|416:264|312:296,1,140,0|8
328,340,58660,2,0,B|164:340,1,140,4|0
132,324,59171,1,8
48,252,59512,1,0
52,140,59853,2,0,B|92:72,1,70,8|0
144,76,60194,6,0,B|220:92|248:180,2,140,4|8|0
128,188,61217,1,8
192,280,61558,2,0,B|276:296|344:236,1,140,0|8
320,196,62069,2,0,B|416:312,1,140
464,312,62580,1,8
468,200,62921,6,0,B|378:92,1,140,4|8
324,76,63433,1,0
272,56,63603,2,0,B|224:116|136:120,1,140,0|8
120,228,64285,1,0
180,324,64626,1,8
180,324,64796,2,0,B|220:248|308:228,1,140
332,264,65308,6,0,B|304:112,2,140,8|4|8
436,228,66330,1,0
436,228,66671,1,8
432,116,67012,2,0,B|408:40|296:32,1,140,0|8
276,56,67523,2,0,B|116:56,1,140,0|8
80,152,68205,6,0,B|240:152,1,140,4|0
272,176,68717,1,8
300,224,68887,1,0
304,280,69058,2,0,B|456:284,1,140,0|8
488,248,69569,2,0,B|432:196|428:96,1,140
464,80,70080,2,0,B|300:80,1,140,8|0
212,64,70762,1,8
116,120,71103,6,0,B|96:184|128:256,1,140,0|8
236,284,71785,2,0,B|292:204,2,70,0|0|8
260,336,72296,2,0,B|352:328|392:248,1,140,0|8
392,160,72978,1,8
320,76,73319,2,0,B|160:76,1,140
176,132,73830,6,0,B|96:164|64:240,1,140,4|8
96,272,74342,2,0,B|248:272,1,140
272,316,74853,2,0,B|352:284|384:208,2,140,8|0|8
284,204,75876,2,0,B|312:164|308:120,1,70
304,84,76217,6,0,B|160:84,2,140,8|0|8
404,132,77239,2,0,B|476:132,2,70,0|0|8
392,244,77921,2,0,B|352:316|248:316,1,140,0|8
224,292,78433,1,0
176,264,78603,2,0,B|180:192|120:136,2,140,0|8|4
64,240,79626,5,8
32,132,79967,2,0,B|16:60,1,70
72,48,80308,2,0,B|152:32|216:76,1,140,8|0
256,172,80989,1,8
300,276,81330,2,0,B|336:264|364:228,1,70
412,228,81671,2,0,B|436:196|484:184,1,70,8|0
472,132,82012,6,0,B|344:52,1,140,0|8
244,40,82694,2,0,B|164:168,1,140,0|8
116,168,83205,2,0,B|188:204|200:280,1,140,4|0
240,316,83717,2,0,B|392:320,1,140,8|0
388,208,84399,2,0,B|316:208,2,70,8|0|4
256,192,84825,12,0,87467
