osu file format v9

[General]
AudioFilename: Kuroko's Basketball ED.mp3
AudioLeadIn: 2000
PreviewTime: 16558
Countdown: 0
SampleSet: Soft
StackLeniency: 0.4
Mode: 0
LetterboxInBreaks: 0

[Editor]
DistanceSpacing: 1
BeatDivisor: 4
GridSize: 4

[Metadata]
Title:Catal Rhythm (TV Size)
Artist:OLDCODEX
Creator:tutuhaha
Version:Easy
Source:Kuroko no Basuke
Tags:The Basketball which Kuroko Plays ending KanaRin

[Difficulty]
HPDrainRate:3
CircleSize:3
OverallDifficulty:3
ApproachRate:3
SliderMultiplier:0.8
SliderTickRate:1

[Events]
//Background and Video events
0,0,"BG1.jpg"
Video,0,"Kuroko's Basketball ED 2.avi"
//Break Periods
//Storyboard Layer 0 (Background)
//Storyboard Layer 1 (Fail)
//Storyboard Layer 2 (Pass)
//Storyboard Layer 3 (Foreground)
//Storyboard Sound Samples
//Background Colour Transformations
3,100,163,162,255

[TimingPoints]
198,340.909090909091,4,2,1,60,1,0
459,-100,4,2,2,60,0,0
629,-100,4,2,1,60,0,0
1141,-100,4,2,2,60,0,0
1311,-100,4,2,1,60,0,0
2504,-100,4,2,2,60,0,0
2669,-100,4,2,1,60,0,0
4268,346.820809248555,4,2,1,60,1,0
5649,340.909090909091,4,1,1,70,1,0
5913,-100,4,1,2,70,0,0
6084,-100,4,1,1,70,0,0
7959,-100,4,1,2,70,0,0
8129,-100,4,1,1,70,0,0
8641,-100,4,1,2,70,0,0
8811,-100,4,1,1,70,0,0
10686,-100,4,1,2,70,0,0
10857,-100,4,1,1,70,0,0
12050,-100,4,1,2,70,0,0
12220,-100,4,1,1,70,0,0
13413,-100,4,1,2,70,0,0
13584,-100,4,1,1,70,0,0
14095,-100,4,1,2,70,0,0
14266,-100,4,1,1,70,0,0
16141,-100,4,1,2,70,0,0
16311,-100,4,1,1,70,0,0
16558,-100,4,1,1,60,0,0
38359,-100,4,2,1,90,0,0
38700,-100,4,2,2,80,0,0
39040,-100,4,1,1,60,0,0
39552,-100,4,2,2,80,0,0
39637,-100,4,1,1,60,0,0
40660,-100,4,1,2,70,0,0
40830,-100,4,1,1,80,0,0
41171,-100,4,1,1,70,0,0
42023,-100,4,1,2,70,0,0
42194,-100,4,1,1,70,0,0
43813,-100,4,1,1,90,0,0
43898,-100,4,1,1,80,0,0
44751,-100,4,1,2,80,0,0
44921,-100,4,1,1,80,0,0
46540,-100,4,1,1,90,0,0
46626,-100,4,1,1,80,0,0
46796,-100,4,1,2,80,0,0
46967,-100,4,1,1,80,0,0
47478,-100,4,1,2,80,0,0
47648,-100,4,1,1,80,0,0
49285,-100,4,1,1,90,0,1
49370,-100,4,1,1,80,0,1
50907,-100,4,1,2,80,0,1
51077,-100,4,1,1,80,0,1
52270,-100,4,1,2,80,0,1
52441,-100,4,1,1,80,0,1
53634,-100,4,1,2,80,0,1
53805,-100,4,1,1,80,0,1
54998,-100,4,1,2,80,0,1
55168,-100,4,1,1,80,0,1
56361,-100,4,1,2,80,0,1
56532,-100,4,1,1,80,0,1
58407,-100,4,1,2,80,0,1
58577,-100,4,1,1,80,0,1
59853,-100,4,1,1,80,0,0
60194,-100,4,1,1,90,0,1
60279,-100,4,1,1,80,0,1
61812,-100,4,1,2,80,0,1
61982,-100,4,1,1,80,0,1
63175,-100,4,1,2,80,0,1
63346,-100,4,1,1,80,0,1
64539,-100,4,1,2,80,0,1
64710,-100,4,1,1,80,0,1
65903,-100,4,1,2,80,0,1
66073,-100,4,1,1,80,0,1
67266,-100,4,1,2,80,0,1
67437,-100,4,1,1,80,0,1
69312,-100,4,1,2,80,0,1
69482,-100,4,1,1,80,0,1
70675,-100,4,1,2,80,0,1
70846,-100,4,1,1,80,0,1
72039,-100,4,1,2,80,0,1
72210,-100,4,1,1,80,0,1
73403,-100,4,1,2,80,0,1
73573,-100,4,1,1,80,0,1
73830,-100,4,1,1,90,0,0
73914,-100,4,1,1,70,0,0
75448,-100,4,1,2,70,0,0
75619,-100,4,1,1,70,0,0
78175,-100,4,1,2,70,0,0
78346,-100,4,1,1,70,0,0
79539,-100,4,1,2,70,0,0
79710,-100,4,1,1,70,0,0
82266,-100,4,1,2,70,0,0
82437,-100,4,1,1,70,0,0
82948,-100,4,1,2,70,0,0
83119,-100,4,1,1,70,0,0
84739,-100,4,2,1,90,0,0
84825,-100,4,2,1,10,0,0

[Colours]
Combo1 : 96,191,0
Combo2 : 85,170,255
Combo3 : 221,0,0
Combo4 : 128,0,255

[HitObjects]
108,152,198,2,0,B|200:148|256:72,2,160,0|8|0
84,228,1902,1,8
64,304,2243,2,0,B|224:304,1,160,0|4
256,232,3266,1,8
300,164,3607,2,0,B|312:116|356:96,1,80,0|8
416,144,4268,2,0,B|504:144,1,80
212,164,5649,6,0,B|184:80|88:64,1,160,4|0
40,124,6671,1,8
28,204,7012,2,0,B|68:284,1,80,0|8
136,312,7694,2,0,B|224:316|280:228,2,160,0|0|0
132,232,9398,5,8
120,152,9739,2,0,B|160:120|176:76,1,80,0|8
236,48,10421,2,0,B|332:184,1,160,0|4
388,232,11444,5,8
376,312,11785,2,0,B|284:324|228:264,1,160
152,252,12808,1,8
160,172,13148,2,0,B|128:96|24:80,2,160
240,160,14853,6,0,B|280:148|308:100,2,80,8|0|8
248,240,15876,2,0,B|372:360,1,160,0|4
480,240,17239,5,0
428,88,17921,2,0,B|412:44|368:28,2,80
272,128,19285,2,0,B|104:128,1,160,4|0
64,192,20308,1,0
108,256,20648,6,0,B|172:308|264:296,2,160,0|0|4
256,192,22694,1,0
396,112,23376,2,0,B|404:72|384:36,2,80
344,172,24398,1,0
352,252,24739,6,0,B|328:312|256:340,2,120,4|0|0
280,220,26103,2,0,B|192:220,1,80
124,248,26785,2,0,B|76:232|64:184,1,80
84,116,27467,6,0,B|152:108|184:48,1,120,4|0
256,148,28489,1,0
336,136,28830,2,0,B|400:152|424:216,2,120
304,208,30194,6,0,B|208:292,2,120
256,144,31558,2,0,B|220:84|144:80,2,120
320,96,32921,6,0,B|448:96,1,120,4|0
472,212,33944,1,0
404,252,34285,2,0,B|344:248|292:188,2,120
412,332,35648,6,0,B|328:332,1,80
260,292,36330,2,0,B|176:292,1,80
152,216,37012,2,0,B|156:144|104:92,2,120,4|0|0
232,200,38376,6,0,B|320:200,1,80,4|8
376,152,39058,2,0,B|432:128|464:60,2,120,0|8|0
420,220,40421,2,0,B|396:308|312:332,1,160,8|4
240,304,41444,5,8
172,264,41785,2,0,B|152:200|80:176,1,120
56,108,42637,1,0
124,64,42978,2,0,B|248:32,1,120,0|8
288,100,43830,6,0,B|372:72,1,80,4|8
396,148,44512,2,0,B|272:188,1,120
228,244,45364,1,0
168,296,45705,2,0,B|100:284|60:228,1,120,0|8
80,160,46558,6,0,B|112:80|208:56,2,160,4|0|0
156,188,48262,2,0,B|248:188,1,80,8|0
272,260,48944,2,0,B|364:260,1,80,8|4
420,116,49967,5,0
264,148,50648,2,0,B|196:148|152:88,2,120,0|0|8
256,228,52012,6,0,B|152:368,1,160,0|0
96,308,53035,1,8
52,244,53376,2,0,B|32:188|64:112,2,120,0|0|8
124,208,54739,6,0,B|219:79,1,160,4|0
296,52,55762,1,8
340,120,56103,2,0,B|384:88|452:84,2,120,0|0|8
320,196,57467,6,0,B|320:288,1,80,0|8
248,312,58148,2,0,B|184:316|136:360,2,120,0|4|8
220,236,59512,2,0,B|152:176,1,80,0|8
148,104,60194,6,0,B|240:104,1,80,4|0
236,24,60876,2,0,B|320:24,1,80,0|8
336,100,61558,2,0,B|404:104|448:56,2,120,0|0|8
304,172,62921,6,0,B|216:320,1,160,4|0
152,348,63944,1,8
76,324,64285,2,0,B|20:284|24:212,2,120,0|0|8
132,268,65648,6,0,B|132:100,1,160,4|0
192,56,66671,1,8
216,132,67012,2,0,B|216:260,2,120,0|0|8
296,128,68376,6,0,B|328:96|340:56,1,80,4|8
416,84,69058,2,0,B|496:180,2,120,0|0|8
372,152,70421,2,0,B|344:240|264:268,1,160,0|4
208,320,71444,5,8
128,312,71785,2,0,B|52:204|48:204,2,120,0|0|8
188,260,73149,2,0,B|164:176|220:96,1,160,0|4
276,56,74171,5,8
352,84,74512,2,0,B|440:84,1,80,0|8
448,164,75194,2,0,B|408:248|312:260,1,160
256,216,76217,1,8
188,260,76558,6,0,B|92:260,1,80,0|8
112,180,77239,2,0,B|32:180,1,80,0|8
40,100,77921,2,0,B|100:44|200:44,1,160
236,108,78944,1,8
284,172,79285,6,0,B|368:180|432:120,1,160,4|0
480,184,80308,1,8
412,228,80649,2,0,B|360:300,1,80,0|8
284,284,81330,2,0,B|232:356,1,80,0|8
168,304,82012,6,0,B|80:276|48:184,2,160,0|0|4
176,224,83717,1,8
180,144,84058,2,0,B|180:52,2,80,0|8|4
256,192,84825,12,0,87467
