osu file format v9

[General]
AudioFilename: Kuroko's Basketball ED.mp3
AudioLeadIn: 2000
PreviewTime: 16558
Countdown: 0
SampleSet: Normal
StackLeniency: 0.4
Mode: 0
LetterboxInBreaks: 0

[Editor]
DistanceSpacing: 1
BeatDivisor: 4
GridSize: 4

[Metadata]
Title:Catal Rhythm (TV Size)
Artist:OLDCODEX
Creator:tutuhaha
Version:Catal
Source:Kuroko no Basuke
Tags:The Basketball which Kuroko Plays ending KanaRin

[Difficulty]
HPDrainRate:6
CircleSize:4
OverallDifficulty:6
ApproachRate:7
SliderMultiplier:1.5
SliderTickRate:2

[Events]
//Background and Video events
0,0,"BG4.jpg"
Video,0,"Kuroko's Basketball ED 2.avi"
//Break Periods
//Storyboard Layer 0 (Background)
//Storyboard Layer 1 (Fail)
//Storyboard Layer 2 (Pass)
//Storyboard Layer 3 (Foreground)
//Storyboard Sound Samples
//Background Colour Transformations
3,100,163,162,255

[TimingPoints]
198,340.909090909091,4,1,1,100,1,0
198,-133.333333333333,4,2,1,60,0,0
1561,-133.333333333333,4,2,1,50,0,0
2925,-133.333333333333,4,2,1,60,0,0
4268,346.820809248555,4,2,1,50,1,0
4268,-133.333333333333,4,2,1,50,0,0
5649,340.909090909091,4,1,1,70,1,0
15194,-100,4,1,1,50,0,0
15364,-100,4,1,1,70,0,0
16558,-100,4,1,1,60,0,0
38373,-100,4,2,2,90,0,0
38458,-100,4,2,2,80,0,0
38885,-100,4,1,1,60,0,0
39226,-100,4,2,2,80,0,0
39566,-100,4,2,1,90,0,0
39907,-100,4,1,1,60,0,0
40248,-100,4,1,2,60,0,0
40760,-100,4,1,1,70,0,0
41101,-100,4,1,1,80,0,0
41186,-100,4,1,1,70,0,0
42720,-100,4,1,2,70,0,0
42890,-100,4,1,1,70,0,0
43828,-100,4,1,1,90,0,0
43913,-100,4,1,1,80,0,0
46555,-100,4,1,1,90,0,0
46640,-100,4,1,1,80,0,0
49285,-100,4,1,1,90,0,1
49370,-100,4,1,1,80,0,1
59853,-100,4,1,1,80,0,0
60194,-100,4,1,1,90,0,1
60279,-100,4,1,1,80,0,1
73830,-100,4,1,1,90,0,0
73916,-100,4,1,1,70,0,0
84739,-100,4,2,1,90,0,0
84825,-100,4,2,1,10,0,0

[Colours]
Combo1 : 96,191,0
Combo2 : 85,170,255
Combo3 : 221,0,0
Combo4 : 128,0,255

[HitObjects]
72,76,198,2,0,B|128:76,1,56.2500021457673
148,124,538,2,0,B|212:124,1,56.2500021457673,8|0
224,196,879,2,0,B|224:256,1,56.2500021457673,8|0
268,272,1220,2,0,B|268:336,1,56.2500021457673,8|0
356,276,1561,6,0,B|384:224|456:204,2,112.500004291535,0|8|8
328,232,2413,1,0
300,188,2584,1,8
216,60,2925,6,0,B|152:60,1,56.2500021457673
148,108,3266,2,0,B|84:108,1,56.2500021457673,8|0
92,184,3607,2,0,B|92:260,1,56.2500021457673,8|0
140,256,3948,2,0,B|140:320,1,56.2500021457673,8|0
220,252,4268,6,0,B|232:228,15,28.1250010728836
256,192,5649,6,0,B|352:192,1,75,4|0
396,228,5989,1,8
356,292,6160,2,0,B|288:332|200:284,1,150
140,272,6671,1,8
188,216,6842,6,0,B|236:280|196:368,1,150
124,356,7353,1,8
64,312,7524,1,0
52,240,7694,1,0
52,240,8035,2,0,B|40:144,1,75,8|0
128,92,8376,6,0,B|160:72|180:28,1,75
248,52,8717,1,8
304,104,8887,2,0,B|351:174|445:169,1,150
428,92,9398,1,8
368,48,9569,6,0,B|294:84|273:172,1,150
200,160,10080,2,0,B|197:122|149:84,1,75,8|0
124,160,10421,2,0,B|132:220|189:256,1,112.5
192,288,10762,2,0,B|260:328,1,75,8|0
344,256,11103,5,4
404,212,11273,1,0
424,140,11444,1,8
408,68,11614,2,0,B|336:24|252:64,1,150
248,132,12126,1,8
200,188,12296,6,0,B|116:184|68:112,1,150
24,176,12808,2,0,B|32:216|68:240,1,75,8|0
52,312,13148,2,0,B|104:312|136:264|136:264|168:284|200:276,1,150,0|8
256,96,13830,6,0,B|264:140|312:160,2,75,0|0|8
332,84,14342,2,0,B|408:112|424:208,1,150
352,224,14853,2,0,B|308:292,1,75,8|4
256,176,15194,6,0,B|304:160,2,37.5
184,160,15535,2,0,B|184:208|216:240,1,75
116,204,15876,2,0,B|40:180|28:76,1,150,0|8
216,96,16558,6,0,B|276:152|256:256,1,150,4|0
296,300,17069,1,0
368,320,17239,2,0,B|400:248,1,75
348,196,17580,2,0,B|320:104,1,75
296,56,17921,5,0
224,36,18092,1,0
152,56,18262,2,0,B|120:136|28:160,1,150
60,304,18944,2,0,B|92:224,1,75
144,332,19285,6,0,B|172:252|172:252|208:252|232:212,1,150
168,172,19796,1,0
192,100,19967,2,0,B|204:56|248:28,1,75
308,52,20308,2,0,B|300:92|256:120,1,75
292,184,20648,6,0,B|448:184,1,150
448,260,21160,1,0
372,272,21330,2,0,B|328:348|224:348,1,150
216,240,21842,1,0
184,308,22012,6,0,B|108:284|80:172,1,150,4|0
76,124,22523,1,0
152,116,22694,2,0,B|200:104|228:60,1,75
288,56,23035,2,0,B|336:64|368:112,1,75
392,156,23376,5,0
412,228,23546,1,0
384,300,23717,1,0
324,344,23887,1,0
248,340,24058,2,0,B|224:264|116:252,1,150
68,220,24569,1,0
68,296,24739,6,0,B|144:280|172:172,1,150
112,140,25251,2,0,B|164:220|268:200,1,150
304,164,25762,1,0
340,100,25933,1,0
364,208,26103,6,0,B|356:252|320:280,2,75
436,228,26614,2,0,B|444:324|364:384,1,150
280,328,27126,2,0,B|300:368,2,37.5
208,252,27467,6,0,B|184:176|88:140,1,150,4|0
60,204,27978,2,0,B|164:76,1,150
220,52,28489,1,0
296,52,28660,1,0
304,128,28830,6,0,B|328:212|420:224,1,150
440,152,29342,2,0,B|380:308,1,150
240,316,30023,2,0,B|212:240|112:220,1,150
68,184,30535,5,0
44,112,30705,1,0
192,140,31046,1,0
188,64,31217,1,0
320,132,31558,1,0
336,60,31728,1,0
452,156,32069,6,0,B|412:240|412:240|384:228|336:236,1,150,0|4
372,308,32580,2,0,B|348:388,1,75
284,348,32921,6,0,B|268:264|148:244,1,150,4|0
148,320,33433,2,0,B|216:164,1,150
232,112,33944,1,0
296,72,34114,1,0
344,128,34285,6,0,B|360:200|464:232,1,150
496,168,34796,2,0,B|384:308,1,150
256,312,35478,2,0,B|240:232|152:208,1,150
96,164,35989,6,0,B|104:128|144:100,1,75
212,104,36330,2,0,B|288:104|364:16,1,150
412,72,36842,1,0
452,216,37183,1,4
364,336,37523,6,0,B|340:288,5,37.5
312,288,38035,2,0,B|212:288,1,75
188,232,38376,5,4
188,232,38717,1,8
92,116,39058,1,0
92,116,39228,1,8
240,96,39569,2,0,B|316:100|384:28,1,150,4|0
416,184,40251,2,0,B|252:184,1,150
172,256,40762,2,0,B|248:256,1,75,8|0
168,336,41103,6,0,B|84:316|52:212,1,150,4|8
80,164,41614,1,0
128,108,41785,1,0
200,84,41955,1,0
276,96,42126,1,8
324,152,42296,6,0,B|416:152|480:68,2,150,0|0|0
248,280,43319,2,0,B|152:280,2,75,0|8|0
256,204,43830,6,0,B|216:184|196:140,1,75,4|0
260,104,44171,2,0,B|296:88|320:40,1,75,8|0
388,72,44512,1,0
436,128,44683,1,0
436,204,44853,1,8
368,236,45023,6,0,B|340:264|340:312,1,75
264,292,45364,2,0,B|216:296|188:336,1,75,0|8
128,300,45705,2,0,B|72:232,2,75
176,240,46217,1,8
220,180,46387,1,0
268,120,46558,6,0,B|308:100|328:56,1,75,4|0
292,192,46898,2,0,B|334:206|379:189,1,75,8|0
252,252,47239,2,0,B|272:292|316:312,2,75,0|0|8
176,240,47751,6,0,B|164:168|60:128,1,150,4|0
100,64,48262,1,8
208,32,48433,2,0,B|168:64,2,37.5
304,32,48773,2,0,B|344:64,2,37.5,0|0|8
256,141,49114,5,0
256,141,49200,1,0
256,141,49285,2,0,B|268:224,1,75,4|0
272,288,49626,2,0,B|236:276|176:284,1,75,8|0
136,320,49967,2,0,B|56:292|36:192,1,150,0|8
52,136,50478,1,0
112,92,50648,6,0,B|152:84|184:48,2,75,0|0|8
124,168,51160,2,0,B|288:168,1,150
360,240,51671,2,0,B|272:240,1,75,8|0
200,312,52012,6,0,B|284:312,2,75,0|0|8
128,292,52523,1,0
72,244,52694,2,0,B|48:196|56:148,1,75
116,132,53035,2,0,B|144:104|144:56,1,75,8|0
188,168,53376,6,0,B|212:244|328:260,1,150,0|8
364,164,53887,2,0,B|336:84|224:72,1,150
188,168,54398,1,8
144,228,54569,1,0
152,304,54739,6,0,B|208:360|312:348,1,150,4|8
340,292,55251,1,0
320,220,55421,2,0,B|328:180|368:156,1,75
436,168,55762,2,0,B|428:208|388:232,1,75,8|0
284,208,56103,6,0,B|288:128|392:96,1,150,0|8
272,52,56614,2,0,B|364:36|420:112,1,150
436,168,57126,1,8
392,228,57296,6,0,B|336:304,1,75
236,304,57637,2,0,B|280:243,1,75,0|8
264,132,57978,2,0,B|208:208,1,75
108,208,58319,2,0,B|152:147,1,75,0|8
264,132,58660,6,0,B|296:56|392:40,1,150,4|0
372,156,59171,2,0,B|348:200|292:216,1,75,8|0
238,280,59512,2,0,B|256:248,2,37.5
124,288,59853,2,0,B|88:324,2,37.5,8|0|0
72,188,60194,5,4
100,120,60364,1,0
156,72,60535,1,8
228,60,60705,1,0
260,128,60876,2,0,B|188:180,1,75
188,284,61217,2,0,B|248:240,1,75,8|0
236,352,61558,6,0,B|304:300|304:300|340:308|376:288,1,150,0|8
328,228,62069,2,0,B|328:132,1,75
256,68,62410,2,0,B|256:160,1,75,0|8
184,228,62751,2,0,B|184:132,1,75,0|4
104,232,63092,5,0
128,304,63262,1,8
196,340,63433,1,0
244,284,63603,2,0,B|260:248|312:220,1,75
364,256,63944,2,0,B|348:292|296:320,1,75,8|0
208,268,64285,6,0,B|232:192|332:172,1,150,0|8
320,100,64796,2,0,B|248:56,1,75
144,84,65137,2,0,B|207:123,1,75,0|8
236,232,65478,6,0,B|164:188,1,75,0|4
60,216,65819,2,0,B|123:255,2,75,0|8|0
72,328,66330,2,0,B|152:352|220:300,1,150,0|8
236,232,66842,1,0
216,160,67012,6,0,B|284:88,1,75
380,104,67353,2,0,B|328:158,1,75,8|0
336,272,67694,2,0,B|404:200,2,75,0|0|8
236,232,68205,6,0,B|152:240|88:160,1,150,4|0
56,104,68717,2,0,B|143:104,1,75,8|0
232,156,69058,2,0,B|252:236|208:316,1,150,0|8
324,268,69569,6,0,B|400:200,1,75
328,120,69910,2,0,B|404:52,1,75,0|8
272,56,70251,2,0,B|216:106,1,75
272,204,70592,2,0,B|232:240,2,37.5,0|0|8
324,268,70933,1,0
216,308,71103,6,0,B|140:280|132:172,1,150,4|8
152,120,71614,1,0
204,64,71785,2,0,B|296:64,2,75,0|0|8
288,140,72296,6,0,B|324:132|352:96|352:96|424:152,1,150
404,216,72808,1,8
360,280,72978,2,0,B|300:268|276:232,1,75
220,224,73319,2,0,B|48:224,1,150
136,136,73830,5,4
184,76,74001,1,0
256,60,74171,1,8
316,108,74342,2,0,B|288:140|244:136|244:136|244:224,1,150
212,276,74853,1,8
320,244,75024,2,0,B|320:328|320:328|360:332|376:372,1,150
436,252,75535,6,0,B|436:327,2,75,8|0|0
380,200,76046,1,0
312,168,76217,2,0,B|220:156|184:60,1,150,8|0
168,192,76728,6,0,B|192:232|236:244,1,75,0|8
180,304,77069,2,0,B|144:288|120:252|120:252|32:252,1,150
56,176,77580,1,8
168,192,77751,6,0,B|168:112|168:112|204:100|216:60,1,150
284,163,78262,2,0,B|284:88,1,75,8|0
364,168,78603,2,0,B|364:256,1,75
284,323,78944,2,0,B|284:248,1,75,8|0
204,168,79285,6,0,B|204:264,2,75,4|0|8
128,252,79796,2,0,B|128:168|128:168|96:152|88:108,1,150
196,40,80308,2,0,B|196:75|160:103,1,75,8|0
204,168,80649,5,0
260,220,80819,1,0
332,244,80989,1,8
408,240,81160,1,0
332,156,81330,2,0,B|332:316,1,150,0|8
272,352,81842,1,0
260,220,82012,6,0,B|260:136,1,75
212,88,82353,1,8
184,196,82524,2,0,B|184:272|184:272|144:276|120:312,1,150
100,196,83035,2,0,B|100:112,1,75,8|0
212,88,83376,5,4
316,128,83546,2,0,B|344:80,2,37.5,0|0|8
356,232,83887,2,0,B|404:232,2,37.5
332,344,84228,2,0,B|360:384,2,37.5,0|0|8
256,244,84569,2,0,B|256:184,2,37.5,0|0|4
256,192,84825,12,0,87467
