osu file format v14

[General]
AudioFilename: TREASURE BOX.mp3
AudioLeadIn: 0
PreviewTime: 52363
Countdown: 0
SampleSet: Normal
StackLeniency: 0.7
Mode: 1
LetterboxInBreaks: 0
WidescreenStoryboard: 0

[Editor]
DistanceSpacing: 0.5
BeatDivisor: 4
GridSize: 32
TimelineZoom: 1

[Metadata]
Title:TREASURE BOX
TitleUnicode:宝箱-TREASURE BOX-
Artist:OKUI MASAMI
ArtistUnicode:奥井雅美
Creator:Nardoxyribonucleic
Version:Oni
Source:SHIROBAKO
Tags:Taiko White Box Opening TV Size Takarabako IamKwaN qoot8123 Charlotte カヨコ 千葉"naotyu-"直樹
BeatmapID:820301
BeatmapSetID:374463

[Difficulty]
HPDrainRate:6
CircleSize:5
OverallDifficulty:6
ApproachRate:7
SliderMultiplier:1.4
SliderTickRate:1

[Events]
//Background and Video events
0,0,"BG.jpg",0,90
//Break Periods
//Storyboard Layer 0 (Background)
//Storyboard Layer 1 (Fail)
//Storyboard Layer 2 (Pass)
//Storyboard Layer 3 (Foreground)
//Storyboard Sound Samples

[TimingPoints]
512,370.37037037037,4,1,0,50,1,0
3289,-100,4,1,0,80,0,0
15326,-100,4,1,0,70,0,0
40511,-100,4,1,0,80,0,0
52363,-100,4,1,0,90,0,1
78845,-100,4,1,0,80,0,0

[HitObjects]
256,192,512,5,0,0:0:0:0:
256,192,882,1,0,0:0:0:0:
256,192,1067,1,8,0:0:0:0:
256,192,1437,1,8,0:0:0:0:
256,192,1808,1,0,0:0:0:0:
256,192,2178,1,0,0:0:0:0:
256,192,2363,1,8,0:0:0:0:
256,192,2549,1,0,0:0:0:0:
256,192,2734,1,0,0:0:0:0:
256,192,2826,1,0,0:0:0:0:
256,192,2919,1,8,0:0:0:0:
256,192,3011,1,8,0:0:0:0:
256,192,3104,1,0,0:0:0:0:
256,192,3289,1,4,0:0:0:0:
256,192,3660,1,0,0:0:0:0:
256,192,3845,1,8,0:0:0:0:
256,192,4215,1,8,0:0:0:0:
256,192,4400,1,0,0:0:0:0:
256,192,4586,1,8,0:0:0:0:
256,192,4771,1,8,0:0:0:0:
256,192,4863,1,8,0:0:0:0:
256,192,4956,1,0,0:0:0:0:
256,192,5141,1,0,0:0:0:0:
256,192,5326,1,8,0:0:0:0:
256,192,5511,1,0,0:0:0:0:
256,192,5604,1,0,0:0:0:0:
256,192,5697,1,8,0:0:0:0:
256,192,5882,1,0,0:0:0:0:
256,192,6067,1,8,0:0:0:0:
256,192,6252,1,8,0:0:0:0:
256,192,6437,1,0,0:0:0:0:
256,192,6808,1,8,0:0:0:0:
256,192,7178,1,0,0:0:0:0:
256,192,7363,1,0,0:0:0:0:
256,192,7549,1,8,0:0:0:0:
256,192,7734,1,8,0:0:0:0:
256,192,7826,1,8,0:0:0:0:
256,192,7919,1,8,0:0:0:0:
256,192,8104,1,0,0:0:0:0:
256,192,8289,1,8,0:0:0:0:
256,192,8474,1,0,0:0:0:0:
256,192,8567,1,0,0:0:0:0:
256,192,8660,1,0,0:0:0:0:
256,192,8845,1,0,0:0:0:0:
256,192,9030,1,8,0:0:0:0:
256,192,9215,1,8,0:0:0:0:
256,192,9400,1,4,0:0:0:0:
256,192,9771,1,8,0:0:0:0:
256,192,10141,1,8,0:0:0:0:
256,192,10326,1,0,0:0:0:0:
256,192,10511,1,8,0:0:0:0:
256,192,10697,1,8,0:0:0:0:
256,192,10789,1,8,0:0:0:0:
256,192,10882,1,0,0:0:0:0:
256,192,11067,1,0,0:0:0:0:
256,192,11252,1,8,0:0:0:0:
256,192,11437,1,8,0:0:0:0:
256,192,11623,1,0,0:0:0:0:
256,192,11808,1,0,0:0:0:0:
256,192,11900,1,0,0:0:0:0:
256,192,11993,1,8,0:0:0:0:
256,192,12178,1,0,0:0:0:0:
256,192,12363,1,4,0:0:0:0:
256,192,12549,1,8,0:0:0:0:
256,192,12641,1,0,0:0:0:0:
256,192,12734,1,8,0:0:0:0:
256,192,12826,1,8,0:0:0:0:
256,192,12919,1,0,0:0:0:0:
256,192,13104,1,8,0:0:0:0:
256,192,13289,1,0,0:0:0:0:
256,192,13382,1,8,0:0:0:0:
256,192,13474,1,0,0:0:0:0:
256,192,13660,1,12,0:0:0:0:
256,192,14030,1,0,0:0:0:0:
256,192,14215,1,8,0:0:0:0:
256,192,14400,1,0,0:0:0:0:
256,192,14493,1,0,0:0:0:0:
256,192,14586,1,0,0:0:0:0:
256,192,14771,1,8,0:0:0:0:
256,192,14863,1,8,0:0:0:0:
256,192,14956,1,8,0:0:0:0:
256,192,15141,1,8,0:0:0:0:
256,192,15326,1,4,0:0:0:0:
256,192,15511,1,8,0:0:0:0:
256,192,15604,1,8,0:0:0:0:
256,192,15697,1,0,0:0:0:0:
256,192,15882,1,8,0:0:0:0:
256,192,16252,1,8,0:0:0:0:
256,192,16437,1,0,0:0:0:0:
256,192,16623,1,8,0:0:0:0:
256,192,16993,1,0,0:0:0:0:
256,192,17178,1,0,0:0:0:0:
256,192,17363,1,8,0:0:0:0:
256,192,17734,1,0,0:0:0:0:
256,192,17919,1,8,0:0:0:0:
256,192,18104,1,0,0:0:0:0:
256,192,18197,1,0,0:0:0:0:
256,192,18289,1,8,0:0:0:0:
256,192,18474,1,8,0:0:0:0:
256,192,18660,1,0,0:0:0:0:
256,192,18845,1,8,0:0:0:0:
256,192,19215,1,8,0:0:0:0:
256,192,19400,1,0,0:0:0:0:
256,192,19586,1,8,0:0:0:0:
256,192,19956,1,0,0:0:0:0:
256,192,20141,1,8,0:0:0:0:
256,192,20326,1,0,0:0:0:0:
256,192,20697,1,8,0:0:0:0:
256,192,20882,1,8,0:0:0:0:
256,192,21067,1,0,0:0:0:0:
256,192,21160,1,0,0:0:0:0:
256,192,21252,1,0,0:0:0:0:
256,192,21437,1,0,0:0:0:0:
256,192,21623,1,8,0:0:0:0:
256,192,21993,1,8,0:0:0:0:
256,192,22178,1,8,0:0:0:0:
256,192,22363,1,0,0:0:0:0:
256,192,22734,1,8,0:0:0:0:
256,192,22919,1,0,0:0:0:0:
256,192,23104,1,8,0:0:0:0:
256,192,23289,1,0,0:0:0:0:
256,192,23660,1,0,0:0:0:0:
256,192,23845,1,8,0:0:0:0:
256,192,24030,1,8,0:0:0:0:
256,192,24123,1,0,0:0:0:0:
256,192,24215,1,0,0:0:0:0:
256,192,24400,1,0,0:0:0:0:
256,192,24586,1,8,0:0:0:0:
256,192,24771,1,8,0:0:0:0:
256,192,25141,1,0,0:0:0:0:
256,192,25326,1,8,0:0:0:0:
256,192,25511,1,12,0:0:0:0:
256,192,25882,1,8,0:0:0:0:
256,192,26067,1,0,0:0:0:0:
256,192,26252,1,8,0:0:0:0:
256,192,26345,1,8,0:0:0:0:
256,192,26437,1,0,0:0:0:0:
256,192,26623,1,8,0:0:0:0:
256,192,26715,1,8,0:0:0:0:
256,192,26808,1,8,0:0:0:0:
256,192,26993,1,8,0:0:0:0:
256,192,27178,1,4,0:0:0:0:
256,192,27363,1,8,0:0:0:0:
256,192,27456,1,8,0:0:0:0:
256,192,27549,1,0,0:0:0:0:
256,192,27734,1,8,0:0:0:0:
256,192,28104,1,8,0:0:0:0:
256,192,28289,1,0,0:0:0:0:
256,192,28475,1,8,0:0:0:0:
256,192,28845,1,0,0:0:0:0:
256,192,29030,1,0,0:0:0:0:
256,192,29215,1,8,0:0:0:0:
256,192,29586,1,0,0:0:0:0:
256,192,29771,1,8,0:0:0:0:
256,192,29956,1,8,0:0:0:0:
256,192,30049,1,8,0:0:0:0:
256,192,30141,1,8,0:0:0:0:
256,192,30326,1,8,0:0:0:0:
256,192,30512,1,0,0:0:0:0:
256,192,30697,1,8,0:0:0:0:
256,192,31067,1,8,0:0:0:0:
256,192,31252,1,0,0:0:0:0:
256,192,31438,1,8,0:0:0:0:
256,192,31623,1,0,0:0:0:0:
256,192,31808,1,0,0:0:0:0:
256,192,31900,1,0,0:0:0:0:
256,192,31993,1,8,0:0:0:0:
256,192,32178,1,0,0:0:0:0:
256,192,32549,1,8,0:0:0:0:
256,192,32734,1,8,0:0:0:0:
256,192,32919,1,0,0:0:0:0:
256,192,33012,1,0,0:0:0:0:
256,192,33104,1,0,0:0:0:0:
256,192,33289,1,0,0:0:0:0:
256,192,33475,1,8,0:0:0:0:
256,192,33845,1,0,0:0:0:0:
256,192,34030,1,0,0:0:0:0:
256,192,34215,1,8,0:0:0:0:
256,192,34400,1,0,0:0:0:0:
256,192,34586,1,12,0:0:0:0:
256,192,34771,1,0,0:0:0:0:
256,192,34863,1,0,0:0:0:0:
256,192,34956,1,8,0:0:0:0:
256,192,35141,1,0,0:0:0:0:
256,192,35511,1,0,0:0:0:0:
256,192,35697,1,12,0:0:0:0:
256,192,35882,1,8,0:0:0:0:
256,192,35974,1,8,0:0:0:0:
256,192,36067,1,0,0:0:0:0:
256,192,36252,1,0,0:0:0:0:
256,192,36345,1,0,0:0:0:0:
256,192,36437,1,0,0:0:0:0:
256,192,36623,1,8,0:0:0:0:
256,192,36715,1,0,0:0:0:0:
256,192,36808,1,8,0:0:0:0:
256,192,36993,1,0,0:0:0:0:
256,192,37178,1,8,0:0:0:0:
256,192,37363,1,4,0:0:0:0:
256,192,37734,1,0,0:0:0:0:
256,192,37919,1,8,0:0:0:0:
256,192,38104,1,0,0:0:0:0:
256,192,38289,1,8,0:0:0:0:
256,192,38382,1,8,0:0:0:0:
256,192,38474,1,0,0:0:0:0:
256,192,38567,1,0,0:0:0:0:
256,192,38660,1,8,0:0:0:0:
256,192,38845,1,8,0:0:0:0:
256,192,39030,1,0,0:0:0:0:
256,192,39400,1,8,0:0:0:0:
256,192,39586,1,0,0:0:0:0:
256,192,39771,1,8,0:0:0:0:
256,192,39956,1,8,0:0:0:0:
256,192,40049,1,8,0:0:0:0:
256,192,40141,1,8,0:0:0:0:
256,192,40326,1,8,0:0:0:0:
256,192,40511,1,4,0:0:0:0:
256,192,40697,1,12,0:0:0:0:
256,192,40882,1,4,0:0:0:0:
256,192,41437,1,4,0:0:0:0:
256,192,41623,1,12,0:0:0:0:
256,192,41808,1,4,0:0:0:0:
256,192,42178,1,0,0:0:0:0:
256,192,42363,1,8,0:0:0:0:
256,192,42549,1,0,0:0:0:0:
256,192,42641,1,8,0:0:0:0:
256,192,42734,1,0,0:0:0:0:
256,192,42919,1,8,0:0:0:0:
256,192,43104,1,8,0:0:0:0:
256,192,43289,1,0,0:0:0:0:
256,192,43474,1,4,0:0:0:0:
256,192,43660,1,12,0:0:0:0:
256,192,43845,1,4,0:0:0:0:
256,192,44215,1,8,0:0:0:0:
256,192,44400,1,0,0:0:0:0:
256,192,44493,1,0,0:0:0:0:
256,192,44586,1,8,0:0:0:0:
256,192,44771,1,4,0:0:0:0:
256,192,45141,1,0,0:0:0:0:
256,192,45326,1,8,0:0:0:0:
256,192,45511,1,8,0:0:0:0:
256,192,45604,1,8,0:0:0:0:
256,192,45697,1,0,0:0:0:0:
256,192,45882,1,0,0:0:0:0:
256,192,45974,1,0,0:0:0:0:
256,192,46067,1,8,0:0:0:0:
256,192,46252,1,8,0:0:0:0:
256,192,46437,1,4,0:0:0:0:
256,192,46808,1,0,0:0:0:0:
256,192,46993,1,0,0:0:0:0:
256,192,47178,1,8,0:0:0:0:
256,192,47549,1,0,0:0:0:0:
256,192,47734,1,8,0:0:0:0:
256,192,47826,1,8,0:0:0:0:
256,192,47919,1,0,0:0:0:0:
256,192,48104,1,0,0:0:0:0:
256,192,48289,1,8,0:0:0:0:
256,192,48474,1,0,0:0:0:0:
256,192,48567,1,0,0:0:0:0:
256,192,48660,1,8,0:0:0:0:
256,192,48845,1,0,0:0:0:0:
256,192,49030,1,0,0:0:0:0:
256,192,49123,1,0,0:0:0:0:
256,192,49215,1,0,0:0:0:0:
256,192,49400,1,12,0:0:0:0:
256,192,49586,1,0,0:0:0:0:
256,192,49678,1,0,0:0:0:0:
256,192,49771,1,8,0:0:0:0:
256,192,49956,1,0,0:0:0:0:
256,192,50049,1,0,0:0:0:0:
256,192,50141,1,8,0:0:0:0:
256,192,50326,1,0,0:0:0:0:
256,192,50419,1,0,0:0:0:0:
256,192,50511,1,8,0:0:0:0:
256,192,50697,1,4,0:0:0:0:
256,192,51067,1,0,0:0:0:0:
256,192,51252,1,8,0:0:0:0:
256,192,51437,1,0,0:0:0:0:
256,192,51530,1,0,0:0:0:0:
256,192,51623,1,0,0:0:0:0:
256,192,51808,1,8,0:0:0:0:
256,192,51900,1,8,0:0:0:0:
256,192,51993,1,0,0:0:0:0:
256,192,52086,1,0,0:0:0:0:
256,192,52178,1,8,0:0:0:0:
256,192,52363,1,4,0:0:0:0:
256,192,52549,1,0,0:0:0:0:
256,192,52734,1,8,0:0:0:0:
256,192,52919,1,0,0:0:0:0:
256,192,53011,1,0,0:0:0:0:
256,192,53104,1,8,0:0:0:0:
256,192,53289,1,0,0:0:0:0:
256,192,53474,1,8,0:0:0:0:
256,192,53660,1,0,0:0:0:0:
256,192,53752,1,8,0:0:0:0:
256,192,53845,1,0,0:0:0:0:
256,192,54030,1,0,0:0:0:0:
256,192,54123,1,0,0:0:0:0:
256,192,54215,1,8,0:0:0:0:
256,192,54400,1,8,0:0:0:0:
256,192,54586,1,0,0:0:0:0:
256,192,54956,1,8,0:0:0:0:
256,192,55141,1,8,0:0:0:0:
256,192,55326,1,0,0:0:0:0:
256,192,55511,1,0,0:0:0:0:
256,192,55604,1,0,0:0:0:0:
256,192,55697,1,8,0:0:0:0:
256,192,55882,1,0,0:0:0:0:
256,192,56067,1,8,0:0:0:0:
256,192,56160,1,8,0:0:0:0:
256,192,56252,1,0,0:0:0:0:
256,192,56437,1,8,0:0:0:0:
256,192,56623,1,0,0:0:0:0:
256,192,56715,1,0,0:0:0:0:
256,192,56808,1,0,0:0:0:0:
256,192,56993,1,0,0:0:0:0:
256,192,57178,1,8,0:0:0:0:
256,192,57363,1,8,0:0:0:0:
256,192,57549,1,0,0:0:0:0:
256,192,57919,1,8,0:0:0:0:
256,192,58104,1,0,0:0:0:0:
256,192,58289,1,4,0:0:0:0:
256,192,58660,1,8,0:0:0:0:
256,192,58845,1,0,0:0:0:0:
256,192,59030,1,8,0:0:0:0:
256,192,59215,1,0,0:0:0:0:
256,192,59308,1,0,0:0:0:0:
256,192,59400,1,8,0:0:0:0:
256,192,59586,1,0,0:0:0:0:
256,192,59678,1,0,0:0:0:0:
256,192,59771,1,0,0:0:0:0:
256,192,59956,1,0,0:0:0:0:
256,192,60141,1,8,0:0:0:0:
256,192,60326,1,0,0:0:0:0:
256,192,60511,1,8,0:0:0:0:
256,192,60697,1,0,0:0:0:0:
256,192,60789,1,0,0:0:0:0:
256,192,60882,1,8,0:0:0:0:
256,192,61067,1,0,0:0:0:0:
256,192,61252,1,12,0:0:0:0:
256,192,61437,1,0,0:0:0:0:
256,192,61530,1,0,0:0:0:0:
256,192,61623,1,8,0:0:0:0:
256,192,61808,1,0,0:0:0:0:
256,192,61993,1,8,0:0:0:0:
256,192,62086,1,8,0:0:0:0:
256,192,62178,1,0,0:0:0:0:
256,192,62271,1,0,0:0:0:0:
256,192,62363,1,0,0:0:0:0:
256,192,62549,1,12,0:0:0:0:
256,192,62919,1,0,0:0:0:0:
256,192,63104,1,12,0:0:0:0:
256,192,63289,1,0,0:0:0:0:
256,192,63474,1,0,0:0:0:0:
256,192,63567,1,0,0:0:0:0:
256,192,63660,1,8,0:0:0:0:
256,192,63752,1,8,0:0:0:0:
256,192,63845,1,8,0:0:0:0:
256,192,64030,1,8,0:0:0:0:
256,192,64215,1,4,0:0:0:0:
256,192,64400,1,0,0:0:0:0:
256,192,64585,1,8,0:0:0:0:
256,192,64770,1,0,0:0:0:0:
256,192,64862,1,0,0:0:0:0:
256,192,64955,1,8,0:0:0:0:
256,192,65140,1,0,0:0:0:0:
256,192,65325,1,8,0:0:0:0:
256,192,65511,1,0,0:0:0:0:
256,192,65603,1,8,0:0:0:0:
256,192,65696,1,0,0:0:0:0:
256,192,65881,1,0,0:0:0:0:
256,192,65974,1,0,0:0:0:0:
256,192,66066,1,8,0:0:0:0:
256,192,66251,1,8,0:0:0:0:
256,192,66437,1,0,0:0:0:0:
256,192,66808,1,8,0:0:0:0:
256,192,66993,1,0,0:0:0:0:
256,192,67086,1,0,0:0:0:0:
256,192,67178,1,0,0:0:0:0:
256,192,67363,1,0,0:0:0:0:
256,192,67549,1,8,0:0:0:0:
256,192,67734,1,0,0:0:0:0:
256,192,67826,1,0,0:0:0:0:
256,192,67919,1,8,0:0:0:0:
256,192,68104,1,0,0:0:0:0:
256,192,68289,1,8,0:0:0:0:
256,192,68474,1,8,0:0:0:0:
256,192,68567,1,8,0:0:0:0:
256,192,68660,1,0,0:0:0:0:
256,192,68845,1,0,0:0:0:0:
256,192,69030,1,8,0:0:0:0:
256,192,69215,1,0,0:0:0:0:
256,192,69400,1,8,0:0:0:0:
256,192,69586,1,0,0:0:0:0:
256,192,69678,1,0,0:0:0:0:
256,192,69771,1,8,0:0:0:0:
256,192,69863,1,8,0:0:0:0:
256,192,69956,1,0,0:0:0:0:
256,192,70141,1,12,0:0:0:0:
256,192,70326,1,0,0:0:0:0:
256,192,70419,1,0,0:0:0:0:
256,192,70511,1,0,0:0:0:0:
256,192,70697,1,12,0:0:0:0:
256,192,70882,1,0,0:0:0:0:
256,192,70974,1,0,0:0:0:0:
256,192,71067,1,0,0:0:0:0:
256,192,71252,1,12,0:0:0:0:
256,192,71623,1,0,0:0:0:0:
256,192,71808,1,8,0:0:0:0:
256,192,71900,1,8,0:0:0:0:
256,192,71993,1,8,0:0:0:0:
256,192,72178,1,0,0:0:0:0:
256,192,72363,1,0,0:0:0:0:
256,192,72734,1,8,0:0:0:0:
256,192,73104,1,12,0:0:0:0:
256,192,73289,1,0,0:0:0:0:
256,192,73382,1,0,0:0:0:0:
256,192,73474,1,0,0:0:0:0:
256,192,73660,1,12,0:0:0:0:
256,192,73845,1,0,0:0:0:0:
256,192,73937,1,0,0:0:0:0:
256,192,74030,1,0,0:0:0:0:
256,192,74215,1,12,0:0:0:0:
256,192,74586,1,0,0:0:0:0:
256,192,74771,1,0,0:0:0:0:
256,192,74863,1,0,0:0:0:0:
256,192,74956,1,8,0:0:0:0:
256,192,75141,1,0,0:0:0:0:
256,192,75326,1,8,0:0:0:0:
256,192,75697,1,8,0:0:0:0:
256,192,76067,1,4,0:0:0:0:
256,192,76437,1,8,0:0:0:0:
256,192,76623,1,0,0:0:0:0:
256,192,76715,1,0,0:0:0:0:
256,192,76808,1,0,0:0:0:0:
256,192,76993,1,0,0:0:0:0:
256,192,77178,1,8,0:0:0:0:
256,192,77363,1,0,0:0:0:0:
256,192,77456,1,0,0:0:0:0:
256,192,77549,1,8,0:0:0:0:
256,192,77734,1,0,0:0:0:0:
256,192,77919,1,12,0:0:0:0:
256,192,78289,1,8,0:0:0:0:
256,192,78474,1,8,0:0:0:0:
256,192,78567,1,8,0:0:0:0:
256,192,78660,1,8,0:0:0:0:
256,192,78845,1,4,0:0:0:0:
256,192,79215,1,0,0:0:0:0:
256,192,79400,1,8,0:0:0:0:
256,192,79770,1,8,0:0:0:0:
256,192,79955,1,0,0:0:0:0:
256,192,80141,1,8,0:0:0:0:
256,192,80326,1,8,0:0:0:0:
256,192,80418,1,8,0:0:0:0:
256,192,80511,1,0,0:0:0:0:
256,192,80696,1,0,0:0:0:0:
256,192,80881,1,8,0:0:0:0:
256,192,81066,1,0,0:0:0:0:
256,192,81159,1,0,0:0:0:0:
256,192,81252,1,8,0:0:0:0:
256,192,81437,1,0,0:0:0:0:
256,192,81622,1,8,0:0:0:0:
256,192,81807,1,8,0:0:0:0:
256,192,81992,1,0,0:0:0:0:
256,192,82363,1,8,0:0:0:0:
256,192,82733,1,0,0:0:0:0:
256,192,82918,1,0,0:0:0:0:
256,192,83104,1,8,0:0:0:0:
256,192,83289,1,8,0:0:0:0:
256,192,83381,1,8,0:0:0:0:
256,192,83474,1,8,0:0:0:0:
256,192,83659,1,0,0:0:0:0:
256,192,83844,1,8,0:0:0:0:
256,192,84029,1,0,0:0:0:0:
256,192,84122,1,0,0:0:0:0:
256,192,84215,1,0,0:0:0:0:
256,192,84400,1,0,0:0:0:0:
256,192,84585,1,8,0:0:0:0:
256,192,84770,1,8,0:0:0:0:
256,192,84955,1,4,0:0:0:0:
256,192,85326,1,8,0:0:0:0:
256,192,85696,1,8,0:0:0:0:
256,192,85881,1,0,0:0:0:0:
256,192,86066,1,8,0:0:0:0:
256,192,86252,1,8,0:0:0:0:
256,192,86344,1,8,0:0:0:0:
256,192,86437,1,0,0:0:0:0:
256,192,86622,1,0,0:0:0:0:
256,192,86807,1,8,0:0:0:0:
256,192,86992,1,8,0:0:0:0:
256,192,87178,1,0,0:0:0:0:
256,192,87363,1,0,0:0:0:0:
256,192,87455,1,0,0:0:0:0:
256,192,87548,1,8,0:0:0:0:
256,192,87733,1,0,0:0:0:0:
256,192,87918,1,4,0:0:0:0:
256,192,88104,1,8,0:0:0:0:
256,192,88196,1,0,0:0:0:0:
256,192,88289,1,8,0:0:0:0:
256,192,88381,1,8,0:0:0:0:
256,192,88474,1,0,0:0:0:0:
256,192,88659,1,8,0:0:0:0:
256,192,88844,1,0,0:0:0:0:
256,192,88937,1,8,0:0:0:0:
256,192,89029,1,0,0:0:0:0:
256,192,89215,1,12,0:0:0:0:
