osu file format v14

[General]
AudioFilename: TREASURE BOX.mp3
AudioLeadIn: 0
PreviewTime: 52363
Countdown: 0
SampleSet: Normal
StackLeniency: 0.7
Mode: 1
LetterboxInBreaks: 0
WidescreenStoryboard: 0

[Editor]
DistanceSpacing: 0.5
BeatDivisor: 2
GridSize: 32
TimelineZoom: 0.8000001

[Metadata]
Title:TREASURE BOX
TitleUnicode:宝箱-TREASURE BOX-
Artist:OKUI MASAMI
ArtistUnicode:奥井雅美
Creator:Nardoxyribonucleic
Version:KwaN's Kantan
Source:SHIROBAKO
Tags:Taiko White Box Opening TV Size Takarabako IamKwaN qoot8123 Charlotte カヨコ 千葉"naotyu-"直樹
BeatmapID:854704
BeatmapSetID:374463

[Difficulty]
HPDrainRate:8
CircleSize:3
OverallDifficulty:4
ApproachRate:3
SliderMultiplier:1.4
SliderTickRate:1

[Events]
//Background and Video events
0,0,"BG.jpg",0,90
//Break Periods
//Storyboard Layer 0 (Background)
//Storyboard Layer 1 (Fail)
//Storyboard Layer 2 (Pass)
//Storyboard Layer 3 (Foreground)
//Storyboard Sound Samples

[TimingPoints]
512,370.37037037037,4,1,0,50,1,0
3289,-100,4,1,0,80,0,0
15326,-100,4,1,0,70,0,0
52363,-100,4,1,0,90,0,1
78845,-100,4,1,0,80,0,0

[HitObjects]
256,192,512,5,0,0:0:0:0:
256,192,1808,1,2,0:0:0:0:
256,192,2734,1,0,0:0:0:0:
256,192,3289,1,4,0:0:0:0:
256,192,4215,1,2,0:0:0:0:
256,192,4956,1,0,0:0:0:0:
256,192,5697,1,2,0:0:0:0:
256,192,6067,1,2,0:0:0:0:
256,192,6437,1,0,0:0:0:0:
256,192,7178,1,0,0:0:0:0:
256,192,7734,1,2,0:0:0:0:
256,192,9400,1,4,0:0:0:0:
256,192,10141,1,2,0:0:0:0:
256,192,10511,1,2,0:0:0:0:
256,192,10882,1,4,0:0:0:0:
256,192,11623,1,2,0:0:0:0:
256,192,12363,1,4,0:0:0:0:
256,192,13104,1,2,0:0:0:0:
256,192,13660,1,4,0:0:0:0:
256,192,15326,1,4,0:0:0:0:
256,192,16067,1,2,0:0:0:0:
256,192,16808,1,0,0:0:0:0:
256,192,17178,1,2,0:0:0:0:
256,192,17549,1,0,0:0:0:0:
256,192,18289,1,2,0:0:0:0:
256,192,19030,1,0,0:0:0:0:
256,192,19771,1,2,0:0:0:0:
256,192,21252,1,0,0:0:0:0:
256,192,21993,1,2,0:0:0:0:
256,192,22363,1,2,0:0:0:0:
256,192,22734,1,0,0:0:0:0:
256,192,23474,1,2,0:0:0:0:
256,192,24215,1,0,0:0:0:0:
256,192,24956,1,0,0:0:0:0:
256,192,25511,1,2,0:0:0:0:
256,192,27178,1,4,0:0:0:0:
256,192,27919,1,0,0:0:0:0:
256,192,28660,1,2,0:0:0:0:
256,192,29030,1,0,0:0:0:0:
256,192,29400,1,2,0:0:0:0:
256,192,30141,1,0,0:0:0:0:
256,192,30882,1,0,0:0:0:0:
256,192,31623,1,2,0:0:0:0:
256,192,33104,1,0,0:0:0:0:
256,192,33845,1,0,0:0:0:0:
256,192,34215,1,0,0:0:0:0:
256,192,34586,1,6,0:0:0:0:
256,192,35141,1,4,0:0:0:0:
256,192,35697,1,2,0:0:0:0:
256,192,36067,1,0,0:0:0:0:
256,192,37363,1,0,0:0:0:0:
256,192,37919,1,2,0:0:0:0:
256,192,38289,1,2,0:0:0:0:
256,192,39030,1,4,0:0:0:0:
256,192,39400,1,4,0:0:0:0:
256,192,40511,1,0,0:0:0:0:
256,192,40882,1,2,0:0:0:0:
256,192,41808,1,4,0:0:0:0:
256,192,42734,1,0,0:0:0:0:
256,192,43474,1,0,0:0:0:0:
256,192,43845,1,2,0:0:0:0:
256,192,44771,1,6,0:0:0:0:
256,192,45697,1,2,0:0:0:0:
256,192,46437,1,4,0:0:0:0:
256,192,47178,1,2,0:0:0:0:
256,192,47919,1,0,0:0:0:0:
256,192,48289,1,0,0:0:0:0:
256,192,48660,1,2,0:0:0:0:
256,192,49400,1,4,0:0:0:0:
256,192,50697,1,6,0:0:0:0:
256,192,52363,1,4,0:0:0:0:
256,192,53104,1,2,0:0:0:0:
256,192,53845,1,0,0:0:0:0:
256,192,54215,1,2,0:0:0:0:
256,192,54586,1,2,0:0:0:0:
256,192,55326,1,0,0:0:0:0:
256,192,56067,1,2,0:0:0:0:
256,192,56808,1,0,0:0:0:0:
256,192,57178,1,2,0:0:0:0:
256,192,57549,1,0,0:0:0:0:
256,192,58289,1,4,0:0:0:0:
256,192,59030,1,0,0:0:0:0:
256,192,59771,1,2,0:0:0:0:
256,192,60511,1,0,0:0:0:0:
256,192,60882,1,2,0:0:0:0:
256,192,61252,1,0,0:0:0:0:
256,192,61993,1,0,0:0:0:0:
256,192,62549,1,6,0:0:0:0:
256,192,64215,1,4,0:0:0:0:
256,192,64956,1,2,0:0:0:0:
256,192,65697,1,0,0:0:0:0:
256,192,66067,1,2,0:0:0:0:
256,192,66438,1,2,0:0:0:0:
256,192,67178,1,0,0:0:0:0:
256,192,67919,1,2,0:0:0:0:
256,192,68289,1,2,0:0:0:0:
256,192,68660,1,0,0:0:0:0:
256,192,70141,1,6,0:0:0:0:
256,192,70697,1,4,0:0:0:0:
256,192,71252,1,4,0:0:0:0:
256,192,72363,1,0,0:0:0:0:
256,192,73104,1,6,0:0:0:0:
256,192,73660,1,4,0:0:0:0:
256,192,74215,1,4,0:0:0:0:
256,192,75326,1,0,0:0:0:0:
256,192,76067,1,4,0:0:0:0:
256,192,76808,1,2,0:0:0:0:
256,192,77178,1,0,0:0:0:0:
256,192,77549,1,2,0:0:0:0:
256,192,77919,1,4,0:0:0:0:
256,192,78844,1,4,0:0:0:0:
256,192,79770,1,2,0:0:0:0:
256,192,80511,1,0,0:0:0:0:
256,192,81252,1,2,0:0:0:0:
256,192,81622,1,2,0:0:0:0:
256,192,81992,1,0,0:0:0:0:
256,192,82733,1,0,0:0:0:0:
256,192,83289,1,2,0:0:0:0:
256,192,84955,1,4,0:0:0:0:
256,192,85696,1,8,0:0:0:0:
256,192,86067,1,2,0:0:0:0:
256,192,86437,1,4,0:0:0:0:
256,192,87178,1,2,0:0:0:0:
256,192,87918,1,4,0:0:0:0:
256,192,88659,1,2,0:0:0:0:
256,192,89215,1,4,0:0:0:0:
