osu file format v14

[General]
AudioFilename: OK Go - Turn Up the Radio.mp3
AudioLeadIn: 0
PreviewTime: 37077
Countdown: 0
SampleSet: Normal
StackLeniency: 0.7
Mode: 0
LetterboxInBreaks: 0
WidescreenStoryboard: 1

[Editor]
Bookmarks: 1514,7871,18401,31713,61912,74628,80986,104827,120722,141385,173968
DistanceSpacing: 0.8
BeatDivisor: 4
GridSize: 8
TimelineZoom: 1

[Metadata]
Title:Turn Up the Radio
TitleUnicode:Turn Up the Radio
Artist:OK Go
ArtistUnicode:OK Go
Creator:- BiDulGi -
Version:Hard ROCK!
Source:
Tags:BDG iNiS alternative synthrock power pop hungry ghosts
BeatmapID:682390
BeatmapSetID:304607

[Difficulty]
HPDrainRate:7
CircleSize:4
OverallDifficulty:7.5
ApproachRate:8
SliderMultiplier:2
SliderTickRate:1

[Events]
//Background and Video events
0,0,"BG.jpg",0,0
//Break Periods
2,61912,73878
2,104827,119972
//Storyboard Layer 0 (Background)
//Storyboard Layer 1 (Fail)
//Storyboard Layer 2 (Pass)
//Storyboard Layer 3 (Foreground)
//Storyboard Sound Samples

[TimingPoints]
1514,397.360993377483,4,1,0,60,1,0
7871,-100,4,1,0,100,0,0
38071,-100,4,1,0,100,0,1
60323,-100,4,1,0,100,0,0
80986,-100,4,1,0,100,0,1
103238,-100,4,1,0,100,0,0
141385,-100,4,1,0,100,0,1
161253,397.360993377483,4,1,0,100,1,1
173968,-100,4,1,0,100,0,0

[HitObjects]
472,264,1514,5,0,0:0:0:0:
432,336,1712,1,0,0:0:0:0:
352,336,1911,2,0,B|256:384|160:336,2,200,0|8|0,0:0|0:0|0:0,0:0:0:0:
256,272,2904,1,0,0:0:0:0:
256,192,3103,1,0,0:0:0:0:
256,48,3500,1,0,0:0:0:0:
336,48,3699,1,0,0:0:0:0:
296,120,3898,1,8,0:0:0:0:
216,120,4096,1,0,0:0:0:0:
120,264,4494,1,0,0:0:0:0:
40,264,4692,5,0,0:0:0:0:
80,336,4891,1,0,0:0:0:0:
160,336,5090,2,0,B|256:384|352:336,2,200,0|8|0,0:0|0:0|0:0,0:0:0:0:
256,272,6083,1,0,0:0:0:0:
256,192,6282,1,0,0:0:0:0:
256,48,6679,1,0,0:0:0:0:
176,48,6878,1,0,0:0:0:0:
216,120,7077,1,8,0:0:0:0:
296,120,7275,1,0,0:0:0:0:
392,264,7673,1,0,0:0:0:0:
352,336,7871,6,0,B|256:384|160:336,2,200,4|0|8,0:0|0:0|0:0,0:0:0:0:
464,216,9063,1,0,0:0:0:0:
464,136,9262,1,0,0:0:0:0:
392,176,9461,1,0,0:0:0:0:
296,48,9858,1,0,0:0:0:0:
216,48,10057,1,10,0:0:0:0:
256,200,10454,1,10,0:0:0:0:
120,264,10851,1,0,0:0:0:0:
40,264,11050,5,4,0:0:0:0:
80,336,11249,1,0,0:0:0:0:
160,336,11448,2,0,B|256:384|352:336,2,200,0|8|0,0:0|0:0|0:0,0:0:0:0:
256,272,12441,1,0,0:0:0:0:
256,192,12640,1,0,0:0:0:0:
256,48,13037,1,0,0:0:0:0:
176,48,13236,1,2,0:0:0:0:
216,120,13434,1,8,0:0:0:0:
296,120,13633,1,2,0:0:0:0:
392,264,14030,1,2,0:0:0:0:
472,264,14229,5,4,0:0:0:0:
432,336,14428,1,0,0:0:0:0:
352,336,14626,2,0,B|256:384|160:336,2,200,0|8|0,0:0|0:0|0:0,0:0:0:0:
256,272,15620,1,0,0:0:0:0:
296,32,16216,1,0,0:0:0:0:
216,32,16415,1,10,0:0:0:0:
96,136,16812,1,10,0:0:0:0:
216,248,17209,1,0,0:0:0:0:
296,248,17408,1,4,0:0:0:0:
296,176,18401,5,0,0:0:0:0:
216,176,18600,1,0,0:0:0:0:
192,16,18997,2,0,B|128:32|80:88|72:160,1,200
120,320,19792,2,0,B|192:392|320:392|392:320,1,300,8|0,0:0|0:0,0:0:0:0:
392,160,20786,1,0,0:0:0:0:
256,248,21183,1,0,0:0:0:0:
188,204,21382,1,8,0:0:0:0:
120,160,21580,1,0,0:0:0:0:
320,16,22176,6,0,B|384:32|432:88|440:160,1,200
432,240,22772,1,0,0:0:0:0:
356,212,22971,2,0,B|156:212,1,200,8|0,0:0|0:0,0:0:0:0:
80,240,23567,1,0,0:0:0:0:
168,376,23964,1,0,0:0:0:0:
256,240,24362,1,0,0:0:0:0:
256,240,24560,1,8,0:0:0:0:
296,96,24958,5,0,0:0:0:0:
216,96,25156,1,0,0:0:0:0:
192,16,25355,2,0,B|128:32|80:88|72:160,1,200
120,320,26150,2,0,B|192:392|320:392|392:320,1,300,8|0,0:0|0:0,0:0:0:0:
392,160,27143,1,0,0:0:0:0:
256,248,27540,1,0,0:0:0:0:
188,204,27739,1,8,0:0:0:0:
120,160,27937,1,0,0:0:0:0:
320,16,28534,6,0,B|384:32|432:88|440:160,1,200
432,240,29130,1,0,0:0:0:0:
356,212,29329,2,0,B|156:212,1,200,8|0,0:0|0:0,0:0:0:0:
256,352,30123,1,0,0:0:0:0:
176,352,30322,1,0,0:0:0:0:
216,280,30521,1,0,0:0:0:0:
296,280,30720,1,0,0:0:0:0:
336,352,30918,1,8,0:0:0:0:
448,120,31713,5,4,0:0:0:0:
368,120,31912,1,0,0:0:0:0:
408,192,32110,1,8,0:0:0:0:
328,48,32508,2,0,B|256:8|184:48,2,150,8|0|0,0:0|0:0|0:0,0:0:0:0:
256,112,33302,1,0,0:0:0:0:
256,272,33700,1,8,0:0:0:0:
128,368,34097,1,8,0:0:0:0:
0,280,34494,1,0,0:0:0:0:
64,120,34892,5,4,0:0:0:0:
144,120,35091,1,0,0:0:0:0:
104,192,35289,1,8,0:0:0:0:
184,48,35687,2,0,B|256:8|328:48,2,150,8|0|0,0:0|0:0|0:0,0:0:0:0:
256,112,36481,1,0,0:0:0:0:
216,248,36879,5,0,0:0:0:0:
296,248,37077,1,2,0:0:0:0:
456,248,37475,1,2,0:0:0:0:
392,120,37872,1,2,0:0:0:0:
472,120,38071,5,4,0:0:0:0:
432,48,38269,1,0,0:0:0:0:
352,48,38468,2,0,B|256:0|160:48,2,200,0|8|0,0:0|0:0|0:0,0:0:0:0:
256,112,39461,1,0,0:0:0:0:
256,192,39660,1,0,0:0:0:0:
256,336,40058,1,0,0:0:0:0:
336,336,40256,1,2,0:0:0:0:
296,264,40455,1,8,0:0:0:0:
216,264,40654,1,2,0:0:0:0:
120,120,41051,1,0,0:0:0:0:
40,120,41250,5,4,0:0:0:0:
80,48,41448,1,0,0:0:0:0:
160,48,41647,2,0,B|256:0|352:48,2,200,0|8|0,0:0|0:0|0:0,0:0:0:0:
256,112,42640,1,0,0:0:0:0:
256,192,42839,1,0,0:0:0:0:
328,152,43038,1,0,0:0:0:0:
328,232,43236,1,0,0:0:0:0:
184,152,43634,1,8,0:0:0:0:
328,72,44031,1,0,0:0:0:0:
328,152,44230,1,0,0:0:0:0:
400,112,44428,5,4,0:0:0:0:
400,192,44627,1,0,0:0:0:0:
400,272,44826,1,0,0:0:0:0:
328,232,45025,1,0,0:0:0:0:
328,152,45223,2,0,B|320:104|256:62|192:104|184:152,1,200,8|0,0:0|0:0,0:0:0:0:
184,232,45819,1,0,0:0:0:0:
112,192,46018,1,0,0:0:0:0:
216,328,46415,1,0,0:0:0:0:
296,328,46614,1,10,0:0:0:0:
256,176,47011,1,10,0:0:0:0:
392,120,47409,1,10,0:0:0:0:
352,48,47607,6,0,B|256:0|160:48,2,200,4|0|8,0:0|0:0|0:0,0:0:0:0:
464,168,48799,1,0,0:0:0:0:
464,248,48998,1,0,0:0:0:0:
392,208,49197,1,0,0:0:0:0:
296,336,49594,1,0,0:0:0:0:
216,336,49793,1,10,0:0:0:0:
256,184,50190,1,10,0:0:0:0:
120,120,50588,1,10,0:0:0:0:
40,120,50786,5,4,0:0:0:0:
80,48,50985,1,0,0:0:0:0:
160,48,51184,2,0,B|256:0|352:48,2,200,0|8|0,0:0|0:0|0:0,0:0:0:0:
104,112,52177,2,0,B|56:216|112:328|210:352,1,300
256,288,52972,1,10,0:0:0:0:
176,152,53369,1,10,0:0:0:0:
336,152,53766,1,10,0:0:0:0:
408,192,53965,5,4,0:0:0:0:
408,112,54164,1,0,0:0:0:0:
352,48,54363,2,0,B|256:0|160:48,2,200,0|8|0,0:0|0:0|0:0,0:0:0:0:
408,112,55356,2,0,B|456:216|400:328|302:352,1,300
256,288,56151,1,10,0:0:0:0:
336,152,56548,1,10,0:0:0:0:
176,152,56945,1,10,0:0:0:0:
104,192,57144,5,4,0:0:0:0:
104,112,57343,1,0,0:0:0:0:
160,48,57541,2,0,B|256:0|352:48,2,200,0|8|0,0:0|0:0|0:0,0:0:0:0:
256,112,58535,1,0,0:0:0:0:
256,192,58733,1,0,0:0:0:0:
296,344,59131,1,0,0:0:0:0:
216,344,59330,1,2,0:0:0:0:
176,272,59528,1,8,0:0:0:0:
256,272,59727,1,2,0:0:0:0:
256,112,60124,1,0,0:0:0:0:
256,112,60323,1,4,0:0:0:0:
144,120,74628,5,4,0:0:0:0:
64,120,74827,1,0,0:0:0:0:
104,192,75025,1,8,0:0:0:0:
184,48,75423,2,0,B|256:8|328:48,2,150,8|0|0,0:0|0:0|0:0,0:0:0:0:
256,112,76217,1,0,0:0:0:0:
216,272,76615,1,8,0:0:0:0:
352,360,77012,1,8,0:0:0:0:
488,272,77409,1,0,0:0:0:0:
368,120,77807,5,4,0:0:0:0:
448,120,78005,1,0,0:0:0:0:
408,192,78204,1,8,0:0:0:0:
328,48,78602,2,0,B|256:8|184:48,2,150,8|0|0,0:0|0:0|0:0,0:0:0:0:
256,112,79396,1,0,0:0:0:0:
296,248,79794,5,0,0:0:0:0:
216,248,79992,1,2,0:0:0:0:
56,248,80390,1,2,0:0:0:0:
120,120,80787,1,2,0:0:0:0:
40,120,80986,5,4,0:0:0:0:
80,48,81184,1,0,0:0:0:0:
160,48,81383,2,0,B|256:0|352:48,2,200,0|8|0,0:0|0:0|0:0,0:0:0:0:
256,112,82376,1,0,0:0:0:0:
256,192,82575,1,0,0:0:0:0:
184,336,82973,1,0,0:0:0:0:
256,376,83171,1,2,0:0:0:0:
328,336,83370,1,8,0:0:0:0:
256,296,83569,1,2,0:0:0:0:
416,176,83966,1,2,0:0:0:0:
472,120,84165,5,4,0:0:0:0:
432,48,84363,1,0,0:0:0:0:
352,48,84562,2,0,B|256:0|160:48,2,200,0|8|0,0:0|0:0|0:0,0:0:0:0:
256,112,85555,1,0,0:0:0:0:
184,152,85754,1,0,0:0:0:0:
256,192,85953,1,0,0:0:0:0:
328,152,86151,1,0,0:0:0:0:
184,232,86549,1,8,0:0:0:0:
184,72,86946,1,0,0:0:0:0:
184,152,87145,1,0,0:0:0:0:
112,112,87343,5,4,0:0:0:0:
112,192,87542,1,0,0:0:0:0:
112,272,87741,1,0,0:0:0:0:
184,232,87940,1,0,0:0:0:0:
184,152,88138,2,0,B|192:104|256:62|320:104|328:152,1,200,8|0,0:0|0:0,0:0:0:0:
328,232,88734,1,0,0:0:0:0:
400,192,88933,1,0,0:0:0:0:
296,328,89330,1,0,0:0:0:0:
216,328,89529,1,10,0:0:0:0:
256,176,89926,1,10,0:0:0:0:
120,120,90324,1,10,0:0:0:0:
160,48,90522,6,0,B|256:0|352:48,2,200,4|0|8,0:0|0:0|0:0,0:0:0:0:
48,168,91714,1,0,0:0:0:0:
48,248,91913,1,0,0:0:0:0:
112,296,92112,1,0,0:0:0:0:
256,368,92509,1,0,0:0:0:0:
256,288,92708,1,10,0:0:0:0:
256,128,93105,1,10,0:0:0:0:
408,176,93503,1,10,0:0:0:0:
472,120,93701,5,4,0:0:0:0:
432,48,93900,1,0,0:0:0:0:
352,48,94099,2,0,B|256:0|160:48,2,200,0|8|0,0:0|0:0|0:0,0:0:0:0:
408,112,95092,2,0,B|456:216|400:328|302:352,1,300
224,352,95887,1,10,0:0:0:0:
96,248,96284,1,10,0:0:0:0:
248,192,96681,1,10,0:0:0:0:
176,152,96880,5,4,0:0:0:0:
104,112,97079,1,0,0:0:0:0:
160,48,97277,2,0,B|256:0|352:48,2,200,0|8|0,0:0|0:0|0:0,0:0:0:0:
104,112,98271,2,0,B|56:216|112:328|210:352,1,300
288,352,99066,1,10,0:0:0:0:
416,248,99463,1,10,0:0:0:0:
264,192,99860,1,10,0:0:0:0:
336,152,100059,5,4,0:0:0:0:
408,112,100258,1,0,0:0:0:0:
352,48,100456,2,0,B|256:0|160:48,2,200,0|8|0,0:0|0:0|0:0,0:0:0:0:
256,112,101450,1,0,0:0:0:0:
256,192,101648,1,0,0:0:0:0:
184,336,102046,1,0,0:0:0:0:
256,376,102245,1,2,0:0:0:0:
328,336,102443,1,8,0:0:0:0:
256,296,102642,1,2,0:0:0:0:
256,136,103039,1,0,0:0:0:0:
256,136,103238,1,4,0:0:0:0:
192,48,120722,6,0,B|256:16|320:48,2,133.333333333333,4|0|0,0:0|0:0|0:0,0:0:0:0:
192,152,121517,1,2,0:0:0:0:
88,152,121781,2,0,B|64:256|152:344|256:320,1,266.666666666667,0|4,0:0|0:0,0:0:0:0:
304,240,122576,5,0,0:0:0:0:
400,296,122841,1,0,0:0:0:0:
496,240,123106,1,2,0:0:0:0:
400,184,123371,1,0,0:0:0:0:
400,48,123702,5,0,0:0:0:0:
320,48,123901,2,0,B|256:16|192:48,2,133.333333333333,4|0|0,0:0|0:0|0:0,0:0:0:0:
352,152,124695,1,2,0:0:0:0:
192,336,125490,6,0,B|256:368|320:336,2,133.333333333333,4|0|0,0:0|0:0|0:0,0:0:0:0:
160,232,126285,1,2,0:0:0:0:
256,192,126550,1,0,0:0:0:0:
352,152,126815,1,0,0:0:0:0:
320,48,127080,6,0,B|256:16|192:48,2,133.333333333333,4|0|0,0:0|0:0|0:0,0:0:0:0:
320,152,127875,1,2,0:0:0:0:
424,152,128139,2,0,B|448:256|360:344|256:320,1,266.666666666667,0|4,0:0|0:0,0:0:0:0:
208,240,128934,5,0,0:0:0:0:
112,296,129199,1,0,0:0:0:0:
16,240,129464,1,2,0:0:0:0:
112,184,129729,1,0,0:0:0:0:
112,48,130060,5,0,0:0:0:0:
192,48,130259,2,0,B|256:16|320:48,2,133.333333333333,4|0|0,0:0|0:0|0:0,0:0:0:0:
256,136,131053,1,2,0:0:0:0:
320,224,131318,1,0,0:0:0:0:
256,344,131649,5,0,0:0:0:0:
200,288,131848,2,0,B|24:288,2,133.333333333333,4|0|0,0:0|0:0|0:0,0:0:0:0:
312,288,132643,2,0,B|488:288,2,133.333333333333,2|0|0,0:0|0:0|0:0,0:0:0:0:
256,192,133437,12,4,138206,0:0:0:0:
216,256,140192,5,0,0:0:0:0:
296,256,140390,1,2,0:0:0:0:
456,256,140788,1,2,0:0:0:0:
376,120,141185,1,2,0:0:0:0:
456,120,141385,5,4,0:0:0:0:
416,48,141583,1,0,0:0:0:0:
336,48,141782,1,0,0:0:0:0:
416,192,142179,1,8,0:0:0:0:
336,48,142577,1,0,0:0:0:0:
296,120,142775,1,0,0:0:0:0:
336,192,142974,1,0,0:0:0:0:
336,344,143371,1,0,0:0:0:0:
296,272,143569,1,2,0:0:0:0:
216,272,143768,1,8,0:0:0:0:
176,344,143967,1,2,0:0:0:0:
96,192,144365,1,0,0:0:0:0:
56,120,144563,5,4,0:0:0:0:
96,48,144761,1,0,0:0:0:0:
176,48,144960,1,0,0:0:0:0:
96,192,145357,1,8,0:0:0:0:
176,48,145755,1,0,0:0:0:0:
216,120,145953,1,0,0:0:0:0:
136,120,146152,1,0,0:0:0:0:
176,192,146352,1,0,0:0:0:0:
256,192,146550,1,0,0:0:0:0:
256,352,146947,1,8,0:0:0:0:
256,192,147344,1,0,0:0:0:0:
256,112,147543,1,0,0:0:0:0:
336,96,147742,5,4,0:0:0:0:
296,24,147941,1,0,0:0:0:0:
216,24,148140,1,0,0:0:0:0:
176,96,148339,1,0,0:0:0:0:
256,96,148537,2,0,B|256:296,1,200,8|0,0:0|0:0,0:0:0:0:
216,368,149133,1,0,0:0:0:0:
296,368,149332,1,0,0:0:0:0:
296,208,149728,1,0,0:0:0:0:
376,208,149927,1,10,0:0:0:0:
416,360,150324,1,10,0:0:0:0:
456,208,150722,1,10,0:0:0:0:
456,120,150921,5,4,0:0:0:0:
416,48,151119,1,0,0:0:0:0:
336,48,151318,1,0,0:0:0:0:
416,192,151715,1,8,0:0:0:0:
336,48,152113,1,0,0:0:0:0:
296,120,152311,1,0,0:0:0:0:
336,192,152510,1,0,0:0:0:0:
296,336,152907,1,0,0:0:0:0:
216,336,153106,1,10,0:0:0:0:
256,184,153503,1,10,0:0:0:0:
120,120,153901,1,10,0:0:0:0:
40,120,154099,5,4,0:0:0:0:
80,48,154298,1,0,0:0:0:0:
160,48,154497,2,0,B|256:0|352:48,2,200,0|8|0,0:0|0:0|0:0,0:0:0:0:
104,112,155490,2,0,B|56:216|112:328|210:352,1,300
256,288,156285,1,10,0:0:0:0:
176,152,156682,1,10,0:0:0:0:
336,152,157079,1,10,0:0:0:0:
408,112,157278,5,4,0:0:0:0:
480,152,157477,1,0,0:0:0:0:
408,192,157676,1,0,0:0:0:0:
264,112,158074,1,8,0:0:0:0:
408,32,158471,1,0,0:0:0:0:
408,112,158669,2,0,B|456:216|400:328|302:352,1,300
256,288,159464,1,10,0:0:0:0:
336,152,159861,1,10,0:0:0:0:
176,152,160258,1,10,0:0:0:0:
104,112,160458,5,4,0:0:0:0:
32,152,160657,1,0,0:0:0:0:
104,192,160856,1,0,0:0:0:0:
256,152,161253,1,12,0:0:0:0:
408,112,161650,1,0,0:0:0:0:
408,192,161849,1,0,0:0:0:0:
472,240,162047,2,0,B|440:348|336:372,1,200,8|0,0:0|0:0,0:0:0:0:
256,372,162643,1,0,0:0:0:0:
256,292,162842,2,0,B|256:92,1,200
256,12,163438,1,10,0:0:0:0:
136,112,163835,1,10,0:0:0:0:
136,272,164233,1,10,0:0:0:0:
208,232,164431,5,4,0:0:0:0:
208,152,164630,1,0,0:0:0:0:
136,112,164829,1,0,0:0:0:0:
40,240,165226,2,0,B|72:348|176:372,1,200,8|0,0:0|0:0,0:0:0:0:
256,372,165822,1,0,0:0:0:0:
256,292,166021,2,0,B|256:92,1,200
256,12,166617,1,10,0:0:0:0:
376,112,167014,1,10,0:0:0:0:
376,272,167412,1,10,0:0:0:0:
304,232,167610,5,4,0:0:0:0:
304,152,167809,1,0,0:0:0:0:
376,112,168008,1,0,0:0:0:0:
472,240,168405,2,0,B|440:348|336:372,1,200,8|0,0:0|0:0,0:0:0:0:
256,372,169001,1,0,0:0:0:0:
256,292,169200,2,0,B|256:92,1,200
328,52,169796,1,2,0:0:0:0:
256,12,169994,1,8,0:0:0:0:
184,52,170193,1,2,0:0:0:0:
256,192,170591,1,0,0:0:0:0:
256,192,170789,1,4,0:0:0:0:
256,192,170889,12,0,173968,0:0:0:0:
