osu file format v9

[General]
AudioFilename: 01 Invincible.mp3
AudioLeadIn: 0
PreviewTime: 165138
Countdown: 1
SampleSet: Normal
StackLeniency: 0.7
Mode: 0
LetterboxInBreaks: 1

[Editor]
DistanceSpacing: 1
BeatDivisor: 4
GridSize: 8

[Metadata]
Title:Invincible
Artist:OK Go
Creator:eee
Version:iNiS980
Source:
Tags:Oh No m980 project okgo

[Difficulty]
HPDrainRate:7
CircleSize:3
OverallDifficulty:6
ApproachRate:6
SliderMultiplier:2.2
SliderTickRate:2

[Events]
//Background and Video events
0,0,"okgo.jpg"
//Break Periods
2,47293,50779
2,74760,90697
2,129842,133769
2,153004,163799
//Storyboard Layer 0 (Background)
//Storyboard Layer 1 (Fail)
//Storyboard Layer 2 (Pass)
//Storyboard Layer 3 (Foreground)
//Storyboard Sound Samples
//Background Colour Transformations
3,100,163,162,255

[TimingPoints]
4900,574.162679425837,4,1,0,100,1,0
7224,621.761658031088,4,1,0,100,1,0
9711,610.376398779247,4,1,0,100,1,0
12152,619.834710743802,4,1,0,100,1,0
17110,625.651720542231,4,1,0,100,1,0
17129,625,4,1,0,100,1,0
24617,624.349635796046,4,1,0,100,1,0
47093,631.578947368421,4,1,0,100,1,0
52145,621.761658031088,4,1,0,100,1,0
62093,626.959247648903,4,1,0,100,1,0
72124,609.137055837563,4,1,0,100,1,0
74560,625,4,1,0,100,1,0
107070,628.272251308901,4,1,0,100,1,0
117122,626.959247648903,4,1,0,100,1,0
122137,626.304801670146,4,1,0,100,1,0
129642,647.249190938511,4,1,0,100,1,0
134184,-100,4,2,0,100,0,0
139997,638.977635782748,4,2,0,100,1,0
155342,606.060606060606,4,1,0,100,1,0
157788,600,4,1,0,100,1,0
160210,618.556701030928,4,1,0,100,1,0
165176,625,4,1,0,100,1,0
185176,625.651720542231,4,1,0,100,1,0

[Colours]
Combo1 : 40,34,151
Combo2 : 210,210,0
Combo3 : 191,96,0
Combo4 : 175,3,3

[HitObjects]
96,80,26802,1,0
0,24,27114,1,4
0,136,27426,1,0
0,136,27582,1,0
192,304,28050,1,0
96,248,28363,1,4
96,360,28675,1,0
96,360,28831,1,0
200,24,29455,5,0
200,24,29611,1,4
312,24,29923,1,0
312,24,30080,1,8
256,120,30392,1,8
160,168,30704,1,0
64,224,31016,2,4,B|88:336|216:384|320:344,1,275,4|0
456,328,32109,5,2
456,328,32421,1,2
56,240,33357,1,2
56,240,33670,1,2
432,312,34606,5,2
344,248,34918,1,0
344,248,35074,1,8
256,312,35387,1,0
256,312,35543,1,8
168,248,35855,1,2
80,176,36167,1,0
80,176,36323,1,4
416,80,36791,5,0
512,24,37103,1,4
512,136,37416,1,0
512,136,37572,1,0
320,304,38040,1,0
416,248,38352,1,4
416,360,38664,1,0
416,360,38820,1,0
312,24,39445,5,0
312,24,39601,1,4
200,24,39913,1,0
200,24,40069,1,8
256,120,40381,1,8
352,168,40694,1,0
448,296,41162,2,2,B|408:352|296:384|224:352,1,220
56,328,42098,5,2
56,328,42410,1,2
456,240,43347,1,2
456,240,43659,1,2
256,8,44127,5,0
256,8,44284,1,0
160,64,44596,1,4
256,112,44908,1,0
256,112,45064,1,0
256,112,45220,1,8
352,168,45532,1,0
352,168,45688,1,8
256,216,46000,1,8
160,272,46313,1,0
160,272,46469,1,8
200,368,46781,1,8
312,368,47093,1,4
176,160,51829,5,0
256,88,52145,1,4
336,16,52455,1,0
336,16,52611,2,2,B|480:0|568:136|552:320|416:384,1,495
256,264,54632,5,2
200,360,54942,1,2
312,360,55253,1,2
496,160,56031,5,0
496,160,56186,1,0
416,88,56497,1,4
336,160,56808,1,0
256,88,57119,1,4
168,16,57429,1,0
168,16,57585,2,2,B|24:0|-64:136|-48:320|88:384,1,495
256,360,59917,5,2
256,360,60227,1,2
16,160,61160,5,0
96,88,61471,1,4
176,160,61782,1,0
256,88,62093,1,4
336,16,62406,1,0
336,16,62563,2,2,B|480:0|568:136|552:320|416:384,1,495
256,264,64600,5,2
200,360,64914,1,2
312,360,65227,1,2
496,160,66011,5,0
496,160,66168,1,0
416,88,66481,1,4
336,160,66795,1,0
256,88,67108,1,4
168,16,67422,1,0
168,16,67578,2,2,B|24:0|-64:136|-48:320|88:384,1,495
168,368,69303,1,0
256,296,69616,1,4
341,368,69929,1,0
341,368,70086,2,2,B|485:384|573:248|557:64|421:0,1,495
321,38,71810,5,0
193,38,72124,2,8,B|118:73|84:141|99:220,1,220
151,314,73037,2,8,B|229:378|346:361|405:287|410:209,1,330
398,113,74255,1,8
321,38,74560,1,4
96,80,91747,5,0
0,24,92060,1,4
0,136,92372,1,0
0,136,92528,1,0
96,248,92841,1,0
96,248,92997,1,0
96,360,93310,1,4
192,304,93622,1,0
192,304,93935,1,0
256,216,94247,5,0
256,216,94560,1,12
200,120,94872,1,0
200,120,95028,1,8
312,120,95341,1,8
368,24,95653,1,0
368,24,95810,1,4
256,8,96122,1,0
144,24,96435,1,4
456,328,97060,5,2
456,328,97372,1,2
56,240,98310,1,2
56,240,98622,1,2
256,8,99247,5,0
352,64,99560,1,4
256,112,99872,1,0
256,112,100028,1,0
256,112,100185,1,8
160,168,100497,1,0
160,168,100653,1,8
256,216,100966,1,8
352,272,101278,1,0
352,272,101435,1,8
256,192,102060,12,4,105810
336,224,106747,5,0
256,296,107070,1,4
176,368,107384,1,0
176,368,107541,2,2,B|32:384|-56:248|-40:64|96:0,1,495
256,120,109583,5,2
312,24,109897,1,2
200,24,110211,1,2
16,224,110996,5,0
16,224,111153,1,0
96,296,111467,1,4
176,224,111782,1,0
256,296,112096,1,4
344,368,112410,1,0
344,368,112567,2,2,B|488:384|576:248|560:64|424:0,1,495
256,24,114923,5,2
256,24,115237,1,2
496,224,116179,5,0
416,296,116494,1,4
336,224,116808,1,0
256,296,117122,1,4
176,368,117435,1,0
176,368,117592,2,2,B|32:384|-56:248|-40:64|96:0,1,495
256,120,119629,5,2
312,24,119943,1,2
200,24,120256,1,2
16,224,121040,5,0
16,224,121197,1,0
96,296,121510,1,4
176,224,121824,1,0
256,296,122137,1,4
344,368,122450,1,0
344,368,122606,2,2,B|488:384|576:248|560:64|424:0,1,495
344,16,124329,1,0
256,88,124642,1,4
171,16,124955,1,0
171,16,125111,2,2,B|27:0|-61:136|-45:320|91:384,1,495
191,346,126834,5,0
319,346,127147,2,8,B|394:311|428:243|413:164,1,220
361,70,128086,2,8,B|283:6|166:23|107:97|102:175,1,330
114,271,129339,1,8
191,346,129642,1,4
312,344,134819,6,2,B|494:397|660:208|559:-15|388:-54|251:-8|165:107|211:250,1,880
360,192,138703,5,2
152,192,139350,1,4
200,344,139997,2,2,B|17:397|-148:208|-47:-15|123:-54|260:-8|346:107|300:250,1,880
256,152,144469,5,2
102,242,145108,2,2,B|38:62|217:-119|433:0|462:148|394:280,1,660
256,328,147664,6,2,B|152:408|16:376|-64:232|16:104,1,440
160,208,149581,1,0
112,80,150220,2,2,B|168:-8|359:-15|411:100,1,330
512,135,151498,2,2,B|560:230|499:378|360:408|252:325,1,440
336,160,164849,5,0
256,88,165176,1,4
176,16,165488,1,0
176,16,165644,2,2,B|32:0|-56:136|-40:320|96:384,1,495
256,264,167676,5,2
312,360,167988,1,2
200,360,168301,1,2
16,160,169082,5,0
16,160,169238,1,0
96,88,169551,1,4
176,160,169863,1,0
256,88,170176,1,4
344,16,170488,1,0
344,16,170644,2,2,B|488:0|576:136|560:320|424:384,1,495
256,360,172988,5,2
496,160,174238,5,0
416,88,174551,1,4
336,160,174863,1,0
256,88,175176,1,4
176,16,175488,1,0
176,16,175644,2,2,B|32:0|-56:136|-40:320|96:384,1,495
256,264,177676,5,2
312,360,177988,1,2
200,360,178301,1,2
16,160,179082,5,0
16,160,179238,1,0
96,88,179551,1,4
176,160,179863,1,0
256,88,180176,1,4
344,16,180488,1,0
344,16,180644,2,2,B|488:0|576:136|560:320|424:384,1,495
344,368,182363,1,0
256,296,182676,1,4
171,368,182988,1,0
171,368,183144,2,2,B|27:384|-61:248|-45:64|91:0,1,495
296,16,185176,6,2,B|373:-17|449:47|430:129,1,220
352,200,186114,1,0
352,200,186270,2,2,B|301:213|237:159|241:107,1,165
336,104,187052,1,4
504,192,187678,1,4
504,304,187991,5,8
408,360,188304,1,8
312,304,188617,1,0
312,304,188773,1,8
504,80,189242,1,8
408,24,189555,1,8
312,80,189868,1,8
216,16,190181,6,2,B|139:-17|63:47|82:129,1,220
160,200,191119,1,0
160,200,191276,2,2,B|211:213|275:159|271:107,1,165
176,104,192058,1,4
8,192,192683,1,4
8,304,192996,5,8
104,360,193309,1,8
200,304,193622,1,0
200,304,193778,1,8
448,280,194247,1,8
448,280,194404,1,0
448,280,194560,1,8
392,184,194873,1,8
344,88,195186,6,2,B|307:13|206:12|168:88,1,220
184,190,196124,1,0
184,190,196281,2,2,B|214:233|298:233|328:190,1,165
256,112,197063,1,4
312,16,197376,1,0
200,16,197689,1,4
24,80,198001,5,8
24,192,198314,1,8
24,304,198627,1,0
24,304,198783,1,8
256,192,199253,1,8
256,192,200191,12,0,207543
