osu file format v5

[General]
AudioFilename: Do What You Want.mp3
AudioLeadIn: 0
PreviewTime: -1
Countdown: 0
SampleSet: Normal
EditorBookmarks: 18381,57262,71703,86144,93031,113471,132134,147686,153462,178790

[Metadata]
Title:Do What You Want
Artist:OK Go
Creator:BluePaladin25
Version:Hard

[Difficulty]
HPDrainRate:6
CircleSize:5
OverallDifficulty:5
SliderMultiplier:1.7
SliderTickRate:2

[Events]
//Background and Video events
0,0,"YellowPatternBG24K.JPG"
//Break Periods
2,57239,70947
2,86122,92276
2,119448,131378
2,147664,152707
//Storyboard Layer 0 (Background)
//Storyboard Layer 1 (Failing)
//Storyboard Layer 2 (Passing)
//Storyboard Layer 3 (Foreground)
//Storyboard Sound Samples
//Background Colour Transformations
3,100,163,162,255

[TimingPoints]
1941,444.444444444444,4,1,0,100

[Colours]
Combo1 : 64,0,0
Combo2 : 210,0,0
Combo3 : 242,213,0
Combo4 : 128,0,64

[HitObjects]
96,72,18829,1,0
96,208,19274,1,0
96,272,19496,1,0
232,296,19940,5,2
288,256,20163,1,2
336,208,20385,2,0,B|393:141|344:96,1,85
312,88,20829,2,0,B|245:31|200:80,1,85
168,64,21274,1,4
40,56,21940,5,0
88,96,22163,1,0
136,136,22385,1,0
184,176,22607,2,2,B|264:248,2,85
104,320,23718,5,0
104,256,23940,1,0
104,192,24163,1,0
104,192,24385,1,0
168,192,24607,1,0
168,256,24829,1,0
168,320,25052,1,0
168,320,25274,1,0
232,320,25496,6,0,B|320:248,1,85
336,216,25940,1,2
336,152,26163,2,0,B|336:64,2,85
336,16,27274,5,2
272,40,27496,1,2
208,56,27718,2,2,L|184:88|136:48|88:112,1,170
88,168,28385,2,2,B|24:184|16:224|24:304|40:336,1,170
96,320,29052,6,0,B|184:320,1,85
181,320,29496,2,0,B|288:320,1,85
266,320,29940,2,0,B|360:320,1,85
264,216,30607,1,0
328,208,30829,5,0
328,208,31052,1,2
328,208,31274,1,0
328,208,31496,1,2
328,208,31718,1,0
328,208,31940,1,2
328,208,32163,1,0
328,208,32385,1,2
328,208,32607,1,0
328,136,32829,6,0,B|232:136,1,85
176,136,33274,2,0,B|96:224,1,85
120,264,33718,1,4
296,360,34385,5,0
336,304,34607,1,0
376,248,34829,1,0
424,120,35274,1,0
304,56,35718,2,0,B|208:56,1,85
224,120,36163,1,0
224,232,36607,2,0,B|344:232,1,85
312,296,37052,1,0
440,256,37496,5,0
408,192,37718,1,0
360,144,37940,1,0
296,120,38163,1,0
224,120,38385,1,0
160,144,38607,1,0
112,192,38829,1,0
80,256,39052,1,4
176,256,39496,6,0,B|248:168,1,85
136,72,40163,5,0
88,112,40385,1,0
88,176,40607,1,0
136,224,40829,1,0
160,288,41052,6,2,B|208:320|248:328|280:304|320:280,1,170
384,224,41940,6,2,B|384:128,1,85
312,136,42385,2,2,B|312:240,1,85
248,200,42829,6,2,B|200:168|160:160|128:184|88:208,1,170
80,336,43718,5,0
128,288,43940,1,0
128,224,44163,1,0
176,176,44385,1,0
336,304,45052,2,0,B|432:304,1,85
384,248,45496,2,0,B|384:144,1,85
424,104,45940,2,0,B|296:104,1,85
208,56,46607,1,0
160,104,46829,1,0
56,192,47274,5,0
104,240,47496,1,0
56,288,47718,1,0
104,336,47940,1,0
144,280,48163,6,2,B|112:232|104:192|128:160|152:120,1,170
200,64,48829,6,0,B|264:136,1,85
296,176,49274,1,0
344,224,49496,1,0
392,272,49718,1,0
328,280,49940,6,2,B|280:312|240:320|208:296|168:272,1,170
96,104,50829,6,0,B|136:56|200:120,2,85
96,168,51496,2,0,B|136:120|200:184,1,85
232,192,51940,2,0,B|272:191|296:248,3,85
360,216,52829,1,0
376,152,53052,1,0
392,88,53274,1,0
256,48,53718,6,0,B|256:320,1,255
256,303,54607,1,0
256,303,54829,1,4
256,192,55274,12,0,57052
256,336,72163,5,0
256,200,72607,1,0
256,128,72829,1,0
136,64,73274,6,0,B|136:176,1,85
200,144,73718,2,0,B|200:256,1,85
264,224,74163,2,0,B|264:320,1,85
328,312,74607,1,4
176,312,75052,6,2,B|135:246|84:356|68:334|8:272,1,170
32,224,75718,1,0
32,152,75940,2,2,B|73:86|124:196|140:174|200:112,1,170
320,128,76829,5,0
320,128,77052,1,0
320,128,77274,1,0
320,128,77496,1,2
320,192,77718,5,0
320,192,77940,1,0
320,192,78163,1,0
320,192,78385,1,2
384,192,78607,5,0
424,136,78829,1,0
440,72,79052,1,0
376,56,79274,2,2,B|352:104|336:136|304:136|248:128|208:120,1,170
176,128,79940,1,6
288,312,80607,5,0
224,280,80829,1,0
288,248,81052,1,0
224,216,81274,1,0
288,184,81496,1,2
224,152,81718,1,6
56,40,82385,5,0
120,40,82607,1,0
184,40,82829,1,0
248,40,83052,1,0
312,40,83274,2,2,B|416:40,1,85
336,160,83940,6,0,B|368:176|376:208|352:240|336:248,1,85
304,280,84385,2,0,B|288:312|256:320|224:296|216:280,1,85
176,256,84829,2,0,B|144:240|136:208|160:176|176:168,1,85
208,136,85274,2,0,B|224:104|256:96|288:120|296:136,1,85
296,184,85718,1,4
240,224,85940,1,4
384,280,93496,5,0
384,208,93718,1,0
312,208,93940,1,0
312,280,94163,1,0
312,344,94385,2,2,B|128:344,1,170
144,208,95274,5,0
208,208,95496,1,0
208,144,95718,1,0
144,144,95940,1,0
80,144,96163,2,2,B|72:112|72:80|80:56|104:32|136:24|184:32,1,170
296,40,97052,5,0
336,96,97274,1,0
352,160,97496,1,0
328,224,97718,1,0
160,336,98385,2,0,B|88:256,1,85
160,240,98829,2,0,B|232:160,1,85
160,136,99274,2,0,B|88:56,1,85
232,40,99940,1,0
296,40,100163,1,0
304,176,100607,5,0
304,240,100829,1,0
240,240,101052,1,0
240,304,101274,1,0
304,304,101496,2,2,C|360:264|368:320|432:312,2,170
240,304,102607,5,0
168,304,102829,1,0
96,304,103052,1,0
24,304,103274,2,2,C|24:128|192:56,1,340
200,120,104385,1,0
160,168,104607,1,0
200,224,104829,1,0
264,344,105274,5,0
320,304,105496,1,0
368,256,105718,1,0
384,192,105940,1,0
368,128,106163,1,0
320,80,106385,1,0
264,40,106607,1,0
256,192,107940,5,0
256,192,108163,1,0
184,160,108607,6,2,B|235:127|277:120|344:168,1,170
408,168,109274,1,0
408,232,109496,1,0
192,288,110385,2,2,B|104:288,1,85
80,152,111052,1,0
80,88,111274,1,0
216,88,111718,5,0
352,88,112163,2,2,B|376:136|368:152|328:160|320:160,1,85
264,152,112607,1,0
192,152,112829,2,2,B|168:200|208:232,1,85
256,192,113940,12,0,119274
384,56,132607,1,0
248,56,133052,5,0
112,56,133496,5,0
112,192,133940,5,0
248,192,134385,1,0
312,192,134607,1,2
312,120,134829,1,2
312,192,135052,1,2
312,120,135274,1,2
312,256,135718,5,0
176,248,136163,1,0
112,216,136385,1,2
112,280,136607,1,2
48,248,136829,1,2
48,176,137052,1,2
144,80,137496,5,0
280,72,137940,1,0
344,96,138163,1,2
280,128,138385,1,2
344,152,138607,1,2
280,184,138829,1,2
400,256,139274,6,0,B|360:304|304:320|256:304|216:296,1,170
184,272,139940,2,2,B|136:232|134:197|132:184|136:176,1,85
136,136,140385,2,2,B|176:88|211:86|224:84|232:88,1,85
328,32,141052,5,0
328,168,141496,1,0
288,224,141718,2,2,B|384:224,1,85
368,288,142163,2,2,B|264:288,1,85
144,296,142829,6,0,B|112:264|80:216|64:152|128:136,1,170
160,112,143496,1,2
224,136,143718,1,2
240,200,143940,1,2
208,256,144163,1,2
336,312,144607,6,0,L|400:272|360:224|360:160,1,170
360,120,145274,1,2
288,120,145496,1,2
256,56,145718,1,2
224,120,145941,1,2
256,176,146163,5,0
256,176,146385,1,0
256,176,146607,1,0
256,176,146829,1,0
256,176,147052,1,0
256,176,147274,1,0
256,176,147496,1,0
344,312,153941,5,0
392,264,154163,1,0
440,216,154385,1,0
488,168,154607,1,0
440,120,154829,5,0
304,120,155274,1,0
168,120,155718,1,0
168,184,155941,1,0
168,248,156163,1,0
168,312,156385,1,0
400,352,157052,5,0
288,272,157496,1,0
232,232,157718,1,0
288,192,157941,1,0
232,152,158163,1,0
72,24,158829,5,0
208,24,159274,1,0
272,24,159496,1,0
336,24,159718,1,0
336,88,159941,2,0,B|296:144|264:144|264:144|280:176|312:208|352:200|368:200|368:200|352:232|320:272|240:312|280:288|280:288|280:320|336:352,1,425
256,336,161274,1,0
256,264,161496,1,0
256,192,161718,1,0
256,192,161940,12,0,165496
304,64,165718,2,0,B|256:72|216:96|184:128|224:192,3,170
248,232,167274,2,0,B|320:240|360:200|368:144|432:200,3,170
256,192,169052,12,0,172607
256,192,173052,1,0
256,192,173274,1,0
120,192,173718,1,0
160,136,173941,1,0
224,104,174163,1,0
288,104,174385,1,0
352,136,174607,1,0
392,192,174829,1,0
352,248,175052,1,0
288,280,175274,1,0
224,280,175496,1,0
160,248,175718,1,0
120,192,175941,1,0
192,104,177052,5,0
72,168,177718,5,0
112,208,177941,1,0
256,192,179052,5,0
256,192,179274,12,4,183496
