osu file format v9

[General]
AudioFilename: OK Go - A Million Ways.mp3
AudioLeadIn: 3000
PreviewTime: 95804
Countdown: 1
SampleSet: Normal
StackLeniency: 0.7
Mode: 0
LetterboxInBreaks: 1

[Editor]
DistanceSpacing: 0.8
BeatDivisor: 4
GridSize: 8

[Metadata]
Title:A Million Ways
Artist:OK Go
Creator:EEeee
Version:Cruel
Source:
Tags:eee

[Difficulty]
HPDrainRate:7
CircleSize:5
OverallDifficulty:7
ApproachRate:7
SliderMultiplier:1.8
SliderTickRate:2

[Events]
//Background and Video events
0,0,"152579_f_1.jpg"
Video,-1600,"Movie.flv"
//Break Periods
2,110773,112904
//Storyboard Layer 0 (Background)
//Storyboard Layer 1 (Fail)
//Storyboard Layer 2 (Pass)
//Storyboard Layer 3 (Foreground)
//Storyboard Sound Samples
//Background Colour Transformations
3,100,65,107,218

[TimingPoints]
3497,461.538461538462,4,1,1,70,1,0
137759,-100,4,1,1,90,0,0
140239,-100,4,1,1,70,0,0

[Colours]
Combo1 : 250,126,139
Combo2 : 11,217,234
Combo3 : 247,252,39
Combo4 : 88,250,84

[HitObjects]
0,48,3497,2,4,B|208:48,1,180,4|0
256,48,4189,1,0
256,120,4420,2,0,B|64:120,1,180
0,120,5112,1,0
0,192,5343,2,0,B|180:192,1,180
256,192,6035,1,0
256,264,6266,2,0,B|144:264,1,90
96,264,6727,2,0,B|-8:264,1,90
0,336,7189,6,0,B|216:336,1,180
256,336,7881,1,0
328,336,8112,2,0,B|400:272|488:248,1,180
488,320,8804,1,0
488,320,9035,2,0,B|399:281|340:212,1,180
344,144,9727,2,0,B|128:144,1,180
128,144,10304,2,0,B|72:144,3,45
24,104,10881,6,0,B|24:296,1,180
24,360,11573,1,0
24,360,11804,2,0,B|112:336|216:360,1,180
272,360,12496,1,0
272,360,12727,2,0,B|360:336|464:360,1,180
448,288,13420,1,0
448,288,13650,2,0,B|504:176,2,90
448,288,14343,1,0
448,288,14573,2,0,B|357:266|269:290,1,180
200,288,15266,5,0
200,288,15496,2,0,B|16:288,1,180
24,216,16189,1,0
24,216,16420,2,0,B|80:168|64:96,1,90
24,80,16881,1,0
24,80,17112,2,0,B|216:56,1,180
202,57,17689,1,0
202,57,17804,1,0
202,57,17920,1,0
202,57,18035,1,0
202,57,18266,5,0
344,40,18727,1,0
464,120,19189,1,0
464,192,19420,1,0
464,264,19650,1,0
328,320,20112,5,0
328,320,20343,1,0
256,320,20573,1,0
184,320,20804,1,0
112,320,21035,2,0,B|0:320,2,90
152,256,21727,5,0
216,216,21958,1,0
288,216,22189,1,0
360,232,22420,1,0
432,224,22650,1,0
480,168,22881,1,0
472,96,23112,1,0
416,48,23343,1,0
344,32,23573,1,0
272,32,23804,6,0,B|208:32|160:80,2,90
272,104,24497,2,0,B|272:200,1,90
272,264,24958,2,0,B|328:264,4,45
200,264,25650,5,0
72,336,26112,1,0
16,200,26573,1,0
72,152,26804,1,0
128,104,27035,1,0
256,40,27497,5,0
256,112,27727,1,0
256,184,27958,1,0
256,112,28189,1,0
256,40,28420,1,0
328,40,28650,1,0
328,112,28881,1,0
328,184,29112,5,0
400,184,29343,1,0
472,184,29573,1,0
400,184,29804,1,0
328,184,30035,1,0
328,256,30266,1,0
400,256,30497,1,0
472,256,30727,1,0
472,328,30958,1,0
400,328,31189,6,0,B|288:328,1,90
240,328,31650,2,0,B|136:328,1,90
80,328,32112,1,0
80,328,32343,6,0,B|16:184,1,135
120,144,33035,1,4
192,152,33266,1,0
256,184,33497,1,0
432,328,34189,2,0,B|496:184,1,135
392,144,34881,1,0
320,152,35112,1,0
256,184,35343,1,0
40,184,36035,5,0
40,184,36266,1,0
40,184,36497,1,0
40,112,36727,2,0,B|184:112,2,135
40,40,37650,2,0,B|208:40,1,135
280,80,38343,1,0
280,80,38573,2,0,B|424:80,2,135
280,152,39497,2,0,B|416:152,2,135
208,152,40420,5,0
208,152,40650,1,0
208,152,40881,1,0
208,224,41112,2,0,B|104:224,2,90
208,296,41804,1,0
208,296,42035,1,0
208,296,42266,2,0,B|304:304|384:360,1,180
448,352,42958,2,0,B|448:160,1,180
512,208,43650,1,0
512,208,43881,1,0
512,208,44112,6,0,B|512:16,1,180
440,24,44804,1,0
368,24,45035,1,0
296,24,45266,1,0
296,96,45497,1,0
368,96,45727,1,0
440,96,45958,1,0
368,96,46189,1,0
296,96,46420,1,0
296,168,46650,1,0
336,232,46881,2,0,B|336:328,1,90
408,232,47343,2,0,B|408:328,1,90
440,328,47804,2,0,B|240:328,1,180
224,328,48381,2,0,B|168:328,3,45
224,192,49189,5,0
296,168,49420,1,0
304,88,49650,2,0,B|208:80|128:24,1,180
64,32,50343,2,0,B|64:224,1,180
0,176,51035,1,0
0,176,51266,1,0
0,176,51497,6,0,B|0:368,1,180
72,360,52189,1,0
144,360,52420,1,0
216,360,52650,1,0
216,288,52881,1,0
144,288,53112,1,0
72,288,53343,1,0
144,288,53573,1,0
216,288,53804,1,0
216,216,54035,1,0
144,216,54266,1,0
144,216,54497,1,0
72,216,54727,1,0
72,216,54958,1,0
72,144,55189,2,0,B|288:144,1,180
288,144,55766,2,0,B|344:144,3,45
256,192,56573,12,4,58881
304,64,59343,5,0
304,64,59573,1,0
304,64,59804,2,0,B|392:104|496:64,1,180
480,144,60497,1,0
480,144,60727,2,0,B|392:184|288:144,1,180
248,112,61420,1,0
248,112,61650,2,0,B|136:112,2,90
248,184,62343,1,0
248,184,62573,2,0,B|64:184,1,180
72,256,63266,5,0
72,256,63497,2,0,B|160:296|264:248,1,180
248,184,64189,1,0
248,184,64420,2,0,B|336:144|440:184,1,180
472,232,65112,1,0
472,232,65343,2,0,B|472:328,2,90
423,178,66035,1,0
423,178,66266,6,0,B|336:144|248:184,1,180
248,288,67073,1,0
248,288,67189,1,0
176,288,67420,1,0
104,288,67650,1,0
104,144,68112,5,0
104,72,68343,1,0
128,144,68573,1,0
128,72,68804,1,0
152,144,69035,1,0
152,72,69266,1,0
176,144,69497,1,0
176,72,69727,5,0
248,72,69958,1,0
320,72,70189,1,0
248,96,70420,1,0
320,96,70650,1,0
248,120,70881,1,0
320,120,71112,1,0
248,144,71343,1,0
320,144,71573,1,0
392,144,71804,1,0
392,72,72035,1,0
392,144,72266,1,0
392,288,72727,5,0
392,288,73189,1,0
256,336,73650,5,0
120,288,74112,1,0
56,160,74573,1,0
120,128,74804,1,0
192,136,75035,1,0
208,280,75497,5,0
256,336,75727,1,0
328,344,75958,1,0
400,336,76189,1,0
456,288,76420,1,0
456,216,76650,1,0
448,144,76881,1,0
392,96,77112,1,0
328,64,77343,5,0
256,56,77573,1,0
184,64,77804,1,0
120,96,78035,1,0
64,144,78266,1,0
56,216,78497,1,0
56,288,78727,1,0
112,336,78958,1,0
184,344,79189,1,0
256,336,79420,1,0
328,344,79650,2,0,B|432:160,1,180
488,192,80343,6,0,B|464:104|512:40,1,135
392,32,81035,1,0
320,40,81266,1,0
256,80,81496,1,0
24,192,82189,2,0,B|48:104|0:40,1,135
120,32,82881,1,0
192,40,83112,1,0
256,80,83343,1,0
256,296,84035,5,0
256,296,84266,1,0
256,296,84496,1,0
256,224,84727,2,0,B|112:224,2,135
256,152,85650,2,0,B|112:152,1,135
24,192,86343,1,0
24,192,86573,2,0,B|24:344,2,135
24,120,87496,2,0,B|136:40,2,135
24,192,88420,5,0
24,192,88650,2,0,B|24:288,1,90
88,240,89112,2,0,B|152:176|272:200,1,180
232,120,89804,1,0
232,120,90035,1,0
232,120,90266,2,0,B|328:136|424:40,1,180
464,32,90958,2,0,B|496:120|464:212,1,180
448,280,91650,5,0
440,352,91881,1,0
440,352,91996,1,0
440,352,92112,2,0,B|312:352,1,90
280,346,92573,2,0,B|280:242,3,90
280,256,93496,1,0
280,256,93727,1,0
280,256,93958,2,0,B|184:226|88:274,1,180
152,322,94650,2,0,B|192:218|136:138,1,180
80,114,95343,1,0
80,114,95458,1,0
80,114,95573,1,0
80,114,95689,1,0
80,114,95804,6,0,B|80:18,1,90
152,26,96266,2,0,B|264:26,1,90
312,26,96727,2,0,B|336:66|384:82,1,90
384,154,97189,2,0,B|496:154,1,90
472,226,97650,2,0,B|382:226,1,90
384,298,98112,2,0,B|496:298,1,90
472,370,98573,2,0,B|382:370,3,90
312,368,99496,2,0,B|130:368,1,180
96,368,100073,2,0,B|14:368,3,45
136,226,100881,5,0
62,208,101112,1,0
46,129,101343,2,0,B|140:111|214:46,1,180
280,50,102035,2,0,B|280:234,1,180
344,194,102727,1,0
344,192,102958,1,0
344,194,103189,6,0,B|344:386,1,180
416,370,103881,1,0
416,370,104112,2,0,B|480:290,1,90
416,250,104573,2,0,B|480:170,1,90
472,106,105035,2,0,B|432:82|416:26,1,90
344,34,105496,2,0,B|232:34,1,90
184,34,105958,2,0,B|88:34,3,90
24,58,106881,2,0,B|48:138|24:242,1,180
25,236,107458,1,0
25,236,107573,1,0
25,236,107689,1,0
25,236,107804,1,0
256,192,108266,12,4,110573
24,104,113804,6,0,B|24:296,2,180
96,120,114958,1,0
96,120,115189,2,0,B|176:160|285:115,1,180
272,48,115881,1,0
272,48,116112,2,0,B|80:48,2,180
344,48,117266,5,0
344,48,117496,2,0,B|400:56|424:112,1,90
488,72,117958,2,0,B|488:272,1,180
488,320,118650,1,0
488,320,118881,2,0,B|408:376|304:320,1,180
256,360,119573,1,0
256,360,119804,2,0,B|160:344|72:360,1,180
80,288,120496,2,0,B|176:272|264:288,1,180
248,216,121189,5,0
176,208,121420,1,0
104,216,121650,2,0,B|8:160|24:48,1,180
88,32,122343,1,0
152,72,122573,2,0,B|240:24|352:72,1,180
296,128,123266,1,0
296,128,123496,2,0,B|384:176|496:128,1,180
496,208,124189,2,0,B|496:312|496:312|456:312|424:352,1,180
360,344,124881,6,0,B|272:344,1,90
200,344,125343,2,0,B|104:312|16:344,1,180
24,272,126035,1,0
24,272,126266,2,0,B|120:240|208:272,1,180
200,200,126958,1,0
200,200,127189,2,0,B|104:168|16:200,1,180
24,128,127881,2,0,B|104:98|200:130,1,180
200,56,128573,5,0
256,8,128804,1,0
312,56,129035,2,0,B|392:120|496:56,1,180
488,136,129727,1,0
416,160,129958,2,0,B|504:328,1,180
424,328,130650,1,0
352,312,130881,2,0,B|320:384|152:360,1,180
192,296,131573,2,0,B|104:264|8:296,1,180
8,224,132266,1,0
40,160,132496,1,0
72,96,132727,6,0,B|248:96,1,135,4|0
240,96,133189,2,0,B|320:112|376:48,1,135
400,64,133650,2,0,B|416:144|520:184,1,135
480,200,134112,6,0,B|480:336,1,135
480,368,134573,2,0,B|416:344|344:368,1,135
312,368,135035,2,0,B|176:368,1,135
144,368,135496,2,0,B|72:336|8:368,1,135
8,328,135958,2,0,B|48:192,1,135
80,200,136420,6,0,B|144:232|216:192,1,135
192,160,136881,2,0,B|256:120|336:160,1,135
320,120,137343,2,0,B|392:112|472:48,1,135
472,40,137804,5,4
40,40,138266,1,4
472,344,138727,5,4
40,344,139189,1,4
472,40,139650,5,4
256,344,140112,1,4
192,192,140573,5,0
224,176,140689,1,0
256,168,140804,1,0
296,176,140920,1,0
320,192,141035,2,0,B|360:216|416:192,1,90
472,160,141497,2,0,B|472:256,1,90
472,320,141958,2,0,B|424:320|376:368,1,90
320,352,142420,2,0,B|224:352,1,90
160,352,142881,2,0,B|70:352,1,90
0,328,143343,2,0,B|16:280|0:224,1,90
0,168,143804,2,0,B|72:136|192:168,1,180
208,176,144381,5,0
208,176,144497,1,0
208,176,144612,1,0
208,176,144727,2,0,B|280:208|400:176,1,180,0|0
384,104,145420,1,0
384,104,145650,2,0,B|296:72|200:104,1,180,0|0
208,176,146343,2,0,B|280:208|400:176,1,180,0|0
448,144,147035,1,0
448,144,147266,1,0
448,144,147497,6,0,B|448:240,1,90
448,304,147958,2,0,B|368:368,3,90
304,360,148881,2,0,B|256:328|192:376,1,90
144,360,149343,2,0,B|96:384|32:352,1,90
56,288,149804,2,0,B|104:264|168:296,1,90
144,360,150266,2,0,B|96:384|32:352,1,90
56,288,150727,2,0,B|104:264|168:296,1,90
144,216,151189,2,0,B|105:115|153:35,1,180
184,40,151766,5,0
184,40,151881,1,0
184,40,151997,1,0
184,40,152112,2,0,B|272:80|384:40,1,180
432,40,152804,1,0
432,40,153035,2,0,B|504:208,1,180
504,280,153727,2,0,B|400:280|336:360,1,180
296,296,154420,1,0
352,248,154650,1,0
416,208,154881,6,0,B|360:136,1,90
288,136,155343,1,0
288,136,155458,1,0
288,136,155573,1,0
288,136,155689,1,0
288,136,155804,2,0,B|248:160|160:136,1,90
208,72,156266,2,0,B|96:72,1,90
48,56,156727,2,0,B|40:160,1,90
32,216,157189,2,0,B|72:240|96:312,1,90
136,336,157650,2,0,B|176:312|224:336,3,90
296,336,158573,2,0,B|488:336,1,180
472,296,159150,6,0,B|520:296,2,45
432,296,159497,2,0,B|420:192|460:104,1,180
480,48,160189,1,0
480,48,160420,2,0,B|392:8|272:48,1,180
312,112,161112,2,0,B|264:168|368:224|304:296,1,180
312,352,161804,2,0,B|192:352,1,90
152,352,162266,5,0
152,352,162497,1,0
80,352,162727,1,0
80,280,162958,1,0
152,280,163189,1,0
152,280,163420,1,0
152,208,163650,1,0
80,208,163881,1,0
80,136,164112,1,0
152,136,164343,1,0
80,136,164573,1,0
152,136,164804,1,0
152,64,165035,1,0
224,64,165266,1,0
296,64,165497,1,0
296,64,165612,1,0
296,64,165727,1,0
296,64,165843,1,0
296,64,165958,2,0,B|376:104|480:64,1,180
488,136,166650,5,0
488,136,166881,2,0,B|472:176|488:240,1,90
488,296,167343,1,0
488,296,167573,1,0
488,296,167804,2,0,B|432:296|408:368,1,90
384,344,168150,2,0,B|312:344,12,45
384,304,169650,6,0,B|288:248|200:304,1,180
160,344,170343,1,0
160,344,170573,2,0,B|64:344,1,90
24,288,171035,1,0
88,248,171266,1,0
152,208,171497,1,0
88,168,171727,1,0
88,168,171958,1,0
24,128,172189,1,0
88,96,172420,5,0
88,168,172650,1,0
24,128,172881,1,0
88,96,173112,1,0
160,96,173343,2,0,B|232:152|352:96,1,180
368,104,173920,1,0
368,104,174035,1,0
368,104,174150,1,0
368,104,174266,2,0,B|480:72|480:224,2,180
368,176,175420,5,0
368,176,175535,1,0
368,176,175650,2,0,B|368:248,3,45
368,256,176112,2,0,B|368:304,1,45
368,336,176343,2,0,B|344:352|320:344,1,45
320,312,176573,2,0,B|296:288|256:312,1,45
280,336,176804,2,0,B|256:360|224:336,1,45
240,312,177035,6,0,B|40:312,1,180
8,264,177727,1,0
8,264,177958,2,0,B|8:64,1,180
72,120,178650,2,0,B|256:16,1,180
101,187,179343,2,0,B|256:96,1,180
328,96,180035,1,0
328,168,180266,1,0
328,240,180497,1,0
328,312,180727,2,0,B|400:384|520:312,1,180
496,288,181304,6,0,B|496:216,2,45
494,325,181650,2,0,B|400:384|328:312,3,180
256,328,183266,1,0
256,328,183381,1,0
256,328,183497,2,0,B|200:320|160:352,1,90
96,328,183958,1,0
96,328,184073,1,0
96,328,184189,1,0
24,328,184420,1,0
8,256,184650,5,0
8,184,184881,1,0
8,112,185112,2,0,B|112:128|168:32,1,180
232,48,185804,1,0
304,48,186035,2,0,B|488:48,1,180
488,120,186727,2,0,B|448:144|456:208,1,90
384,200,187189,2,0,B|384:312,1,90
384,360,187650,2,0,B|336:336|272:360,2,90,0|0|4
