osu file format v9

[General]
AudioFilename: 04 - A Good Idea At The Time.mp3
AudioLeadIn: 0
PreviewTime: 38078
Countdown: 1
SampleSet: Normal
StackLeniency: 0.7
Mode: 0
LetterboxInBreaks: 1
UseSkinSprites: 1

[Editor]
Bookmarks: 12182,32009,38944,41929,50760,54694,61579,73525,76492,91219,93188,104971,108899,112865,120766
DistanceSpacing: 1
BeatDivisor: 4
GridSize: 8

[Metadata]
Title:A Good Idea At The Time
Artist:OK Go
Creator:RandomJibberish
Version:Hard
Source:
Tags:m980 mashley okgo

[Difficulty]
HPDrainRate:7
CircleSize:4
OverallDifficulty:7
ApproachRate:7
SliderMultiplier:2.24
SliderTickRate:2

[Events]
//Background and Video events
0,0,"LookMoreOKGo.jpg"
//Break Periods
2,32009,37954
2,51251,60596
2,109094,111960
//Storyboard Layer 0 (Background)
Sprite,Background,TopLeft,"LookMoreOKGo.jpg",0,0 S,0,0,,0.625 F,0,120766,,1,0 F,0,123716,125724,0,1 F,0,157939,158923,1,0
//Storyboard Layer 1 (Fail)
//Storyboard Layer 2 (Pass)
//Storyboard Layer 3 (Foreground)
//Storyboard Sound Samples
//Background Colour Transformations
3,100,163,162,255

[TimingPoints]
265,500,4,1,0,80,1,0
8265,494.233937397035,4,1,0,80,1,0
12177,496.688741721854,4,1,0,80,1,0
20124,-100,4,1,0,80,0,1
24097,494.233937397035,4,1,0,80,1,0
28050,-100,4,1,0,80,0,1
32009,495.049504950495,4,1,0,80,1,0
38939,497.512437810945,4,1,0,80,1,0
42919,489.795918367347,4,1,0,80,1,0
50755,491.803278688525,4,1,0,80,1,0
62557,498.338870431894,4,1,0,80,1,1
66543,-100,4,1,0,80,0,0
73520,494.641384995878,4,1,0,80,1,0
77477,489.396411092985,4,1,0,80,1,0
85308,492.206726825267,4,1,0,80,1,1
91214,-100,4,1,0,80,0,0
93183,490.998363338789,4,1,0,80,1,0
104966,-100,4,1,0,80,0,1
105089,-100,4,1,0,80,0,0
108894,495.867768595041,4,1,0,80,1,0
112860,493.827160493827,4,1,0,80,1,0
120761,983.606557377049,4,1,0,80,1,0
123703,504.201680672269,4,2,0,80,1,0
125721,489.396411092985,4,1,0,80,1,0
133551,490.596892886345,4,1,0,80,1,0
137475,482.703137570394,4,1,0,80,1,0
141336,487.80487804878,4,1,0,80,1,1
144750,485.436893203884,4,1,0,80,1,1
148148,487.80487804878,4,1,0,80,1,1
151541,485.436893203884,4,1,0,80,1,1
154989,491.803278688525,4,1,0,80,1,0
160890,489.396411092985,4,1,0,80,1,0
162847,486.61800486618,4,1,0,80,1,0
166253,472.44094488189,4,1,0,80,1,0
169560,487.80487804878,4,1,0,80,1,0
172974,480,4,1,0,80,1,0
176334,480,4,1,0,80,1,0
179694,480,4,1,0,80,1,0
183054,480,4,1,0,80,1,0

[HitObjects]
24,48,12177,5,4
24,48,12301,1,0
80,144,12549,1,8
24,240,12797,1,0
80,336,13046,1,2
200,192,13418,1,0
288,120,13667,1,8
376,48,13915,1,0
488,48,14163,5,4
488,48,14287,1,0
432,144,14536,1,8
488,240,14784,1,0
440,328,15032,1,2
256,208,15405,1,0
360,155,15653,2,0,B|296:107|216:107|152:155,1,224,8|4
96,200,16274,5,0
176,280,16523,1,0
256,360,16771,1,0
416,200,17143,1,0
416,200,17268,1,0
336,120,17516,1,8
256,40,17764,1,0
152,192,18137,5,4
152,192,18261,1,0
256,240,18509,1,0
352,184,18758,2,2,B|389:240|356:324|308:336,1,168,2|8
200,384,19378,5,0
88,360,19627,1,8
64,248,19875,1,0
48,136,20124,2,0,B|80:72|136:64|192:72|224:136,1,224,4|8
295,247,20869,2,2,B|328:312|384:320|440:312|472:248,1,224
448,136,21614,1,0
424,24,21862,1,8
312,0,22110,1,0
304,96,22359,2,0,B|296:112|256:136|216:112|208:96,1,112,0|8
112,152,22855,2,0,B|160:216|256:264|352:216|400:152,1,336,4|8
256,360,24097,5,4
336,280,24344,1,0
416,200,24591,1,0
256,24,24961,1,0
176,104,25209,1,0
96,184,25456,1,0
360,192,26073,5,4
360,192,26197,1,0
256,240,26444,1,0
160,184,26691,2,2,B|123:240|156:324|204:336,1,168,2|8
312,384,27309,5,0
424,360,27556,1,8
448,248,27803,1,0
464,136,28050,2,0,B|432:72|376:64|320:72|288:136,1,224,4|8
217,247,28792,2,2,B|184:312|128:320|72:312|40:248,1,224
64,136,29533,1,0
88,24,29780,1,8
200,0,30027,1,0
208,96,30274,2,0,B|216:112|256:136|296:112|304:96,1,112,0|8
400,152,30769,2,0,B|352:216|256:264|160:216|112:152,1,336,4|8
256,192,38939,12,0,41924
24,40,42919,6,0,B|56:-8|136:16|120:40|104:64|184:88|216:40,1,224,4|8
296,112,43653,2,0,B|328:64|408:88|392:112|376:136|456:160|488:112,2,224,0|2|2
256,216,44878,5,4
176,296,45123,1,0
256,376,45367,1,8
336,296,45612,1,2
416,376,45857,1,0
496,296,46102,1,2
416,216,46347,1,8
496,136,46592,1,8
488,40,46837,6,0,B|456:-8|376:16|392:40|408:64|328:88|296:40,1,224,4|8
216,112,47572,2,0,B|184:64|104:88|120:112|136:136|56:160|24:112,2,224,0|2|2
256,216,48796,5,4
336,136,49041,1,0
416,216,49286,1,8
336,296,49531,1,2
256,376,49776,1,0
176,296,50021,1,2
96,216,50265,1,8
176,136,50510,1,8
256,56,50755,1,4
88,360,62066,5,8
64,248,62312,1,0
48,136,62557,2,0,B|80:72|136:64|192:72|224:136,1,224,4|8
295,247,63304,2,2,B|328:312|384:320|440:312|472:248,1,224
448,136,64052,1,0
424,24,64301,1,8
312,0,64550,1,0
304,96,64799,2,0,B|296:112|256:136|216:112|208:96,1,112,0|8
112,152,65297,2,0,B|160:216|256:264|352:216|400:152,1,336,4|8
448,264,66294,5,0
352,328,66543,1,4
256,264,66792,1,0
256,264,66917,1,0
160,328,67166,1,0
160,328,67291,1,8
64,264,67540,1,0
64,264,67664,1,0
368,128,68412,5,0
368,128,68537,1,2
312,32,68786,1,0
200,32,69035,1,8
144,128,69284,1,0
144,128,69409,1,4
493,353,70405,5,0
493,353,70530,1,4
414,273,70779,2,0,B|334:353,1,112,0|8
256,272,71277,2,0,B|176:352,1,112,0|2
98,271,71776,1,0
98,271,71900,2,2,B|12:357,1,112,2|8
128,144,72523,5,4
232,96,72772,1,0
280,200,73022,1,8
384,152,73271,1,8
256,192,73520,12,0,76487
488,40,77477,6,0,B|456:-8|376:16|392:40|408:64|328:88|296:40,1,224,4|8
216,112,78211,2,0,B|184:64|104:88|120:112|136:136|56:160|24:112,2,224,0|2|2
256,216,79434,5,4
336,296,79679,1,0
256,376,79923,1,8
176,296,80168,1,2
96,376,80413,1,0
16,296,80658,1,2
96,216,80902,1,8
16,136,81147,1,8
24,40,81392,6,0,B|56:-8|136:16|120:40|104:64|184:88|216:40,1,224,4|8
296,112,82126,2,0,B|328:64|408:88|392:112|376:136|456:160|488:112,2,224,0|2|2
256,216,83349,5,4
176,136,83594,1,0
96,216,83839,1,8
176,296,84083,1,2
256,376,84328,1,0
336,296,84573,1,2
416,216,84817,1,8
336,136,85062,1,8
416,56,85308,6,0,B|376:16|317:8,1,112,4|0
194,8,85800,2,0,B|136:16|96:56,1,112,8|0
96,168,86292,2,0,B|136:128|195:120,1,112,0|2
317,120,86784,2,0,B|375:127|415:167,1,112,8|2
496,192,87276,5,4
376,232,87522,1,0
256,272,87769,1,8
136,232,88015,1,0
16,192,88261,1,0
136,152,88507,1,0
256,112,88753,1,2
96,328,89245,6,0,B|136:368|195:376,1,112,4|0
317,375,89737,2,0,B|376:368|416:328,1,112,8|0
416,216,90230,2,0,B|376:256|317:264,1,112,0|2
195,264,90722,2,0,B|136:256|96:216,1,112,8|0
256,192,91214,12,0,92691
72,232,93183,5,4
168,288,93428,1,0
256,216,93673,1,8
344,144,93919,1,0
440,200,94164,2,2,B|425:74|312:32,1,224,2|8
256,128,94901,1,0
200,31,95146,2,0,B|87:74|72:200,1,224,4|0
104,304,95883,2,2,B|184:256|144:352|232:416|176:192|280:128|232:480|336:416|280:192|368:256|328:344|408:304,1,336,2|8
360,88,97110,5,2
360,88,97233,1,0
360,88,97356,1,0
256,48,97601,1,8
256,48,97724,1,0
256,48,97847,1,0
152,88,98092,1,4
152,88,98215,1,0
296,168,98583,5,0
200,232,98829,1,0
104,288,99074,2,2,B|168:352|256:364|344:352|408:288,1,336,2|4
72,200,101038,6,0,B|87:74|200:32,1,224,4|0
256,128,101775,1,0
311,31,102020,2,0,B|425:74|440:200,1,224,4|0
256,368,103002,5,0
176,288,103248,1,0
96,208,103493,1,8
176,128,103739,1,0
256,48,103984,1,2
336,128,104230,1,8
416,208,104475,1,6
256,192,104966,12,4,108894
488,48,112860,5,4
488,48,112983,1,0
432,144,113230,1,8
488,240,113477,1,0
432,336,113724,1,2
312,192,114094,1,0
224,120,114341,1,8
136,48,114588,1,0
24,48,114835,5,4
24,48,114958,1,0
80,144,115205,1,8
24,240,115452,1,0
72,328,115699,1,2
256,208,116069,1,0
152,155,116316,2,0,B|216:107|296:107|360:155,1,224,8|4
416,200,116934,5,0
336,280,117180,1,0
256,360,117427,1,0
96,200,117798,1,0
176,120,118045,1,0
176,120,118168,1,8
256,40,118415,1,0
256,200,118785,5,4
256,200,118909,1,0
176,344,119279,2,0,B|257:388|336:344,1,168,8|0
256,72,120267,1,8
256,72,120514,1,0
256,72,120761,1,0
256,192,123703,12,0,125215
512,376,125721,6,0,B|464:344|488:264|512:280|536:296|560:216|512:184,1,224,4|8
400,200,126455,2,0,B|352:168|376:88|400:104|424:120|448:40|400:8,2,224,0|2|2
336,288,127678,1,2
256,368,127923,1,0
176,288,128167,1,8
256,208,128412,1,4
336,128,128657,1,2
256,48,128902,1,0
176,128,129146,1,8
96,48,129391,1,0
0,8,129636,6,0,B|48:40|24:120|0:104|-24:88|-48:168|0:200,1,224,4|8
112,184,130370,2,0,B|160:216|136:296|112:280|88:264|64:344|112:376,2,224,0|2|2
176,88,131593,1,4
256,8,131838,1,0
336,88,132083,1,8
416,168,132327,1,4
336,248,132572,1,0
256,168,132817,1,0
176,248,133061,1,8
512,8,133551,6,0,B|464:40|488:120|512:104|536:88|560:168|512:200,1,224,4|8
400,184,134286,2,0,B|352:216|376:296|400:280|424:264|448:344|400:376,2,224,0|2|2
336,96,135513,1,2
256,16,135758,1,0
176,96,136003,1,2
256,176,136249,1,0
336,256,136494,1,6
256,336,136739,1,0
176,256,136985,1,8
96,336,137230,1,0
0,376,137475,6,0,B|48:344|24:264|0:280|-24:296|-48:216|0:184,1,224,4|8
112,200,138199,2,0,B|160:168|136:88|112:104|88:120|64:40|112:8,2,224,0|2|2
176,288,139405,5,2
256,368,139647,2,0,B|336:288,1,112,8|0
256,208,140129,1,2
336,128,140371,1,2
256,48,140612,2,0,B|168:136,1,112,8|0
64,128,141095,1,0
0,32,141336,5,4
320,232,141823,1,0
320,344,142067,2,0,B|352:392|432:368|416:344|400:320|480:296|512:344,2,224,0|2|2
256,256,143287,5,2
176,176,143531,1,0
256,96,143775,1,8
336,176,144018,1,0
416,256,144262,1,0
496,176,144506,1,0
512,32,144750,5,4
192,232,145235,1,0
192,344,145478,2,0,B|160:392|80:368|96:344|112:320|32:296|0:344,2,224,0|2|2
256,256,146691,5,2
336,176,146934,1,0
256,96,147177,1,2
176,176,147419,1,0
96,256,147662,1,6
16,176,147905,1,0
0,32,148148,5,4
320,232,148635,1,0
320,344,148879,2,0,B|352:392|432:368|416:344|400:320|480:296|512:344,2,224,0|0|2
192,344,150099,1,0
256,248,150343,2,0,B|160:176,1,112,2|0
256,152,150830,2,0,B|352:80,1,112,2|0
416,32,151318,1,6
512,32,151541,5,0
192,232,152026,1,0
192,344,152269,2,0,B|160:392|80:368|96:344|112:320|32:296|0:344,2,224,0|0|0
256,256,153482,5,2
336,176,153725,1,0
256,96,153968,1,8
176,176,154210,1,0
96,256,154453,1,0
16,176,154696,1,0
256,192,154989,12,4,158923
